#TITLE:Gangnam Style;
#SUBTITLE:;
#ARTIST:Psy;
#TITLETRANSLIT:;
#SUBTITLETRANSLIT:;
#ARTISTTRANSLIT:;
#GENRE:;
#CREDIT:;
#BANNER:Gangnam Style - bn.png;
#BACKGROUND:Gangnam Style - bg.png;
#LYRICSPATH:;
#CDTITLE:gpopcdtitle.png;
#MUSIC:Gangnam Style.ogg;
#OFFSET:0.000;
#SAMPLESTART:81.830;
#SAMPLELENGTH:14.545;
#SELECTABLE:YES;
#DISPLAYBPM:132.000;
#BPMS:0.000=132.000,140.000=264.000,141.000=132.000,141.500=66.000,142.000=-132.001,146.000=132.000,150.000=-132.001,154.000=132.000,158.000=-132.001,162.000=132.000,166.000=-132.001,170.000=132.000,174.000=-132.001,178.000=132.000,355.000=264.000,356.000=132.000,356.500=66.000,357.000=-132.001,361.000=132.000,365.000=-132.001,369.000=132.000,373.000=-132.001,377.000=132.000,381.000=-132.001,385.000=132.000,389.000=-132.001,393.000=132.000,494.000=264.000,494.500=132.000,494.750=66.000,495.000=132.000,532.000=264.000,532.250=132.000,532.375=66.000,532.500=132.000,597.000=264.000,597.250=132.000,597.375=66.000,597.500=132.000,598.500=-132.001,602.500=132.000;
#STOPS:142.000=1.364
,150.000=0.230
,158.000=0.230
,166.000=0.230
,174.000=0.230
,357.000=1.360
,365.000=0.230
,373.000=0.230
,381.000=0.230
,389.000=0.230
,495.000=0.909
,532.500=0.909
,597.500=0.909
;
#BGCHANGES:0.250=Gangnam Style4.mpg=1.000=1=0=1=Format3==CrossFade==,
99999=-nosongbg-=1.000=0=0=0 // don't automatically add -songbackground-
;
#KEYSOUNDS:;

//---------------dance-single - Gpop----------------
#NOTES:
     dance-single:
     Gpop:
     Challenge:
     9:
     0.603,0.749,0.370,0.259,0.352:
0000
0000
0000
0000
,
0000
0000
0000
0000
,
0000
0000
0000
0000
,
0000
0000
000M
0M00
00M0
M000
000M
0000
,
1001
0000
0000
0000
,
0000
0000
0000
0000
0M00
00M0
M000
0000
,
0000
0000
0000
0000
,
1100
0000
0000
1100
0000
0000
1100
0000
0101
0000
0000
0001
0100
0000
0101
0000
,
1001
1000
0100
0020
0000
0031
1000
0001
,
0100
0100
0010
0010
1000
0001
0000
1000
,
0100
0000
1000
0000
0001
0000
0100
0000
0010
0000
1000
0001
1000
0000
0010
0000
,
0100
0100
0001
0001
1000
0100
0000
0010
,
0001
0000
0000
0000
0020
0000
0000
0000
0000
0000
0000
0000
0130
0000
0000
0000
0000
1000
0000
0000
0000
0001
0000
0000
0100
0000
0000
0000
0010
0000
0000
0000
,
1000
1000
0001
0001
0100
0010
1000
1000
,
0101
0000
1100
0000
1001
0001
0100
0100
,
0110
0000
0000
0110
0000
0000
0110
0000
1001
0000
0000
1000
0001
0000
1001
0000
,
1100
0000
0100
0010
0002
0000
1003
0000
0010
0000
0100
0000
0010
0000
1000
0000
,
0010
0000
1000
0100
1000
0000
0001
0000
0100
0000
0010
0000
0100
0000
0001
0000
,
1000
0000
1000
0100
0020
0000
0031
0000
0010
0000
0100
0000
1000
0000
0010
0000
,
0100
0000
0001
1000
0100
0000
0010
0000
0001
0000
0010
0000
0100
0000
1000
0000
,
1001
0000
0001
0100
0020
0000
1030
0000
0001
0000
0100
0000
0001
0000
1000
0000
,
0100
0000
0010
0001
0010
0000
0100
0000
1000
0000
1000
0000
0001
0000
0001
0000
,
0100
0000
0010
1000
0002
0000
0103
0000
0010
0000
0100
0000
0001
0000
1000
0000
,
0011
0000
0000
0011
0000
0000
0011
0000
1010
0000
0000
1000
0010
0000
1010
0000
,
1002
0000
0000
1000
0000
0000
0203
0000
0000
0310
1000
0000
0001
0000
0100
0000
,
0002
0000
0000
0010
0000
0000
0023
0000
0000
0100
0030
0000
0100
0000
1000
0000
,
0020
0000
0000
0100
0030
0000
M1MM
0000
0000
0001
0100
0010
1000
0000
0001
0000
,
0200
0000
0000
0001
0300
0000
MMM1
0000
1000
0000
1000
0000
0100
0000
0100
0000
,
0020
0000
0000
0001
0000
0000
0032
0000
0000
1003
0100
0000
0010
0000
0100
0000
,
2000
0000
0000
0010
0000
0000
3020
0000
0000
0100
0030
0000
0100
0000
0001
0000
,
2000
0000
0000
0100
3000
0000
M1MM
0000
0010
0001
1000
0010
1000
0000
0010
0000
,
0200
0000
0000
0001
0300
0000
MMM1
0000
1000
0001
0000
0000
0100
0000
0010
0000
,
1000
0100
0010
0001
0010
0100
1000
0001
,
1000
0000
0100
M00M
0100
0000
0001
0000
1000
0000
0010
M00M
0010
0000
0001
0000
,
1000
0100
0010
0001
0100
0010
1000
0001
0100
0001
1000
0100
0010
0001
0010
0100
,
2000
0000
3000
0000
,
0000
0000
0000
0000
,
0000
0000
0000
M000
,
0000
M000
0000
0000
0000
0000
0000
0000
,
0000
0000
0000
0000
0000
0000
M00M
000M
,
0000
0000
M000
0000
000M
0000
0000
000M
0000
0000
0000
0000
0000
0000
0000
0000
,
0000
0000
0000
0000
0000
0000
0000
0000
0000
0000
0000
0000
M00M
0000
000M
0M00
,
0000
0000
M000
0000
000M
0000
0M00
000M
0000
0000
0000
0000
0000
0000
0000
0000
,
0000
0000
0000
0000
0000
0000
0000
0000
0000
0000
0000
0000
M00M
0000
000M
0M00
,
00M0
0000
M000
0000
000M
0000
0M00
000M
0000
0000
0000
0000
0000
0000
0000
0000
,
0000
0000
0000
0000
0000
0000
0000
0000
0000
0000
0000
0000
1001
0000
0001
0100
,
0010
0000
1000
0000
0001
0000
0100
0001
1000
0000
0100
0000
0010
0000
0100
1000
,
0001
0000
1000
0000
0100
M00M
0100
0000
0001
0000
0100
0000
0001
0000
1000
0100
,
0010
0000
0100
0000
1000
0000
0001
0100
0010
0000
1000
0000
0001
0000
1000
0100
,
0010
0000
0001
0000
0100
M00M
0100
0000
1000
0000
0010
0000
0110
0000
0100
0001
,
1000
0000
0001
0000
0010
0000
0100
1000
0001
0000
0100
0000
0010
0000
1000
0100
,
0010
0000
0001
0000
0010
M00M
0010
0000
1000
0000
0010
0000
0100
0000
0001
1000
,
0100
0000
0010
0000
0100
0000
1000
0001
0100
0000
0010
0000
1010
0000
0000
1010
,
0000
0000
1010
0000
0101
0000
0000
0001
0100
0000
0101
0000
1001
0000
1000
0100
,
0010
0000
0001
0000
0100
0000
0001
1000
0010
0000
0100
0000
0001
0000
1000
0100
,
0010
0000
0001
0000
2000
0000
0100
0000
3002
0000
0010
0000
1003
0000
0001
0010
,
0100
0000
1000
0000
0001
0000
0100
0010
1000
0000
0001
0000
0100
0000
0001
1000
,
0100
0000
1000
0000
0010
M00M
0010
0000
0001
0000
1000
0000
1010
0000
0010
0100
,
0001
0000
1000
0000
0100
0000
0010
0001
0010
0000
0100
0000
1000
0000
0001
0100
,
0010
0000
1000
0000
0002
0000
1000
0000
0203
0000
0010
0000
0301
0000
1000
0100
,
0010
0000
0001
0000
1000
0000
0010
0100
0001
0000
1000
0000
1100
0000
0000
1100
,
0000
0000
1100
0000
0011
0000
0000
0010
0001
0000
0011
0000
1001
0000
0000
1000
,
0000
0100
0010
0010
0001
1000
0010
0010
,
0100
0100
0001
0100
M0MM
0100
1000
1000
,
0010
0100
0001
0001
1000
0100
0010
0010
,
0001
0001
0100
0010
MM0M
0010
0001
1000
,
0100
1000
0010
0010
0100
0001
1000
0100
,
1000
1000
0001
0100
0010
0010
1010
0000
,
0011
0000
0001
0000
1001
0000
1000
0000
0100
0000
0100
0000
0110
0000
0000
0110
,
0000
0000
0110
0000
0011
0000
0000
0010
0001
0000
0011
0000
1001
0000
1000
0010
,
0200
0000
0301
0000
0100
0000
0010
0000
1000
0000
0001
0000
1000
0000
0100
0010
,
0001
0000
1000
0000
0010
0000
0100
0000
0001
0000
1000
0000
0100
0000
1000
0001
,
0200
0000
0310
0000
1000
0000
0001
0000
0010
0000
0100
0000
1000
0000
0001
0100
,
0010
0000
1000
0000
0001
0000
0100
0000
0001
0000
1000
0000
0110
0000
0001
1000
,
0020
0000
0130
0000
0001
0000
1000
0000
0001
0000
0010
0000
0100
0000
1000
0010
,
0100
0000
0001
0000
1000
0000
0001
0000
0010
0000
0100
0000
0010
0000
0001
0100
,
0020
0000
1030
0000
0001
0000
0001
0000
1000
0000
1000
0000
0101
0000
0000
0101
,
0000
0000
0101
0000
1001
0000
0000
1000
0001
0000
1001
0000
1200
0000
0000
1000
,
0000
0000
0320
0000
0000
0031
0100
0000
0010
0000
1000
0000
0002
0000
0000
0100
,
0000
0000
2003
0000
0000
0010
3000
0000
0010
0000
0100
0000
0020
0000
0000
1000
,
0030
0000
1MMM
0000
0000
0001
0100
0001
1000
0000
0100
0000
0020
0000
0000
0001
,
0030
0000
MM1M
0000
0100
0000
1000
0000
0100
0000
0010
0000
0002
0000
0000
0100
,
0000
0000
2003
0000
0000
3010
0100
0000
0001
0000
0100
0000
0020
0000
0000
1000
,
0000
0000
0230
0000
0000
0001
0300
0000
0001
0000
1000
0000
0002
0000
0000
0100
,
0003
0000
M1MM
0000
0010
1000
0001
1000
0001
0000
0100
0000
0020
0000
0000
0100
,
0030
0000
M1MM
0000
0001
1000
0000
0000
0100
0000
0010
0000
0001
0000
0100
0000
,
0010
0000
1000
0000
0100
0000
0010
0000
0001
0000
1000
0000
0001
0000
0010
M00M
,
0010
0000
1000
0000
0001
0000
0100
M00M
0100
0000
1000
0000
0001
0100
0001
1000
,
0100
0010
0100
1000
0001
0100
0010
1000
0001
0100
0010
1000
0020
0000
0000
0000
,
0000
0030
0000
0000
,
0000
0000
0000
0000
,
0000
0000
0000
0000
M000
M000
0000
0000
,
0000
0000
0000
M000
0000
0000
0000
0000
0000
0000
0000
0000
0000
0000
0000
0000
,
0000
0000
0000
0000
M000
M000
0M00
0000
,
0M00
0000
0000
M000
0M00
0000
0000
0000
0000
0000
0000
0000
0000
0000
0000
0000
,
0000
0000
0000
0000
M000
M000
0M00
00M0
,
0M00
0000
0000
M000
0M00
0000
0000
0000
0000
0000
0000
0000
0000
0000
0000
0000
,
0000
0000
0000
0000
0000
0000
0000
0000
M00M
0000
M000
000M
0M00
0000
00M0
0000
,
0M00
0000
000M
M000
0M00
0000
0000
0000
0000
0000
0000
0000
0000
0000
0000
0000
,
0000
0000
0000
0000
0000
0000
0000
0000
1001
0000
1000
0001
0100
0000
0010
0000
,
0100
0000
0001
1000
0100
0000
0010
0000
0100
0000
1000
0010
0100
0000
0001
0000
,
1000
0000
0100
M00M
0100
0000
0001
0000
1000
0000
0010
0100
0001
0000
1000
0000
,
0100
0000
0010
0100
1000
0000
0001
0000
0100
0000
0010
1000
0001
0000
1000
0000
,
0100
M00M
0100
0000
0001
0000
0010
0000
1100
0000
1000
0001
0100
0000
0010
0000
,
1000
0000
0001
0010
0100
0000
1000
0000
0001
0000
0100
0010
1000
0000
0001
0000
,
0010
M00M
0010
0000
1000
0000
0001
0000
1000
0000
0100
0010
0001
0000
0010
0000
,
0100
0000
1000
0001
0100
0000
0010
0000
1010
0000
0000
1010
0000
0000
1010
0000
,
0101
0000
0000
0001
0100
0000
0101
0000
1001
0000
1000
0001
0010
0000
0100
0000
,
1000
0000
0001
0100
0010
0000
1000
0000
0001
0000
0010
0100
1000
0000
0001
0000
,
0200
0000
0010
0000
0302
0000
0100
0000
1003
0000
0100
0010
0001
0000
0100
0000
,
0010
0000
1000
0001
0010
0000
0100
0000
1000
0000
0001
0100
0010
0000
1000
0000
,
0010
M00M
0010
0000
0001
0000
0100
0000
0011
0000
0001
1000
0100
0000
0010
0000
,
0100
0000
1000
0010
0100
0000
0001
0000
1000
0000
0100
0010
0001
0000
0001
0000
,
0200
0000
0001
0000
0320
0000
0100
0000
1030
0000
0010
1000
0001
0000
0010
0000
,
0100
0000
1000
0001
0100
0000
0010
0000
1010
0000
0000
1001
0000
0000
0101
0000
,
1100
0000
0000
1000
0001
0000
0101
0000
1001
0000
1000
0000
0200
0000
0000
0000
,
0300
0010
0001
0010
0100
0100
2000
0000
,
3000
0000
0010
0010
0100
0100
0001
1000
,
0020
0000
0230
0000
0301
1000
0020
0000
,
0030
0000
0000
0000
1000
0001
0200
0000
,
0300
0010
1000
0010
0100
0100
0002
0000
,
0003
0000
1000
1000
0001
0001
0100
0010
,
2000
0000
3002
0000
1003
0100
0011
0011
,
1010
1010
2002
3000
0200
0000
M3M3
0000
,
1MM1
0000
0000
1MM1
0000
0000
1MM1
0000
M11M
0000
0000
011M
M000
0000
M11M
0000
,
1001
0000
1000
0001
0100
0000
0010
0000
1000
0000
0010
0100
0001
0000
0010
0000
,
0100
0000
1000
0100
0010
0000
0001
0000
2000
0000
0100
0000
3002
0000
0010
0000
,
0103
0000
0010
1000
0001
0000
0010
0000
0100
0000
1000
0100
0010
0000
0001
0000
,
0100
0000
0010
1000
0001
0000
1000
0000
0100
M00M
0100
0000
0001
0000
1000
0000
,
0101
0000
0001
1000
0100
0000
0010
0000
0001
0000
0010
0100
1000
0000
0001
0000
,
0100
0000
0010
1000
0001
0000
0100
0000
0020
0000
1000
0000
0230
0000
0001
0000
,
0310
0000
1000
0100
0010
0000
0001
0000
0100
0000
0001
0010
0100
0000
1000
0000
,
0101
0000
0000
0101
0000
0000
0101
0000
1100
0000
0000
1000
0100
0000
1100
0000
,
0020
MM3M
0000
0000
1111
0000
0000
0000
,
0000
0000
0000
0000
,
0000
0000
0000
0000
,
0000
0000
0000
0000
,
0000
0000
0000
0000
,
0000
0000
0000
0000
,
0000
0000
0000
0000
,
0000
0000
0000
0000
,
0000
0000
0000
0000
,
0000
0000
0000
0000
,
0000
0000
0000
0000
,
0000
0000
0000
0000
,
0000
0000
0000
0000
,
0000
0000
0000
0000
,
0000
0000
0000
0000
,
0000
0000
0000
0000
,
0000
0000
0000
0000
0000
0000
0000
2002
0000
0000
0000
0000
3003
0000
0000
0000
0000
0000
0000
0000
0000
0000
0000
MMMM
0000
0000
0000
0000
0000
0000
0000
0000
,
0000
0000
0000
0000
,
0000
0000
0000
0000
0000
0000
0000
0000
0000
0000
0000
0000
0000
0000
0000
0000
0000
0000
0000
0000
0000
0000
0000
1111
0000
0000
0000
0000
0000
0000
0000
0000
;

//---------------dance-single - Gpop----------------
#NOTES:
     dance-single:
     Gpop:
     Hard:
     7:
     0.425,0.530,0.127,0.317,0.078:
0000
0000
0000
0000
,
0000
0000
0000
0000
,
0000
0000
0000
0000
,
0000
0000
00M0
0M00
000M
M000
0M00
0000
,
1001
0000
0000
0000
,
0000
0000
0000
0000
000M
M000
0M00
0000
,
0000
0000
0000
0000
,
1100
0000
0000
1000
0000
0000
1000
0000
0001
0000
0000
0001
0000
0000
0001
0000
,
1000
0100
0010
0002
0000
0103
0010
1000
,
0010
0010
0100
0100
0001
1000
0000
0001
,
0100
0010
1000
0010
0100
0001
0001
1000
,
0100
0100
0010
0010
0001
1000
0000
0010
,
0100
0000
0000
0000
0020
0000
0000
0000
0000
0000
0000
0000
1030
0000
0000
0000
0000
0001
0000
0000
0000
0001
0000
0000
1000
0000
0000
0000
0100
0000
0000
0000
,
0010
0010
0100
1000
0001
0001
0100
0010
,
1000
M000
0001
000M
0100
0010
1000
0001
,
0100
0000
0000
0100
0000
0000
0100
0000
0010
0000
0000
0010
0000
0000
0010
0000
,
1001
1000
0200
0000
0300
0010
0001
0010
,
0100
1000
0010
0100
0001
0100
0010
1000
,
0001
0001
0200
0000
0300
0010
1000
0001
,
0010
0010
0100
1000
0001
0100
0001
1000
,
0100
0100
0020
0000
0030
0001
1000
0001
,
0100
0010
1000
0100
1000
0010
0100
0001
,
1000
1000
0020
0000
0130
0001
1000
1000
,
0102
0000
0000
0100
0000
0000
0103
0000
0010
0000
0000
0010
0000
0000
0010
0000
,
0220
0000
0000
1330
0000
0001
1000
0200
,
0020
0000
0000
0001
0330
0000
1000
0002
,
0200
0000
0000
1303
0000
0001
0010
0200
,
2000
0000
0000
0010
3300
0000
1000
0020
,
0200
0000
0000
1330
0000
0100
0010
2000
,
0002
0000
0000
0010
3003
0000
1000
0002
,
0200
0000
0000
0313
0000
0001
0010
0200
,
2000
0000
0000
0001
3300
0000
1000
0001
,
0100
0100
0010
0010
1000
0100
0001
0100
,
4000
3040
0430
0304
,
4003
0400
0000
0000
0000
0000
0000
0000
0000
0000
0000
0000
0000
0000
3300
0000
,
2002
0000
3003
0000
,
0000
0000
0000
0000
,
0000
0000
0000
M000
,
0000
0000
0000
M000
0000
M000
0000
0000
,
0000
0000
0000
0000
0000
0000
M00M
000M
,
0000
0000
0000
M000
0000
M000
0000
0000
,
0000
000M
0000
0000
0000
0000
M00M
000M
,
0M00
0000
0000
M000
0M00
M000
0000
0000
,
0M00
000M
0000
0000
0000
0000
M00M
000M
,
0M00
00M0
0000
M000
0M00
M000
00M0
0000
,
0M00
000M
0000
0000
0000
0000
1001
0001
,
0100
0010
0000
1000
0100
1000
0010
0000
,
0100
0001
1000
1000
0100
0100
0010
0000
,
0001
1000
0000
0010
0100
0001
1000
0000
,
0100
1000
0010
0010
0100
0100
00M1
1000
,
0100
1000
0000
0010
0100
0001
1000
0000
,
0100
1000
0010
0010
0100
0001
0010
0000
,
0100
0000
1000
0000
0000
0000
0001
0000
0100
0000
0001
0000
1000
0000
0000
1000
,
0000
0000
1000
0000
0001
0000
0000
0001
0000
0000
0001
0000
0200
0000
0000
0000
,
0010
0001
0010
0301
,
1000
0100
0020
0000
0001
0000
0130
0000
,
1000
0001
0000
0100
0010
0100
0002
0000
,
1003
0100
0010
0010
0001
0001
0200
0000
,
1000
0001
1000
0301
,
1000
0001
0020
0000
0100
0000
0031
0000
,
1000
0000
0010
0000
0000
0000
0100
0000
0001
0000
1000
0000
0010
0000
0000
0010
,
0000
0000
0010
0000
0100
0000
0000
0100
0000
0000
0100
0000
0001
0000
0000
0001
,
0000
1000
0100
1000
0010
0100
0001
0001
,
1000
1000
0100
0010
00M0
1000
0001
0100
,
0001
1000
0010
0100
0100
0001
1000
1000
,
0001
0001
0010
0100
0M00
0001
1000
0010
,
0100
0001
0100
0010
1000
0001
0100
0010
,
0100
0001
1000
0100
0001
0100
1000
M000
,
0001
0000
000M
0000
0100
0000
0010
0000
1000
0000
1000
0000
0010
0000
0000
0010
,
0000
0000
0010
0000
1000
0000
0000
1000
0000
0000
1000
0000
0010
M00M
0010
0000
,
0002
0000
0003
0100
0010
1000
0001
0100
,
1000
0000
0100
0000
0001
0000
0010
0000
0100
0000
1000
0000
0100
M00M
0100
0000
,
0002
0000
1003
0010
0100
0010
1000
0000
,
0001
0000
0010
0000
1000
0000
0010
0000
0001
0000
0100
0000
0010
M00M
0010
0000
,
0002
0000
1003
0010
0100
0001
0100
0100
,
0010
0000
1000
0000
0001
0000
0100
0000
0001
0000
1000
0000
0100
M00M
0100
0000
,
0002
0000
0000
0000
1003
0000
0010
0000
0100
M00M
0100
0000
1000
0000
0000
1000
,
0000
0000
1000
0000
0100
0000
0000
0100
0000
0000
0100
0000
2200
0000
0000
0000
,
0000
3301
0000
1000
0001
0200
0020
0000
,
0000
1000
0330
0000
0001
2000
0200
0000
,
0000
0000
3310
0000
0000
0000
1000
0001
1000
0000
0200
0000
0020
0000
0000
0000
,
0000
0001
0330
0000
1000
0002
0200
0000
,
0000
1303
0000
0001
0100
0020
2000
0000
,
0000
0001
3030
0000
0010
2000
0002
0000
,
0000
3013
0000
1000
0100
0020
0002
0000
,
0000
1000
0033
0000
0001
1000
0001
0100
,
1000
0100
0010
0001
0010
1000
0004
0000
,
0403
0000
0000
0000
0340
0000
0000
0000
4030
0000
0000
0000
3004
0400
0000
0000
,
0000
0000
0000
0000
0000
0303
2002
0000
,
0000
3003
0000
0000
,
0000
0000
0000
0000
,
0000
0000
M000
0000
,
0000
0000
0000
M000
0000
0000
0000
0000
,
0000
0000
0000
0000
MM00
0M00
0000
0000
,
0000
0M00
0000
M000
0000
0000
0M00
0000
,
0000
0000
0000
0000
MM00
0M00
00M0
0000
,
0000
0M00
00M0
M000
0000
0000
0M00
00M0
,
0000
0000
0000
0000
MM00
0M00
00M0
000M
,
0000
0000
0M00
0000
00M0
0000
M000
0000
000M
000M
000M
000M
0M0M
0000
00M0
0000
,
0000
0000
0000
0000
1100
0100
0010
0001
,
0000
0100
0010
1000
0002
0000
0103
0010
,
1000
1000
0001
0001
0200
0000
0310
1000
,
0000
0001
1000
0001
0020
0000
0130
1000
,
0001
0001
0100
0100
0020
0000
1030
0001
,
0000
0100
0001
1000
0020
0000
0130
0001
,
0010
0010
0100
0100
2000
0000
3001
0100
,
0000
0000
0010
0000
1000
0000
0001
0000
0100
0000
0000
0100
0000
0000
0100
0000
,
0010
0000
0000
0010
0000
0000
0010
0000
2M00
0000
0000
0000
0001
0000
0000
0000
,
0100
0000
0001
0000
3100
0000
0010
0001
,
2000
0000
0100
0000
3001
0000
1000
0001
,
0000
0001
0100
0001
0020
0000
0130
1000
,
0010
0010
0100
0100
0002
0000
1000
0000
,
0010
0000
1000
0000
0013
0000
0100
1000
,
0002
0000
0100
0000
1003
0000
0010
0100
,
0000
0000
0001
0000
1000
0000
0001
0000
0100
0000
0000
0100
0000
0000
0100
0000
,
0001
0000
0000
0001
0000
0000
0001
0000
1000
0000
0000
0000
0020
0000
0000
0000
,
0030
0100
0001
0000
1000
0000
0020
0000
,
0030
0110
0110
1001
,
1100
0001
0110
2002
,
3003
0000
0000
0000
0001
0100
0020
0000
,
0030
1000
0001
0000
0100
0010
2000
0000
,
3000
0011
0011
1010
,
0110
0000
1000
0000
0101
0000
2000
0100
,
0010
0100
0002
0000
0010
0000
3003
0000
,
0110
0000
0000
0110
0000
0000
0110
0000
1001
0000
0000
1001
0000
0000
1001
0000
,
1400
0001
1000
0001
,
1300
0000
1000
0001
1000
1000
0001
0001
,
0200
0000
0310
1000
0000
0001
0010
0001
,
0200
0000
0310
1000
0001
0001
0100
0100
,
0040
0001
1000
0001
,
1030
0000
0001
0010
0100
0100
1000
1000
,
0002
0000
0103
0010
0000
1000
0001
0100
,
0001
0000
0000
0001
0000
0000
0001
0000
1000
0000
0000
1000
0000
0000
1000
0000
,
0020
M03M
0000
0000
1MM1
0000
0000
0000
,
0000
0000
0000
0000
,
0000
0000
0000
0000
,
0000
0000
0000
0000
,
0000
0000
0000
0000
,
0000
0000
0000
0000
,
0000
0000
0000
0000
,
0000
0000
0000
0000
,
0000
0000
0000
0000
,
0000
0000
0000
0000
,
0000
0000
0000
0000
,
0000
0000
0000
0000
,
0000
0000
0000
0000
,
0000
0000
0000
0000
,
0000
0000
0000
0000
,
0000
0000
0000
0000
,
0000
0000
0000
0000
0000
0000
0000
0220
0000
0000
0000
0000
0330
0000
0000
0000
0000
0000
0000
0000
0000
0000
0000
M00M
0000
0000
0000
0000
0000
0000
0000
0000
,
0000
0000
0000
0000
,
0000
0000
0000
0000
0000
0000
0000
0000
0000
0000
0000
0000
0000
0000
0000
0000
0000
0000
0000
0000
0000
0000
0000
1001
0000
0000
0000
0000
0000
0000
0000
0000
;

//---------------dance-single - Gpop----------------
#NOTES:
     dance-single:
     Gpop:
     Medium:
     5:
     0.310,0.437,0.111,0.275,0.014:
0000
0000
0000
0000
,
0000
0000
0000
0000
,
0000
0000
0000
0000
,
0000
0000
000M
M000
00M0
0M00
000M
0000
,
0110
0000
0000
0000
,
0000
0000
0000
0000
000M
M000
000M
0000
,
0000
0000
0000
0000
,
0000
0000
0000
0000
,
1001
0000
0001
0100
0000
0010
1000
0000
,
0001
0000
0100
0000
0010
0010
0000
0000
,
1000
0000
0001
0000
0010
0100
1000
0000
,
0001
0000
0100
0000
0001
0001
0000
0000
,
1000
0100
0000
0100
0010
0000
0001
0000
,
0100
0000
0100
0000
0010
1000
0001
0000
,
1100
0000
0101
0000
1000
0001
0100
0000
,
0020
0030
0200
0301
,
1100
0100
0020
0000
0030
0000
0001
0000
,
0100
0100
0010
1000
,
0001
0100
0020
0000
0030
0000
1000
0000
,
0001
0010
0001
0100
,
0010
1000
0002
0000
0003
0000
1000
0000
,
0100
1000
0010
0100
,
0001
1000
0200
0000
0310
0000
0001
1000
,
0020
0000
0030
0000
0200
0000
0301
1000
,
0020
0000
0000
0130
0000
0000
0001
0000
,
2000
0000
0000
3100
0000
0000
0010
0001
,
0200
0000
0000
0310
0000
0000
1000
0000
,
0002
0000
0000
1003
0000
0000
0001
1000
,
0200
0000
0000
0310
0000
0000
0001
0000
,
2000
0000
0000
3010
0000
0000
0100
0001
,
0020
0000
0000
0130
0000
0000
1000
0001
,
0200
0000
0000
0310
0000
0000
1000
0000
,
0001
0000
0100
0000
0001
0000
1000
0100
,
0020
0001
1000
0031
,
4000
0004
0000
0000
0000
0000
0000
0000
0000
0000
0000
0000
0000
0000
0000
0000
,
3MM3
0MM0
0MM0
0MM0
0MM0
0000
0000
0000
,
0000
0000
0000
0000
,
0MM0
0MM0
0MM0
0MM0
0MM0
0000
0M00
0000
,
0000
M000
0000
0000
,
0MM0
0MM0
0MM0
0MM0
0MM0
0000
0M00
0000
,
000M
M000
0000
000M
,
0MM0
0MM0
0MM0
0MM0
0MM0
0000
0M00
0000
,
000M
M000
0M00
000M
,
0M00
0MM0
0MM0
0MM0
0MM0
0000
0MM0
0000
,
000M
0000
M000
0000
00M0
0M00
000M
0000
,
0M00
0MM0
0MM0
0MM0
0MM0
0000
0110
0000
,
0001
0000
1000
0000
0010
0100
0001
0000
,
0100
0000
0010
1000
0010
0000
0100
0000
,
0001
0000
1000
0000
0100
0010
0001
0000
,
0100
0010
0100
0010
1000
0000
0001
0000
,
0010
0000
0001
0000
0100
0010
1000
0000
,
0001
0000
1000
0100
0001
0000
0100
0000
,
1000
0000
0010
0000
0100
0001
2000
0000
,
3000
0002
0003
2001
,
0001
0100
0100
3010
,
0100
0001
2000
0000
3002
0000
0103
0000
,
0000
0010
0000
1000
0000
0001
0000
0000
,
0100
0010
0100
0010
1000
0000
1002
0000
,
1000
0100
0100
0013
,
0001
1000
0020
0000
0230
0000
0301
0000
,
0000
1000
0000
0100
0000
0010
0002
0000
,
0000
2003
0000
3010
,
0100
0010
1000
0001
,
1000
0000
0010
0100
0000
0100
0001
0000
,
1000
0100
0010
0001
,
0100
0000
0010
1000
0000
1000
0001
0000
,
0100
0010
1000
0001
,
0010
0000
0100
1000
0001
0000
0101
0000
,
1100
0000
1000
0001
0100
0010
2000
0000
,
3000
0000
0002
0000
0103
0000
0110
0100
,
0002
0003
1000
0100
,
0010
0000
0100
0000
1000
0000
0001
0100
,
0020
1030
0001
0100
,
0001
0000
1000
0000
0100
0000
0010
0001
,
0200
0310
1000
0010
,
0100
0000
0001
0000
0010
0000
0100
1000
,
0002
0000
0103
0000
0010
1000
0002
0000
,
0003
0200
0310
2000
,
0000
3001
0000
0000
0100
0010
2000
0000
,
0000
3001
0000
0000
0100
0000
0020
0000
,
0000
1030
0000
0000
0001
0010
0200
0000
,
0000
1300
0000
0000
0001
1000
0020
0000
,
0000
0130
0000
0000
0001
0000
2000
0000
,
0000
3100
0000
0000
0010
0001
0200
0000
,
0000
0310
0000
0000
1000
0001
0200
0000
,
0000
0310
0000
0000
1000
0000
0001
0000
,
0100
0000
0001
0000
1000
0010
0200
0000
,
0001
0000
0000
0000
1000
0000
0000
0000
0301
0000
0000
0000
0400
0040
0000
0000
,
0000
0000
0000
0000
0000
0000
M33M
M00M
,
M00M
M00M
M00M
0000
0000
0000
0000
0000
,
0000
0000
0000
0000
0000
0000
M00M
M00M
,
M00M
M00M
M00M
0000
M000
0000
0000
0000
,
0000
0000
0000
M000
0000
0000
M00M
M00M
,
M00M
M00M
M00M
0000
M000
0000
0000
0000
,
0M00
0000
0000
M000
0000
0000
M00M
M00M
,
M00M
M00M
M00M
0000
M000
0000
0000
0000
,
0M00
0000
00M0
M000
0000
0000
00M0
M00M
,
M00M
M00M
M00M
0000
M00M
0000
000M
0000
,
0M00
0000
00M0
M000
000M
0000
00M0
0000
,
0000
0000
1001
0001
,
0100
0000
0010
1000
0001
0000
0010
0000
,
0100
1000
0001
0000
0100
0000
0000
0010
,
0000
1000
0000
0001
0010
0000
0100
1000
,
0100
1000
0001
0000
0110
0000
1000
0000
,
0001
0000
0100
0010
1000
0000
0001
0000
,
0010
0100
1000
0000
0001
0000
0000
0100
,
0000
0001
0000
1000
0020
0000
0030
0000
,
0200
0300
0120
1000
,
0100
0000
1000
0000
0130
0000
0001
1000
,
0200
0000
0320
0000
0031
0000
0000
1000
,
0000
0001
0000
0100
0000
0000
0010
1000
,
0001
0010
0100
0000
0210
0000
1000
0000
,
0010
0000
1000
0000
0310
0000
0001
1000
,
0020
0000
2030
0000
3001
0000
0000
1000
,
0000
0100
0000
0010
0002
0000
0000
0000
,
2003
0000
3010
0010
,
0000
0100
0001
0001
,
0000
1000
1000
0010
,
0100
0001
0100
0200
,
0000
0300
0010
0010
,
0000
1000
0001
0001
,
0000
0010
0010
0100
,
1000
0000
0001
0000
0100
0000
0001
0100
,
1000
0100
0001
0000
2002
0000
3003
0000
,
0100
0000
0000
0100
0000
0000
0100
0000
0010
0000
0000
0010
0000
0000
0010
0000
,
1001
0000
1000
0000
0001
0000
0100
0010
,
1000
0000
0001
0010
0200
0000
2300
0000
,
3001
0000
0000
0101
0000
1100
0000
1001
,
0000
0000
0001
0100
0001
1000
0100
0000
,
0011
0000
0001
0000
1000
0000
0010
0100
,
0001
0000
1000
0100
0020
0000
0032
0000
,
1003
0000
0000
1100
0000
0101
0000
0110
,
0200
0300
0020
0030
,
2002
3003
M00M
0000
M11M
0000
0000
0000
,
0000
0000
0000
0000
,
0000
0000
0000
0000
,
0000
0000
0000
0000
,
0000
0000
0000
0000
,
0000
0000
0000
0000
,
0000
0000
0000
0000
,
0000
0000
0000
0000
,
0000
0000
0000
0000
,
0000
0000
0000
0000
,
0000
0000
0000
0000
,
0000
0000
0000
0000
,
0000
0000
0000
0000
,
0000
0000
0000
0000
,
0000
0000
0000
0000
,
0000
0000
0000
0000
,
0000
0000
0000
0000
0000
0000
0000
0220
0000
0000
0000
0000
0330
0000
0000
0000
0000
0000
0000
0000
0000
0000
0000
MMMM
0000
0000
0000
0000
0000
0000
0000
0000
,
0000
0000
0000
0000
,
0000
0000
0000
0000
0000
0000
0000
0000
0000
0000
0000
0000
0000
0000
0000
0000
0000
0000
0000
0000
0000
0000
0000
MMMM
0000
0000
0000
0000
0000
0000
0000
0000
;

//---------------dance-single - Gpop----------------
#NOTES:
     dance-single:
     Gpop:
     Easy:
     3:
     0.211,0.312,0.045,0.148,0.006:
0000
0000
0000
0000
,
0000
0000
0000
0000
,
0000
0000
0000
0000
,
0000
0000
0000
0000
,
0100
0000
0000
0000
,
0000
0000
0000
0000
,
0000
0000
0000
0000
,
0000
0000
0000
0000
,
0001
0000
0100
0000
,
0010
1000
0001
0000
,
1000
0000
0100
0000
,
0010
0001
0100
0000
,
0010
0000
1000
0000
,
0001
0010
0100
1000
,
0001
0001
0100
0010
,
2000
3000
0002
0003
,
0100
0010
0000
1000
,
0001
0010
0001
0100
,
0010
0010
0000
1000
,
0001
0100
0001
1000
,
0100
0100
0000
0010
,
0100
1000
0010
0100
,
0001
0001
1000
0010
,
0020
0030
0200
0300
,
2001
0000
3000
0000
,
0002
0000
0003
1000
,
1000
0000
0000
MMMM
0000
0000
0001
0000
,
0001
0000
0000
MMMM
0000
0000
1000
0000
,
0020
0000
0030
0000
,
0200
0000
0300
0010
,
0010
0000
0000
MMMM
0000
0000
0100
0000
,
0100
0000
0000
MMMM
0000
0000
0001
0000
,
1000
1000
0001
0001
,
0100
0100
0100
0100
,
0400
0000
0000
0000
,
0320
0000
0030
M00M
,
000M
0M00
00M0
M000
,
000M
0000
0000
M00M
,
000M
0M00
00M0
M000
,
000M
0000
0000
M00M
,
000M
0M00
00M0
M000
,
000M
0000
0000
M00M
,
000M
0M00
00M0
M000
,
000M
0000
0000
M00M
,
000M
0M00
00M0
M000
,
000M
0000
0000
1001
,
0001
0100
0010
1000
,
0001
0100
0100
0010
,
1000
0001
0100
0001
,
1000
0010
0010
0100
,
0001
1000
0100
0010
,
0001
1000
1000
0100
,
1000
0010
0100
0002
,
0003
2000
3000
0101
,
0001
1000
0100
0010
,
0001
1000
0010
1000
,
0000
0001
0000
0100
,
0010
1000
0001
1000
,
0010
0100
0010
1000
,
0001
0100
0100
0010
,
0000
1000
0000
0002
,
0003
2000
3000
0001
,
0000
0100
0000
0010
,
1000
0001
0000
0010
,
0000
0100
0000
1000
,
0001
0100
0000
0010
,
0000
1000
0000
0001
,
1000
0001
0100
0010
,
0010
0100
0100
0002
,
0003
2000
3000
0101
,
0100
0000
0010
1000
,
0001
0100
0001
0010
,
0010
0100
1000
0001
,
0100
0001
1000
0010
,
0010
0100
0001
1000
,
0100
0010
0001
1000
,
1000
0010
0100
0020
,
0030
0200
0300
1002
,
0000
0003
0000
0200
,
0000
0300
0010
0100
,
0000
MMMM
0000
0000
0100
0000
0010
0000
,
0000
MMMM
0000
0000
1000
0000
0020
0000
,
0000
0030
0000
0200
,
0000
0300
0001
1000
,
0000
MMMM
0000
0000
1000
0000
0001
0000
,
0000
MMMM
0000
0000
0001
0000
0100
0000
,
0010
1000
0001
0010
,
0010
0010
0010
0040
,
0000
0000
0000
0230
,
0000
0300
0MM0
000M
,
M000
00M0
0M00
0000
,
0000
0000
0MM0
000M
,
M000
00M0
0M00
0000
,
0000
0000
0MM0
000M
,
M000
00M0
0M00
0000
,
0000
0000
0MM0
000M
,
M000
00M0
0M00
000M
,
0000
0000
0MM0
000M
,
M000
00M0
0M00
000M
,
0000
0000
0110
0001
,
1000
0010
0100
0001
,
1000
1000
0100
0010
,
0100
1000
0001
0100
,
0010
0010
1000
0001
,
0100
0001
0010
0100
,
1000
1000
0010
0100
,
0010
1000
0002
0003
,
2000
3000
1001
0001
,
0100
0010
1000
0100
,
0010
0010
0001
0000
,
0100
0000
0010
1000
,
0100
0100
0010
0001
,
0010
0100
1000
0001
,
0100
0100
0010
0000
,
1000
0000
0020
0030
,
0200
0300
0002
0000
,
0003
0000
2000
0000
,
3000
0010
0010
0100
,
0001
1000
0020
0000
,
0030
0000
0200
0000
,
0300
0000
0020
0000
,
0030
1000
1000
0001
,
0100
0010
2000
0001
,
0001
3001
1001
0000
,
2000
0000
3002
0000
,
0103
0010
1000
0001
,
0100
0010
1000
1000
,
0001
0000
0010
0000
,
0100
1000
0010
0010
,
0100
0001
1000
0010
,
1000
0100
0010
0010
,
0001
0000
1000
0000
,
0020
0030
0200
0300
,
0110
0000
1001
0000
,
0000
0000
0000
0000
,
0000
0000
0000
0000
,
0000
0000
0000
0000
,
0000
0000
0000
0000
,
0000
0000
0000
0000
,
0000
0000
0000
0000
,
0000
0000
0000
0000
,
0000
0000
0000
0000
,
0000
0000
0000
0000
,
0000
0000
0000
0000
,
0000
0000
0000
0000
,
0000
0000
0000
0000
,
0000
0000
0000
0000
,
0000
0000
0000
0000
,
0000
0000
0000
0000
,
0000
0000
0000
0000
0000
0000
0000
0110
0000
0000
0000
0000
0000
0000
0000
0000
0000
0000
0000
0000
0000
0000
0000
M00M
0000
0000
0000
0000
0000
0000
0000
0000
,
0000
0000
0000
0000
,
0000
0000
0000
0000
0000
0000
0000
0000
0000
0000
0000
0000
0000
0000
0000
0000
0000
0000
0000
0000
0000
0000
0000
M00M
0000
0000
0000
0000
0000
0000
0000
0000
;

//---------------dance-single - Gpop----------------
#NOTES:
     dance-single:
     Gpop:
     Beginner:
     1:
     0.093,0.156,0.021,0.000,0.002:
0000
0000
0000
0000
,
0000
0000
0000
0000
,
0000
0000
0000
0000
,
0000
0000
0000
0000
,
0000
0000
0000
0000
,
0000
0000
0000
0000
,
0000
0000
0000
0000
,
0000
0000
0000
0000
,
1000
0000
0000
0000
,
0001
0000
0000
0000
,
0100
0000
0000
0000
,
0010
0000
0000
0000
,
1000
0000
0000
0000
,
0001
0000
0000
0000
,
0100
0000
0100
0000
,
0010
0000
0000
0000
,
0110
0000
0000
0000
,
0100
0000
0100
0000
,
0001
0000
0000
0000
,
1000
0000
1000
0000
,
0001
0000
0000
0000
,
0010
0000
0010
0000
,
0100
0000
0100
0000
,
1000
0000
0000
0000
,
0001
0000
0000
0000
,
0100
0000
0000
0000
,
0010
0000
0000
0000
,
0010
0000
0000
0000
,
1000
0000
0000
0000
,
0001
0000
0000
0000
,
0100
0000
0000
0000
,
0010
0000
0000
0000
,
0100
0000
0100
0000
,
0010
0000
0010
0000
,
0010
0010
0010
0010
,
0010
0000
0000
0000
,
0000
0000
0000
0000
,
0000
0000
0000
0000
,
0000
0000
0000
0000
,
0000
0000
0000
0000
,
0000
0000
0000
0000
,
0000
0000
0000
0000
,
0000
0000
0000
0000
,
0000
0000
0000
0000
,
0000
0000
0000
0000
,
0000
0000
0000
0000
,
0000
0000
0000
0001
,
0000
0001
0000
0100
,
0000
0100
0000
0010
,
0000
0010
0000
1000
,
0000
1000
0000
0001
,
0000
0001
0000
0010
,
0000
0010
0000
0100
,
0000
0000
0000
1000
,
0000
0000
0000
1000
,
0000
0000
0000
0010
,
0000
0010
0000
0100
,
0000
0100
0000
0010
,
0000
0000
0000
1000
,
0000
0000
0000
0001
,
0000
0001
0000
1000
,
0000
0000
0000
0010
,
0000
0000
0000
0100
,
0000
0000
0000
0001
,
0000
0000
0000
1000
,
0000
0000
0000
0100
,
0000
0000
0000
0010
,
0000
0000
0000
0001
,
0000
0001
0000
1000
,
0000
0000
0000
0010
,
0000
0000
0000
0010
,
0000
0010
0000
0100
,
0000
0100
0000
0010
,
0000
0010
0000
1000
,
0000
1000
0000
0001
,
0000
0001
0000
0100
,
0000
0001
0000
1000
,
0000
0000
0000
0010
,
0000
0000
0000
0100
,
0000
0000
0000
0001
,
0000
0000
0000
1000
,
0000
0000
0000
0100
,
0000
0000
0000
0010
,
0000
0000
0000
0001
,
0000
0000
0000
1000
,
0000
0000
0000
0010
,
0000
0010
0000
0100
,
0000
0100
0000
0100
,
0100
0100
0100
0100
,
0000
0000
0000
0000
,
0000
0000
0000
0000
,
0000
0000
0000
0000
,
0000
0000
0000
0000
,
0000
0000
0000
0000
,
0000
0000
0000
0000
,
0000
0000
0000
0000
,
0000
0000
0000
0000
,
0000
0000
0000
0000
,
0000
0000
0000
0000
,
0000
0000
0000
0000
,
0000
0000
0001
0000
,
0001
0000
0100
0000
,
0100
0000
0010
0000
,
0010
0000
1000
0000
,
1000
0000
0001
0000
,
0001
0000
0010
0000
,
0010
0000
0100
0000
,
0000
0000
0100
0000
,
0000
0000
1000
0000
,
0000
0000
0001
0000
,
0001
0000
0100
0000
,
0100
0000
0010
0000
,
0000
0000
1000
0000
,
0000
0000
0001
0000
,
0001
0000
1000
0000
,
0000
0000
0010
0000
,
0000
0000
0100
0000
,
0000
0000
0001
0000
,
0000
0000
1000
0000
,
0000
0000
0010
0000
,
0000
0000
0100
0000
,
0000
0000
0001
0000
,
0000
0000
1000
0000
,
1000
0000
0110
0000
,
0000
0000
0000
0000
,
1001
0000
1000
0000
,
0010
0000
0010
0000
,
0100
0000
0100
0000
,
0001
0000
0001
0000
,
1000
0000
1000
0000
,
0100
0000
0100
0000
,
0010
0000
0010
0000
,
0001
0000
0001
0000
,
0000
0000
1001
0000
,
0000
0000
0000
0000
,
0000
0000
0000
0000
,
0000
0000
0000
0000
,
0000
0000
0000
0000
,
0000
0000
0000
0000
,
0000
0000
0000
0000
,
0000
0000
0000
0000
,
0000
0000
0000
0000
,
0000
0000
0000
0000
,
0000
0000
0000
0000
,
0000
0000
0000
0000
,
0000
0000
0000
0000
,
0000
0000
0000
0000
,
0000
0000
0000
0000
,
0000
0000
0000
0000
,
0000
0000
0000
0000
0000
0000
0000
0110
0000
0000
0000
0000
0000
0000
0000
0000
0000
0000
0000
0000
0000
0000
0000
0000
MMMM
0000
0000
0000
0000
0000
0000
0000
,
0000
0000
0000
0000
,
0000
0000
0000
MMMM
;

//---------------dance-single - OPPAN----------------
#NOTES:
     dance-single:
     OPPAN:
     Edit:
     9:
     -1.000,-1.000,-1.000,-1.000,-1.000:
0000
0000
0000
0000
,
0000
0000
0000
0000
,
0000
0000
0000
0000
,
0000
0000
000M
0M00
00M0
M000
000M
0000
,
1001
0000
0000
0000
,
0000
0000
0000
0000
0M00
00M0
M000
0000
,
0000
0000
0000
0000
,
1100
0000
0000
1100
0000
0000
1100
0000
0101
0000
0000
0001
0100
0000
0101
0000
,
1001
1000
0100
0020
0000
0031
1000
0001
,
0100
0100
0010
0010
1000
0001
0000
1000
,
0100
0000
1000
0000
0001
0000
0100
0000
0010
0000
1000
0001
1000
0000
0010
0000
,
0100
0100
0001
0001
1000
0100
0000
0010
,
0001
0000
0000
0000
0020
0000
0000
0000
0000
0000
0000
0000
0130
0000
0000
0000
0000
1000
0000
0000
0000
0001
0000
0000
0100
0000
0000
0000
0010
0000
0000
0000
,
1000
1000
0001
0001
0100
0010
1000
1000
,
0101
0000
1100
0000
1001
0001
0100
0100
,
0110
0000
0000
0110
0000
0000
0110
0000
1001
0000
0000
1000
0001
0000
1001
0000
,
1100
0000
0100
0010
0002
0000
1003
0000
0010
0000
0100
0000
0010
0000
1000
0000
,
0010
0000
1000
0100
1000
0000
0001
0000
0100
0000
0010
0000
0100
0000
0001
0000
,
1000
0000
1000
0100
0020
0000
0031
0000
0010
0000
0100
0000
1000
0000
0010
0000
,
0100
0000
0001
1000
0100
0000
0010
0000
0001
0000
0010
0000
0100
0000
1000
0000
,
1001
0000
0001
0100
0020
0000
1030
0000
0001
0000
0100
0000
0001
0000
1000
0000
,
0100
0000
0010
0001
0010
0000
0100
0000
1000
0000
1000
0000
0001
0000
0001
0000
,
0100
0000
0010
1000
0002
0000
0103
0000
0010
0000
0100
0000
0001
0000
1000
0000
,
0011
0000
0000
0011
0000
0000
0011
0000
1010
0000
0000
1000
0010
0000
1010
0000
,
1002
0000
0000
1000
0000
0000
0203
0000
0000
0310
1000
0000
0001
0000
0100
0000
,
0002
0000
0000
0010
0000
0000
0023
0000
0000
0100
0030
0000
0100
0000
1000
0000
,
0020
0000
0000
0100
0030
0000
M1MM
0000
0000
0001
0100
0010
1000
0000
0001
0000
,
0200
0000
0000
0001
0300
0000
MMM1
0000
1000
0000
1000
0000
0100
0000
0100
0000
,
0020
0000
0000
0001
0000
0000
0032
0000
0000
1003
0100
0000
0010
0000
0100
0000
,
2000
0000
0000
0010
0000
0000
3020
0000
0000
0100
0030
0000
0100
0000
0001
0000
,
2000
0000
0000
0100
3000
0000
M1MM
0000
0010
0001
1000
0010
1000
0000
0010
0000
,
0200
0000
0000
0001
0300
0000
MMM1
0000
1000
0001
0000
0000
0100
0000
0010
0000
,
1000
0100
0010
0001
0010
0100
1000
0001
,
1000
0000
0100
M00M
0100
0000
0001
0000
1000
0000
0010
M00M
0010
0000
0001
0000
,
1000
0100
0010
0001
0100
0010
1000
0001
0100
0001
1000
0100
0010
0001
0010
0100
,
2000
0000
3000
0000
,
0000
0000
0000
0000
,
0000
0000
0000
0000
0000
0000
0000
0000
0000
0000
0000
0000
M000
0000
0000
M000
,
0000
0000
0000
0000
,
M000
0000
0000
0000
0000
0000
0000
0000
0000
0000
0000
000M
M000
0000
0000
M000
,
000M
0000
0000
000M
0M00
0000
0000
000M
0000
0000
0000
0000
000M
0000
0000
000M
,
M000
0000
0000
0000
0000
0000
0000
0000
0000
0000
0000
000M
M000
0000
0000
M000
,
000M
0000
0000
000M
0M00
0000
0000
000M
0M00
0000
0000
0M00
000M
0000
0000
000M
,
M000
0000
0000
M000
0000
0000
0000
0000
0000
0000
0000
000M
M000
0000
0000
M000
,
000M
0000
0000
000M
0M00
0000
0000
000M
0M00
0000
0000
0M00
000M
0000
0000
000M
,
M000
0000
0000
M000
0000
0000
0000
0000
0000
0000
0000
0001
1000
0000
0000
1000
,
0001
0000
0000
0001
0100
0000
0000
0001
0100
0000
0000
0100
0001
0000
0000
0001
,
1000
0000
0000
1000
0100
0000
0000
1000
0100
0000
0000
0100
0010
0000
0000
0010
,
0001
0000
0000
0001
1000
0000
0000
0001
1000
0000
0000
1000
0010
0000
0000
0010
,
0100
0000
0000
0100
0001
0000
0000
0100
0001
0000
0000
0001
1000
0000
0000
1000
,
0010
0000
0000
0010
0100
0000
0000
0010
0100
0000
0000
0100
0001
0000
0000
0001
,
1000
0000
0000
1000
0010
0000
0000
1000
0010
0000
0000
0010
1000
0000
0000
1000
,
0001
0000
0000
0001
1000
0000
0000
0002
2000
0000
0000
0000
0M00
0000
0000
0M00
,
0000
0000
0M00
0000
00M0
0000
0000
00M0
3003
0000
00M0
0000
0001
0000
1000
0000
,
0001
1000
0001
1000
0001
1000
0001
1000
,
0001
0000
1000
0000
0001
0000
1000
0000
0001
0000
0000
0001
1000
0000
0000
1000
,
0100
0000
0000
0100
1000
0000
0000
0100
1000
0000
0000
1000
0010
0000
0000
0010
,
0100
0000
0000
0100
0001
0000
0000
0100
0001
0000
0000
0000
0100
0000
0010
0000
,
0100
0010
0100
0010
0100
0010
0100
0010
,
0100
0000
0010
0000
0100
0000
0010
0000
0100
0000
0000
0100
0010
0000
0000
0010
,
1000
0000
0000
1000
0001
0000
0000
1000
0001
0000
0000
0000
22M0
0000
0000
000M
,
0000
0000
00M0
0000
000M
0000
0000
00M0
3300
0000
000M
0000
1001
0000
0000
1000
,
0000
0100
0010
0010
0001
1000
0010
0010
,
0100
0100
0001
0100
M0MM
0100
1000
1000
,
0010
0100
0001
0001
1000
0100
0010
0010
,
0001
0001
0100
0010
MM0M
0010
0001
1000
,
0100
1000
0010
0010
0100
0001
1000
0100
,
1000
1000
0001
0100
0010
0010
1010
0000
,
0011
0000
0001
0000
1001
0000
1000
0000
0100
0000
0100
0000
0110
0000
0000
0110
,
0000
0000
0110
0000
0011
0000
0000
0010
0001
0000
0011
0000
1001
0000
1000
0010
,
0200
0000
0301
0000
0100
0000
0010
0000
1000
0000
0001
0000
1000
0000
0100
0010
,
0001
0000
1000
0000
0010
0000
0100
0000
0001
0000
1000
0000
0100
0000
1000
0001
,
0200
0000
0310
0000
1000
0000
0001
0000
0010
0000
0100
0000
1000
0000
0001
0100
,
0010
0000
1000
0000
0001
0000
0100
0000
0001
0000
1000
0000
0110
0000
0001
1000
,
0020
0000
0130
0000
0001
0000
1000
0000
0001
0000
0010
0000
0100
0000
1000
0010
,
0100
0000
0001
0000
1000
0000
0001
0000
0010
0000
0100
0000
0010
0000
0001
0100
,
0020
0000
1030
0000
0001
0000
0001
0000
1000
0000
1000
0000
0101
0000
0000
0101
,
0000
0000
0101
0000
1001
0000
0000
1000
0001
0000
1001
0000
1200
0000
0000
1000
,
0000
0000
0320
0000
0000
0031
0100
0000
0010
0000
1000
0000
0002
0000
0000
0100
,
0000
0000
2003
0000
0000
0010
3000
0000
0010
0000
0100
0000
0020
0000
0000
1000
,
0030
0000
1MMM
0000
0000
0001
0100
0001
1000
0000
0100
0000
0020
0000
0000
0001
,
0030
0000
MM1M
0000
0100
0000
1000
0000
0100
0000
0010
0000
0002
0000
0000
0100
,
0000
0000
2003
0000
0000
3010
0100
0000
0001
0000
0100
0000
0020
0000
0000
1000
,
0000
0000
0230
0000
0000
0001
0300
0000
0001
0000
1000
0000
0002
0000
0000
0100
,
0003
0000
M1MM
0000
0010
1000
0001
1000
0001
0000
0100
0000
0020
0000
0000
0100
,
0030
0000
M1MM
0000
0001
1000
0000
0000
0100
0000
0010
0000
0001
0000
0100
0000
,
0010
0000
1000
0000
0100
0000
0010
0000
0001
0000
1000
0000
0001
0000
0010
M00M
,
0010
0000
1000
0000
0001
0000
0100
M00M
0100
0000
1000
0000
0001
0100
0001
1000
,
0100
0010
0100
1000
0001
0100
0010
1000
0001
0100
0010
1000
0020
0000
0000
0000
,
0000
0030
0000
0000
,
0000
0000
0000
0000
,
0000
0000
0000
0000
0000
0000
0000
0000
000M
0000
0000
000M
0000
0000
0000
0000
,
0000
0000
0000
000M
,
0000
0000
0000
0000
0000
0000
0000
M000
000M
0000
0000
000M
M000
0000
0000
M000
,
00M0
0000
0000
M000
0000
0000
0000
0000
M000
0000
0000
M000
000M
0000
0000
0000
,
0000
0000
0000
0000
0000
0000
0000
M000
000M
0000
0000
000M
M000
0000
0000
M000
,
00M0
0000
0000
M000
00M0
0000
0000
00M0
M000
0000
0000
M000
000M
0000
0000
000M
,
0000
0000
0000
0000
0000
0000
0000
M000
000M
0000
0000
000M
M000
0000
0000
M000
,
00M0
0000
0000
M000
00M0
0000
0000
00M0
M000
0000
0000
M000
000M
0000
0000
000M
,
0000
0000
0000
0000
0000
0000
0000
1000
0001
0000
0000
0001
1000
0000
0000
1000
,
0010
0000
0000
1000
0010
0000
0000
0010
1000
0000
0000
1000
0001
0000
0000
0001
,
0010
0000
0000
0001
0010
0000
0000
0010
0100
0000
0000
0100
1000
0000
0000
1000
,
0001
0000
0000
1000
0001
0000
0000
0001
0100
0000
0000
0100
0010
0000
0000
0010
,
1000
0000
0000
0010
1000
0000
0000
1000
0001
0000
0000
0001
0100
0000
0000
0100
,
0010
0000
0000
0100
0010
0000
0000
0010
1000
0000
0000
1000
0001
0000
0000
0001
,
0100
0000
0000
0001
0100
0000
0000
0100
0001
0000
0000
0001
1000
0000
0000
1000
,
0001
0000
0000
2000
0002
0000
0000
0000
00M0
0000
0000
00M0
0000
0000
00M0
0000
,
0M00
0000
0000
0M00
3003
0000
0M00
0000
1000
0000
0001
0000
1000
0000
0001
0000
,
1000
0001
1000
0001
2000
0002
0000
0000
,
0000
0000
0000
0000
3003
0000
0000
1000
0001
0000
0000
0001
0010
0000
0000
0010
,
0001
0000
0000
0010
0001
0000
0000
0001
0100
0000
0000
0100
0010
0000
0000
0010
,
1000
0000
0000
0010
1000
0000
0000
0000
0010
0000
0100
0000
0010
0000
0100
0000
,
0010
0100
0010
0100
0020
0200
0000
0000
,
0000
0000
0000
0000
0330
0000
0000
0010
0100
0000
0000
0100
0001
0000
0000
0001
,
1000
0000
0000
0001
1000
0000
0000
0000
0M22
0000
0000
M000
0000
0000
0M00
0000
,
M000
0000
0000
0M00
0033
0000
M000
0000
1001
0000
1000
0000
0200
0000
0000
0000
,
0300
0010
0001
0010
0100
0100
2000
0000
,
3000
0000
0010
0010
0100
0100
0001
1000
,
0020
0000
0230
0000
0301
1000
0020
0000
,
0030
0000
0000
0000
1000
0001
0200
0000
,
0300
0010
1000
0010
0100
0100
0002
0000
,
0003
0000
1000
1000
0001
0001
0100
0010
,
2000
0000
3002
0000
1003
0100
0011
0011
,
1010
1010
0202
0300
2000
0000
0000
0000
,
0M00
0000
0000
0M00
0000
0000
0M00
0000
00M0
0000
0000
00M0
3003
0000
00M0
0000
,
1001
0000
0000
1000
0001
0000
0000
0001
0100
0000
0000
0001
0100
0000
0000
0100
,
0001
0000
0000
0001
1000
0000
0000
1000
0100
0000
0000
1000
0100
0000
0000
0100
,
1000
0000
0000
1000
0010
0000
0000
0010
1000
0000
0000
0010
1000
0000
0000
1000
,
0001
0000
0000
0001
0100
0000
0000
0100
0001
0000
0000
0100
0001
0000
0000
0000
,
2002
0000
0000
0000
,
0000
0000
0000
0000
,
0000
0000
0000
0000
,
0000
0000
0000
3000
,
0000
0000
1003
0000
,
0000
0000
0000
0000
,
0000
0000
0000
0000
,
0000
0000
0000
0000
,
0000
0000
0000
0000
,
0000
0000
0000
0000
,
0000
0000
0000
0000
,
0000
0000
0000
0000
,
0000
0000
0000
0000
,
0000
0000
0000
0000
,
0000
0000
0000
0000
,
0000
0000
0000
0000
,
0000
0000
0000
0000
,
0000
0000
0000
0000
,
0000
0000
0000
0000
,
0000
0000
0000
0000
,
0000
0000
0000
0000
0000
0000
0000
2002
0000
0000
0000
0000
3003
0000
0000
0000
0000
0000
0000
0000
0000
0000
0000
MMMM
0000
0000
0000
0000
0000
0000
0000
0000
,
0000
0000
0000
0000
,
0000
0000
0000
0000
0000
0000
0000
0000
0000
0000
0000
0000
0000
0000
0000
0000
0000
0000
0000
0000
0000
0000
0000
1111
0000
0000
0000
0000
0000
0000
0000
0000
;
