#TITLE:Fubuki;
#SUBTITLE:;
#ARTIST:Shiena Nishizawa;
#TITLETRANSLIT:;
#SUBTITLETRANSLIT:;
#ARTISTTRANSLIT:;
#GENRE:;
#CREDIT:;
#BANNER:Fubuki - bn.png;
#BACKGROUND:Fubuki - bg.png;
#LYRICSPATH:;
#CDTITLE:gpopcdtitle.png;
#MUSIC:Fubuki.ogg;
#OFFSET:0.663;
#SAMPLESTART:58.682;
#SAMPLELENGTH:21.333;
#SELECTABLE:YES;
#BPMS:0.000=180.000,140.000=90.000,148.000=180.000;
#STOPS:;
#BGCHANGES:1.625=Fubuki.avi=1.000=1=0=0=StretchNoLoop==CrossFade==,
99999=-nosongbg-=1.000=0=0=0 // don't automatically add -songbackground-
;
#KEYSOUNDS:;

//---------------dance-single - Gpop----------------
#NOTES:
     dance-single:
     Gpop:
     Challenge:
     10:
     0.855,0.916,0.221,1.000,0.471:
0000
0000
0000
0000
,
0000
0000
0000
0000
,
0000
0000
0000
0000
,
0000
0000
0000
0000
,
0000
0000
0000
0000
,
0000
0000
0000
0000
,
0000
0000
0000
0000
,
0000
0000
0000
0000
,
0000
0000
0000
0000
2000
0000
0000
3001
,
0200
0000
0000
0000
,
0310
1000
0010
1000
0010
1000
0010
1000
0010
1000
0010
1000
0010
1000
0010
1000
,
0001
0000
0000
0000
0010
0000
0100
0000
1100
0000
0000
0000
1000
0000
0001
1000
,
0010
0000
0000
0000
0100
0000
0010
0000
1000
0000
1000
0000
0002
0000
0000
0003
,
1100
0000
0000
0000
1000
0000
0001
0000
0101
0000
0000
0000
0001
0000
1000
0001
,
0010
0000
0100
0000
0001
0000
0100
0000
1000
0000
0010
0000
0200
0000
0000
0300
,
1001
0000
0000
0000
1000
0000
0100
0000
0110
0000
0000
0000
0001
0000
0100
0010
,
2000
3200
0302
0203
,
0320
0000
0000
0000
0031
0000
1000
0000
1100
0000
0000
0000
0100
0000
0010
0001
,
0200
0000
0000
0000
2300
0000
0000
0000
3100
0001
0100
0010
0100
0010
1000
0001
,
1000
0000
0200
0000
0320
0000
0031
1000
,
0020
0000
0130
0001
2000
0000
3200
0000
,
0310
0002
2003
3020
,
0230
0000
0000
0000
2300
0000
0000
0000
3200
0000
0000
0000
0302
0000
0000
0003
,
1100
0000
0000
0000
1000
0000
0001
0000
0011
0000
0000
0000
0001
0000
1000
0010
,
0100
0000
0010
0100
0001
0001
2000
0000
,
3001
0000
0000
0000
1M00
0000
0001
0000
0M11
0000
0000
0000
0M01
0000
1000
0001
,
0010
0000
01M0
1000
00M1
0001
02M0
0000
,
0301
0000
2000
0000
3200
0000
0310
0001
,
0200
0000
0310
1000
0002
0000
0023
0000
,
0130
0020
0032
0203
,
2300
3200
0302
0023
,
0130
0000
0000
0000
1000
0000
0001
0000
0101
0000
0000
0000
0001
0000
0010
0100
,
1000
0000
0001
1000
0010
0010
0200
0000
,
0301
0000
0000
0000
1000
0000
0100
0000
0110
0000
0000
0000
0001
0000
1000
0010
,
0200
0000
0000
0000
0320
0000
1030
0001
0010
0000
0100
0000
1000
0000
0001
0000
,
M200
0000
0000
0000
0000
0000
0300
0000
0000
0010
0000
0000
2000
0000
0000
0000
0000
0000
3000
0000
0000
0001
0000
0000
0020
0000
0000
0000
0000
0000
0000
0000
0000
0130
0000
0000
0020
0000
0000
0000
0000
0000
0030
0000
0000
0001
1000
0001
,
2000
0000
0000
0000
3000
0000
0010
0000
0200
0000
0000
0000
0320
0000
1030
0001
2000
0000
0000
0000
3200
0000
0000
0000
0301
0000
0100
0000
0110
0000
0000
0000
,
M020
0000
0031
1000
0020
0000
0130
0010
,
0002
2003
3002
0023
,
0230
0000
0000
0000
0301
0000
1000
0000
0001
0000
0001
0000
0010
0000
0100
1000
,
0001
0000
0100
0010
1000
1000
0100
0010
,
0012
0000
1000
1000
1000
1000
1003
0010
,
0110
0110
0110
0000
0M00
0000
0000
00M0
,
1002
1003
0100
0010
0200
0310
0100
2000
,
3002
0103
0010
0100
0002
1003
0100
2000
,
3200
0310
0001
0200
0320
1030
0001
0200
,
0320
0000
0000
1030
0000
0000
0010
0000
0000
0100
0000
0000
0001
0000
0000
0010
0000
0000
0200
0000
0000
0000
1300
0000
,
0002
0000
0203
0000
0310
1000
0001
0010
0000
0001
1000
0001
,
0100
0010
0000
2000
0000
3001
0020
0000
0030
0200
0000
0000
,
1300
0001
1000
0010
0000
0100
0001
0000
0001
0010
0000
0010
,
0200
0000
0000
0000
1300
0000
0000
0000
0001
0010
0001
0010
0001
0010
0001
0010
,
0200
1300
0010
1000
0200
0310
0001
0200
,
0320
1030
0010
0100
0002
0013
0001
0200
,
0320
1030
0001
0020
0230
0310
0001
0200
,
0320
1030
0010
0100
0010
1000
0002
0000
,
1003
0000
0000
0100
0000
0000
1000
0000
0000
0100
0000
0000
1000
0000
0000
0100
0000
0000
0010
0000
0000
0001
0000
0000
1000
0000
0000
0000
0000
0000
0000
0000
0000
0000
0000
0000
1MM1
0000
0000
0000
0000
0000
0000
0000
1000
0000
0000
0000
,
0001
0000
0000
0100
0000
0000
0001
0000
0000
0100
0000
0000
0001
0000
0000
0100
0000
0000
0010
0000
0000
1000
0000
0000
0001
0000
0000
0000
0000
0000
0000
0000
0000
0000
0000
0000
1MM1
0000
0000
0000
0000
0000
0000
0000
0001
0000
0000
0000
,
2000
0000
0000
0000
0000
0000
3020
0000
0000
0000
0130
0000
0001
0000
0000
0000
1000
0000
0100
0000
0000
1000
0000
0000
,
0020
0000
0000
0000
0032
0000
0000
0000
0013
1000
0010
1000
0010
1000
0010
1000
,
0001
0010
0100
0010
0100
1000
0100
0010
,
0001
0000
1000
0000
0010
0000
1000
0000
0002
0000
0013
0000
0001
0000
0100
0010
,
2000
0000
0000
0000
3001
0010
0100
0010
0100
1000
0100
0010
0001
1000
0001
1000
,
0001
0100
0010
0100
0010
1000
0010
1000
0001
0100
0001
1000
0010
0100
0001
1000
,
0001
0000
0000
0000
;

//---------------dance-single - Gpop----------------
#NOTES:
     dance-single:
     Gpop:
     Hard:
     7:
     0.507,0.586,0.244,0.732,0.105:
0000
0000
0000
0000
,
0000
0000
0000
0000
,
0000
0000
0000
0000
,
0000
0000
0000
0000
,
0000
0000
0000
0000
,
0000
0000
0000
0000
,
0000
0000
0000
0000
,
0000
0000
0000
0000
,
0000
0000
0000
0000
,
2002
0000
0000
0000
,
0000
0000
0000
3003
,
1100
0000
0001
0100
0101
0000
0000
1000
,
1010
0000
0000
0001
0010
0010
0200
0000
,
1300
0000
0000
0001
0011
0000
0000
1000
,
0010
0100
0010
0100
0001
0010
0200
0000
,
0310
0000
0000
0001
0101
0000
0000
1000
,
2100
3200
0320
0032
,
2003
0000
0000
3010
0110
0000
0000
1000
,
1002
0023
0230
2300
,
3001
0000
0100
0000
0010
0000
1000
0100
,
0010
0000
0001
0010
0100
0000
2000
0000
,
3000
0001
0100
0010
,
0100
0001
0010
0100
,
2000
0000
0000
3001
0200
0000
0000
0000
,
0000
0300
0000
0000
0020
0000
0000
0000
,
2030
0001
0010
3002
,
0000
1000
0010
1003
,
1100
0000
0100
0000
0010
0000
0001
0100
,
0010
0000
1000
0100
0010
0000
0002
0000
,
0003
1000
0010
1000
,
0001
0010
0100
1000
,
0020
0000
0000
0130
0002
0000
0000
0000
,
0000
0003
2000
0000
,
0000
3020
0000
0000
,
0100
0001
0100
1030
,
2MM1
3200
0320
0032
,
2003
0000
3010
0100
0001
0100
0020
0030
,
2M01
0000
0000
3100
0010
0000
0001
0000
,
0200
1000
0010
0001
,
0310
0000
1000
1010
0000
0001
0011
0000
,
1001
0000
1000
1100
0000
0001
0101
0000
,
2001
0000
0000
0000
0000
0000
0000
0010
,
0020
0000
3030
0000
0M00
0000
0000
00M0
,
2001
0000
3100
0010
0002
0000
0103
0010
,
2000
0000
3001
0010
0200
0000
0310
0001
,
2000
0000
0000
3010
0200
0000
0000
0310
,
2000
0000
3000
0001
,
0010
0000
0100
0000
1000
0000
0001
0000
0000
0100
0000
0000
,
0010
1000
0000
0001
0000
0010
0200
0000
0000
1300
0000
0000
,
0001
0000
1000
0001
0000
0001
0100
0000
0100
0010
0000
0010
,
2000
0000
3000
0000
1002
0000
0000
0013
,
0200
0000
1300
0010
0200
0000
0310
1000
,
0002
0000
0013
0100
2000
0000
3010
0100
,
0002
0000
0000
1003
0200
0000
0000
1300
,
0020
1000
0100
2030
,
3001
0010
0001
0010
0100
1000
0002
0000
0000
0MM3
0000
1000
,
0010
1000
0010
0100
0000
0100
0002
0000
0000
0MM3
0000
1000
,
0200
0000
2300
0000
3001
0100
0010
0100
,
0020
2030
3200
0320
,
0032
0000
1003
0100
0000
0100
0010
0000
,
0011
0000
0001
0100
0020
0000
0000
1030
,
0200
0000
0000
0000
4300
0004
0000
0000
0000
0000
0000
0000
0000
0000
0000
0000
,
0000
0000
0000
0000
,
3003
0000
0000
0000
;

//---------------dance-single - Gpop----------------
#NOTES:
     dance-single:
     Gpop:
     Medium:
     5:
     0.389,0.513,0.186,0.314,0.000:
0000
0000
0000
0000
,
0000
0000
0000
0000
,
0000
0000
0000
0000
,
0000
0000
0000
0000
,
0000
0000
0000
0000
,
0000
0000
0000
0000
,
0000
0000
0000
0000
,
0000
0000
0000
0000
,
0000
0000
0000
0000
,
2002
0000
0000
0000
,
0000
0000
0000
3003
,
1100
0000
1000
0100
1000
0000
0000
0001
,
0001
0000
0000
0000
0100
0010
1000
0000
,
0001
0000
0000
0010
0010
0000
0000
0100
,
0100
1000
0001
0100
,
1010
0000
0000
1000
0001
0000
0000
1000
,
0100
0010
0001
0100
,
0010
0000
0000
0100
0010
0000
0000
0100
,
0001
1000
0100
0010
,
0011
0000
0001
0000
1000
0000
0010
0100
,
0010
0000
1000
0001
1000
0000
0200
0000
,
0300
0010
0001
0100
,
0010
1000
0001
0010
,
0200
0000
2000
0000
,
0000
3300
0000
0000
0002
0000
0000
0000
,
0203
0010
0010
0310
,
0000
0100
0100
0100
,
1001
0000
0001
0000
0010
0000
0100
1000
,
0010
0000
0100
0001
1000
0000
0002
0000
,
0003
0100
0010
0100
,
0001
0010
0100
1000
,
0020
0000
2000
0000
,
0000
3030
0002
0000
,
0000
0020
0000
0033
,
0001
1000
0010
0100
,
10M1
0001
0010
0100
,
1000
0000
0001
0100
0010
0100
0001
0000
,
21M0
0000
0000
3001
0100
0000
0010
0000
,
1000
0001
0010
0100
,
2100
0000
0000
0001
0000
0000
0001
0000
,
0010
0000
0000
0010
0000
0000
3010
0000
,
0102
0000
0000
0000
0000
0000
0000
1000
,
2000
3003
0000
0000
,
1001
0000
1000
0000
0100
0000
0010
0001
,
1000
0000
0010
0000
1000
0000
0100
1000
,
0020
0000
0000
0100
0230
0000
0000
0001
,
0002
0000
0303
0001
,
1000
0100
0010
0001
,
1000
1000
0001
0100
,
0010
1000
0010
0010
,
0200
0000
0300
0000
0002
0000
0000
1003
,
0100
0000
0010
0000
0001
0000
1000
0010
,
0100
0000
0010
0000
1000
0000
0100
0010
,
0002
0000
0000
0100
0203
0000
0000
0010
,
0020
0000
0330
0110
,
0001
0100
0001
0100
0001
0000
0101
0000
,
1000
0100
1000
0100
1000
0000
1100
0000
,
1001
0000
0001
0000
0100
0010
0100
0010
,
1000
0100
0010
0001
,
2001
0000
0000
0010
0000
0000
0010
0000
,
3010
0000
0100
0000
0002
0000
0000
0013
,
0200
0000
0000
0000
,
0000
0000
0000
0300
,
1001
0000
0000
0000
;

//---------------dance-single - Gpop----------------
#NOTES:
     dance-single:
     Gpop:
     Easy:
     3:
     0.226,0.256,0.070,0.116,0.000:
0000
0000
0000
0000
,
0000
0000
0000
0000
,
0000
0000
0000
0000
,
0000
0000
0000
0000
,
0000
0000
0000
0000
,
0000
0000
0000
0000
,
0000
0000
0000
0000
,
0000
0000
0000
0000
,
0000
0000
0000
0000
,
2002
0000
0000
0000
,
0000
0000
3003
0000
,
1001
0000
1000
0000
,
0001
0000
0100
0010
,
1000
0000
0100
0000
,
1000
0001
0100
0010
,
1000
0000
0001
0000
,
0010
0100
1000
0001
,
1000
0000
0001
0000
,
0100
0010
0100
0001
,
0010
0000
0100
0000
,
1000
0000
0001
0100
,
0010
0000
1000
0000
,
0001
0010
0100
1000
,
0001
0000
1000
0000
,
0010
0000
0100
0001
,
0010
0000
0100
0000
,
1000
0000
0001
1000
,
0001
0000
0010
0000
,
0100
0000
1000
0010
,
0100
0000
0010
0000
,
1000
0100
1000
0010
,
0100
0000
0001
0000
,
1000
0000
0100
0010
,
0001
0000
1000
0000
,
0001
0100
0010
1000
,
0001
0000
0001
0000
,
1000
0000
1000
1000
,
0010
0000
0000
0000
,
0100
0000
0100
0000
,
0002
0000
0000
0000
,
0003
0000
0000
0000
,
2000
0000
3000
0000
,
2200
3300
0000
0000
,
1001
0000
0001
0000
,
0100
0000
0010
0000
,
1000
0000
0100
0000
,
2000
0000
3000
0000
,
0001
0000
0100
0000
,
0010
1000
0001
0010
,
0100
0000
1000
0001
,
1000
0000
0001
0000
,
0100
0000
0010
0000
,
0100
0000
0010
0000
,
1000
0000
1000
0000
,
0002
0000
0003
1000
,
0010
0100
0110
0000
,
0001
1000
1001
0000
,
1000
0000
0100
0000
,
0010
0001
0010
0001
,
2000
0000
0000
0000
,
3000
0000
0001
0000
,
0200
0000
0000
0000
,
0000
0000
0000
0000
,
0310
0000
0000
0000
;

//---------------dance-single - Gpop----------------
#NOTES:
     dance-single:
     Gpop:
     Beginner:
     1:
     0.101,0.183,0.058,0.000,0.000:
0000
0000
0000
0000
,
0000
0000
0000
0000
,
0000
0000
0000
0000
,
0000
0000
0000
0000
,
0000
0000
0000
0000
,
0000
0000
0000
0000
,
0000
0000
0000
0000
,
0000
0000
0000
0000
,
0000
0000
0000
0000
,
0000
0000
0000
0000
,
0000
0000
0000
0000
,
1000
0000
0000
0000
,
0001
0000
0000
0000
,
1000
0000
0000
0000
,
0001
0000
0000
0000
,
0100
0000
0000
0000
,
0010
0000
0000
0000
,
0100
0000
0000
0000
,
0010
0000
0000
0000
,
1000
0000
0000
0000
,
0000
0000
0000
0000
,
0001
0000
0000
0000
,
0000
0000
0000
0000
,
0010
0000
0010
0000
,
0010
0000
0000
0000
,
0100
0000
0100
0000
,
0100
0000
0000
0000
,
1000
0000
0000
0000
,
0000
0000
0000
0000
,
0100
0000
0000
0000
,
0000
0000
0000
0000
,
0010
0000
0010
0000
,
0010
0000
0000
0000
,
0001
0000
0001
0000
,
0001
0000
0000
0000
,
1000
0000
0000
0000
,
1000
0000
0000
0000
,
0001
0000
0000
0000
,
0001
0000
0000
0000
,
1000
0000
0000
0000
,
0000
0000
0000
0000
,
0001
0000
0000
0000
,
0001
0000
0000
0000
,
1001
0000
0000
0000
,
1000
0000
0000
0000
,
0010
0000
0010
0000
,
0010
0000
0000
0000
,
0100
0000
0000
0000
,
0010
0000
0000
0000
,
1000
0000
0000
0000
,
0001
0000
0001
0000
,
1000
0000
0000
0000
,
0100
0000
0000
0000
,
1000
0000
1000
0000
,
1000
0000
0000
0000
,
1001
0000
0000
0000
,
0110
0000
0000
0000
,
1001
0000
1000
0000
,
1000
0000
0001
0000
,
0001
0000
0000
0000
,
0000
0000
1000
0000
,
1000
0000
0000
0000
,
0000
0000
0000
0000
,
1001
0000
0000
0000
;
