#TITLE:Flower;
#SUBTITLE:(REDALiCE Remix);
#ARTIST:REDALiCE;
#TITLETRANSLIT:;
#SUBTITLETRANSLIT:;
#ARTISTTRANSLIT:;
#GENRE:;
#CREDIT:;
#BANNER:;
#BACKGROUND:;
#LYRICSPATH:;
#CDTITLE:;
#MUSIC:FLOWER (REDALiCE Remix).ogg;
#OFFSET:-0.040;
#SAMPLESTART:52.058;
#SAMPLELENGTH:10.667;
#SELECTABLE:YES;
#DISPLAYBPM:90.000:180.000;
#BPMS:0.000=180.000
,52.000=90.000
,86.000=180.000
,112.000=90.000
,114.000=180.000
,178.000=360.000
,192.000=180.000
,253.000=360.000
,257.000=180.000
;
#STOPS:86.000=0.833,
86.500=0.083,
86.750=0.083,
91.000=0.833,
91.500=0.083,
91.750=0.083,
253.000=0.042,
253.250=0.042,
253.500=0.042,
253.750=0.042,
254.000=0.042,
254.250=0.042,
254.500=0.042,
254.750=0.042,
255.000=0.042,
255.250=0.042,
255.500=0.042,
255.750=0.042,
256.000=0.167
;
#BGCHANGES:;
#KEYSOUNDS:;
#ATTACKS:;

//---------------dance-single - ----------------
#NOTES:
     dance-single:
     :
     Challenge:
     12:
     1.000,1.000,0.621,0.229,1.000,781.000,76.000,28.000,53.000,0.000,2.000,1.000,1.000,0.621,0.229,1.000,781.000,76.000,28.000,53.000,0.000,2.000: // measure 0
0000
0000
0000
0000
,  // measure 1
0000
0000
0000
0000
,  // measure 2
0000
0000
0000
0000
,  // measure 3
0000
0000
0000
0000
,  // measure 4
1001
0000
0001
0100
0000
0100
0010
0000
0010
1000
0000
1000
0001
0000
0010
0000
,  // measure 5
0100
0000
1000
0000
0001
0000
0100
0000
0020
0000
0000
0000
2030
0000
3001
0100
,  // measure 6
0010
0000
0010
1000
0000
1000
0100
0000
0100
0010
0000
0010
0001
0000
1000
0000
,  // measure 7
0010
0100
0010
1000
0002
0000
0000
0000
1003
0010
0200
0000
0300
0000
0101
0000
,  // measure 8
1001
0000
1000
0100
0000
0100
0010
0000
0010
0001
0000
0001
1000
0000
0010
0000
,  // measure 9
0100
0000
0001
0000
1000
0000
0001
0010
0200
0000
0000
0000
2300
0000
3001
0010
,  // measure 10
0100
0000
0100
1000
0000
1000
0001
0000
0001
0100
0000
0100
0010
0000
1000
0000
,  // measure 11
0001
0010
0100
1000
0020
0000
0000
0000
0130
0001
2000
0000
3000
0000
0110
0000
,  // measure 12
0004
4000
0000
0000
0000
0000
0000
0000
0000
0000
0000
0000
0000
0000
0000
0000
,  // measure 13
0MM0
0000
0000
0000
0000
0000
3003
0000
1100
0000
0100
0010
0011
0000
0001
1000
,  // measure 14
0100
0000
1000
0010
0110
0000
0100
0001
1000
0000
0100
0010
0011
0000
0002
2003
,  // measure 15
0000
3020
0000
0230
0000
0302
0000
2003
0000
0000
3001
0100
0110
0000
1000
0010
,  // measure 16
0100
0000
0001
1000
1100
0000
0100
0010
0010
0000
0001
1000
1010
0000
0010
0100
,  // measure 17
0101
0000
0000
0000
0000
0000
0000
0000
0000
0000
0000
0000
0000
0000
0000
0000
0000
0000
0000
0000
0000
0000
0000
0000
0000
0000
0000
0000
0000
0000
0000
0000
0000
0000
0000
0000
0001
0000
0000
0000
0000
0000
1000
0000
0000
0000
0000
0000
0001
0000
0000
0000
0000
0000
0000
0000
0000
0000
0000
0000
0100
0000
0000
0000
0000
0000
0000
0000
0000
0000
0000
0000
0000
0000
0000
0000
0000
0000
0000
0000
0000
0000
0000
0000
0010
0000
0000
0000
1000
0000
0000
0000
0010
0000
0000
0000
1000
0000
0000
0000
0000
0000
0000
0000
0000
0000
0000
0000
0000
0000
0000
0000
0000
0000
0000
0000
0000
0000
0000
0000
0001
0000
0000
0000
0000
0000
0000
0000
0000
0000
0000
0000
0010
0000
0000
0000
0000
0000
0000
0000
0000
0000
0000
0000
1100
0000
0000
0000
0000
0000
0000
0000
0000
0000
0000
0000
0000
0000
0000
0000
0000
0000
0000
0000
0000
0000
0000
0000
1000
0000
0000
0000
0000
0000
0000
0000
0000
0000
0000
0000
0010
0000
0000
0000
0000
0000
0000
0000
0000
0000
0000
0000
,  // measure 18
0010
0000
0100
0001
1100
0000
0100
1000
1000
0000
0001
0100
1010
0000
2000
3200
,  // measure 19
0000
0000
0302
0000
0000
0000
2003
0000
0000
0000
3020
0000
0000
0000
0130
0000
1100
0000
0000
1000
0000
0000
1000
0000
0101
0000
0000
0000
0000
0000
0100
0000
,  // measure 20
1010
0000
0000
0010
0000
0000
0100
0000
0011
0000
0000
0000
0000
0000
0000
0000
0001
0000
1000
0000
0100
0000
0010
0000
0001
0000
0100
0000
0010
0000
1000
0000
,  // measure 21
1001
0000
0000
0001
0000
0000
0100
0000
0000
0001
0000
0000
1000
0000
0000
0100
0000
0000
0010
0001
0010
0001
0010
0001
MM10
0000
0000
0000
0000
0000
011M
0000
0000
110M
0000
0000
10M0
0000
0000
0001
0000
0000
0100
0000
0000
0001
0000
0000
,  // measure 22
1000
0100
0010
0100
1000
0001
0100
0010
1000
0100
0010
0001
1MM0
0000
M101
1M10
,  // measure 23
1M00
0001
0100
0001
1000
0100
0010
0001
1000
0100
0010
0001
0100
0010
1000
0001
,  // measure 24
0100
0000
0000
0110
0000
0000
1010
0000
0000
0000
1000
0000
1100
0000
0101
0000
,  // measure 25
0001
1000
0100
0010
0100
1000
0001
0100
0010
0100
0010
0100
0001
1000
0001
0100
,  // measure 26
0010
0000
1000
0000
0100
0000
0110
0000
0010
0000
0001
0000
1000
0100
0010
0001
,  // measure 27
1000
0000
0000
1100
0000
0000
0101
0000
0000
1010
0000
0000
1001
0000
0110
0000
,  // measure 28
1MM1
0000
0000
0000
0000
0000
0000
0000
0000
0000
0100
0010
0100
0000
0000
0000
1MM1
0000
0000
0000
0001
0000
0010
0000
0000
0000
0100
0000
1000
0000
0000
0000
,  // measure 29
0001
0100
0010
0100
0001
0010
0100
1000
0001
0000
0100
0010
0000
1000
0010
0000
,  // measure 30
0100
0001
1000
0100
0010
0001
0010
0100
1000
0000
0001
0010
0000
0100
0010
0000
,  // measure 31
0001
1000
0010
0100
0001
0000
0001
1000
0100
0000
0010
0100
0000
0100
1000
0000
,  // measure 32
0001
0000
0100
0010
0000
0010
1000
0000
0001
0000
0010
0100
0000
1000
0100
0000
,  // measure 33
0010
0001
0010
0100
1000
0001
0100
0001
1000
0000
0010
0100
0000
0001
0100
0000
,  // measure 34
0010
1000
0010
0100
0001
1000
0010
0100
0001
0000
1000
0100
0000
0010
0001
0000
,  // measure 35
0010
0000
0000
0100
0000
0000
1000
0000
0000
0001
0000
0000
0100
0000
0000
0000
0000
0000
0100
0000
0000
0010
0000
0000
1M00
0000
0000
0000
0000
0000
0001
0000
0M00
0010
0000
0000
0000
0000
0000
0010
0M00
0000
0001
0000
0000
0000
0000
0000
,  // measure 36
1000
0000
0010
0100
0000
0100
0010
0000
MMMM
0000
1000
0100
0000
0010
0100
0000
,  // measure 37
1000
0001
0100
0001
1000
0100
0010
0001
1000
0000
0010
0100
0000
0001
1000
0000
,  // measure 38
0001
0010
0100
0010
0001
0100
0010
1000
0001
0000
0100
0010
0000
1000
0010
0000
,  // measure 39
0100
0001
0010
0100
1000
0000
1000
0100
0010
0000
0001
0010
0000
0010
0100
0000
,  // measure 40
1000
0000
0010
0100
0000
0100
0001
0000
1001
0000
1000
0100
0000
0010
0001
0000
,  // measure 41
0100
0010
0100
0001
1000
0100
0010
0001
1000
0000
0010
0100
0000
0001
0100
0000
,  // measure 42
0010
1000
0100
0010
0001
0010
0100
1000
0001
0000
0010
0000
0100
0000
0010
0000
,  // measure 43
0001
0000
1000
0000
0010
0000
0100
0001
1000
0000
0000
1100
0000
0000
0101
0000
,  // measure 44
0000
0000
0000
0000
0100
0000
0001
1000
0M20
0000
M000
0000
0M00
0000
000M
0000
,  // measure 45
0M00
M000
0M00
000M
0M00
M000
0M00
000M
,  // measure 46
0M00
M000
0M00
000M
0M00
M000
0M00
000M
,  // measure 47
0M00
M000
0M00
000M
0M00
M000
0M00
000M
,  // measure 48
0M00
0000
0000
0000
1030
0000
0001
0100
0000
0100
0010
0000
0010
1000
0000
1000
,  // measure 49
0100
0000
0010
0000
0001
0000
1000
0000
0010
0000
0100
0001
2000
0000
0000
0000
,  // measure 50
3200
0000
0310
0001
1000
0000
1000
0100
0000
0100
0010
0000
0010
0001
0000
0001
,  // measure 51
1000
0000
0010
0000
0100
0001
1000
0000
0102
0000
0000
0000
1003
0100
0020
0000
,  // measure 52
0030
0000
0011
0000
1100
0000
1000
0001
0000
0001
0100
0000
0100
0010
0000
0010
,  // measure 53
1000
0000
0001
0000
0100
0000
0010
0000
1000
0000
0001
1000
0200
0000
0000
0000
,  // measure 54
0320
0000
0031
1000
00M0
0000
0010
1000
0001
0000
1000
0000
1000
0100
0000
0100
,  // measure 55
0010
0000
0001
0000
1000
0001
0100
0010
0200
0000
0000
0000
0301
1000
0020
0000
,  // measure 56
0000
0000
0130
0000
0001
0000
1000
0100
0000
0100
0010
0000
0001
1000
0010
1000
,  // measure 57
0100
0010
0001
1000
0100
0000
1000
0010
0000
0010
0100
0000
0001
0010
0100
0010
,  // measure 58
0001
0100
0010
1000
0001
0000
1000
0100
0000
0100
0010
0000
0001
0010
0100
0010
,  // measure 59
0100
1000
0001
0100
0010
0000
1000
0010
0000
1000
0010
0000
0100
0000
0001
0100
,  // measure 60
0000
0001
0100
0000
1001
0000
0001
0010
0000
0010
0100
0000
1000
0000
0001
0100
,  // measure 61
0000
0100
0010
0000
1000
0100
1000
0100
0010
0100
0010
0100
0010
0001
0010
0001
,  // measure 62
1000
0001
1000
0001
1000
0010
0100
0001
0100
0001
1000
0100
0010
0100
1000
0001
,  // measure 63
0100
0010
1000
0001
0100
0010
0100
0010
0100
0010
0100
0010
0100
0010
0100
0001
,  // measure 64
1000
0000
0000
0000
1001
0000
0001
0010
0000
0100
1000
0000
0001
0100
0001
1000
,  // measure 65
0100
0010
0001
0010
0100
0000
1000
0010
0000
0100
0001
0000
0100
0010
1000
0010
,  // measure 66
0100
0001
0010
0100
1000
0000
0001
0010
0000
0100
0010
0000
0001
0010
0100
1000
,  // measure 67
0001
0000
0100
0010
1000
0000
0001
0100
0000
0100
0001
0000
0100
0000
0010
1000
,  // measure 68
0000
1000
0010
0000
0101
0000
0001
1000
0000
0100
0010
0000
0001
0010
0100
1000
,  // measure 69
0001
0100
0001
1000
0100
0000
0010
0001
0000
0010
0100
0000
1000
0001
0100
0010
,  // measure 70
0100
0010
1000
0001
0100
0000
0010
0000
1000
0000
0010
0000
0100
0000
0001
0000
,  // measure 71
0010
0000
0100
1000
0001
0000
0000
0101
0000
0000
1100
0000
0000
0000
0000
0000
,  // measure 72
1001
0000
0100
0000
1001
0000
0000
1100
0000
0000
0110
0000
0000
0011
0000
0000
,  // measure 73
1001
0000
0110
0000
1001
0000
1000
0001
0100
0001
1000
0000
0001
0000
1000
0010
,  // measure 74
0000
0010
1000
0000
1100
0000
0000
1001
0000
0000
0101
0000
0000
0110
0000
0000
,  // measure 75
1010
0000
0000
0000
0000
0000
0101
0000
0000
0000
0000
0000
1010
0000
0000
0000
0000
0000
1000
0000
0000
0001
0000
0000
0010
0000
0000
0100
0000
0000
0010
0000
0001
0000
0010
0000
0001
0000
0000
1000
0000
0000
0010
0000
0000
0100
0000
0000
,  // measure 76
0010
1000
0001
0000
1001
0000
0000
0101
0000
0000
1001
0000
0000
1010
0000
0000
,  // measure 77
1100
0000
0011
0000
1100
0000
1000
0001
0100
0001
1000
0000
0001
0000
0100
0001
,  // measure 78
0000
0100
0001
0000
0011
0000
0000
0110
0000
0000
1100
0000
0000
0110
0000
0000
,  // measure 79
1001
0000
0110
0000
1001
0000
1000
0001
0100
0001
1000
0100
0010
0001
0010
0100
,  // measure 80
1000
0001
0100
0000
0000
0000
0000
0000
0000
0000
0000
0000
0000
0000
0000
0000
;

//---------------dance-single - Blank----------------
#NOTES:
     dance-single:
     :
     Hard:
     9:
     0.644,0.655,0.343,0.237,0.364,480.000,42.000,29.000,0.000,0.000,0.000,0.644,0.655,0.343,0.237,0.364,480.000,42.000,29.000,0.000,0.000,0.000:
0000
0000
0000
0000
,
0000
0000
0000
0000
,
0000
0000
0000
0000
,
0000
0000
0000
0000
,
1000
0000
0000
1000
0000
0000
0010
0000
0000
0100
0000
0000
0001
0000
1000
0000
,
0100
0010
0001
1000
0020
0000
0230
0001
,
0301
0000
0000
1000
0000
0000
0100
0000
0000
0010
0000
0000
0001
0000
1000
0000
,
0010
0100
0102
0000
1003
1200
0000
0310
,
1001
0000
0000
1000
0000
0000
0001
0000
0000
0100
0000
0000
0010
0000
0010
0000
,
1000
0100
0010
0000
0002
0000
0203
0010
,
0310
0000
0000
1000
0000
0000
0001
0000
0000
0010
0000
0000
0100
0000
0100
0000
,
1000
0001
0201
0000
0310
2010
0000
3001
,
0200
0000
0000
0000
,
0000
0000
0000
0000
0300
0000
0000
0000
1002
0000
0000
0203
0000
0000
0010
0000
,
0310
0000
1000
0000
0110
0000
0001
0000
1000
0000
0100
0000
0011
0000
0001
1000
,
0000
0100
0000
0010
0000
0100
0000
1000
0001
0000
0100
0000
0011
0000
1000
0000
,
0010
0100
1001
0100
0010
1000
0011
1000
,
0002
0000
0000
1000
2003
0000
0000
0000
3200
0000
0000
0320
0000
0000
0001
0000
,
0031
0000
1000
0000
0110
0000
0001
0000
1000
0000
0001
0000
1100
0000
0100
0010
,
0000
0000
0001
0000
0000
0000
1000
0000
0000
0000
0010
0000
0000
0000
0100
0000
0001
0000
0000
0001
0000
0000
0001
0000
0100
0000
0000
0000
0000
0000
0010
0000
,
1000
0000
0000
1000
0000
0000
1000
0000
0100
0000
0000
0000
0000
0000
0000
0000
0010
0000
0000
0000
0001
0000
0000
0000
1000
0000
0000
0000
0010
0000
0000
0000
,
1001
0000
0000
0000
0000
0000
0000
0000
1002
0000
0100
0100
0103
0000
0010
0000
,
1000
0000
0010
0000
0100
0000
0001
0000
0010
0000
0100
0000
2100
0000
0001
0001
,
3001
0010
0100
0010
0001
0100
0010
1000
,
1001
0000
0000
0001
0000
0000
0001
0000
0000
0000
0100
0000
0110
0000
1001
0000
,
1000
0001
0100
0001
1000
0100
0010
0001
,
1002
0100
0100
0203
0010
0010
0310
1001
,
1100
0000
0000
0001
0000
0000
0100
0000
0000
0010
0000
0000
1000
0000
0001
0000
,
1001
0000
0000
0000
0000
0000
0000
0000
1001
0000
0000
1000
0000
0000
0100
0000
,
0010
0000
0100
0000
1000
0000
0001
0000
0100
0000
0000
0010
0000
0000
1000
0000
,
0001
0000
0100
0000
0001
0000
0010
0000
0100
0000
0000
1000
0000
0000
0010
0000
,
0100
0000
0001
0000
1000
0000
1000
0000
0010
0000
0000
0010
0000
0000
0010
0000
,
0100
0000
0000
0100
0000
0000
0100
0000
0001
0000
0000
1000
0000
0000
0100
0000
,
0010
0000
0001
0000
0010
0000
0100
0000
1000
0000
0000
0001
0000
0000
0100
0000
,
0010
0000
1000
0000
0010
0000
0100
0000
0001
0000
0000
1000
0000
0000
0100
0000
,
0010
0000
0100
0000
1000
0000
0001
0000
0001
0000
0000
0001
0000
0000
0001
0000
,
1000
0000
0000
1000
0000
0000
1000
0000
0000
0000
0010
0000
1001
0000
0000
0000
,
0001
0000
0010
0000
1000
0000
0010
0000
0001
0000
0000
0100
0000
0000
0010
0000
,
1000
0000
0100
0000
0001
0000
0100
0000
0010
0000
0000
0001
0000
0000
0100
0000
,
0010
0000
1000
0000
0010
0000
0001
0000
0010
0000
0000
0010
0000
0000
0010
0000
,
0100
0000
0000
0100
0000
0000
0100
0000
0001
0000
0000
0010
0000
0000
1000
0000
,
0010
0000
0001
0000
0100
0000
0010
0000
1000
0000
0000
0100
0000
0000
0001
0000
,
0100
0000
1000
0000
0010
0000
0100
0000
0001
0000
0000
1000
0000
0000
0010
0000
,
0100
0000
0001
0000
1000
0000
0100
0000
0110
0000
0000
0110
0000
0000
0110
0000
,
0001
0000
0000
0001
0000
0000
0001
0000
0200
0000
0000
0000
0000
0000
0000
0000
,
0000
0000
0000
0000
,
0000
0000
0000
0000
,
0000
0000
0000
0000
,
0300
0000
0000
0000
1001
0000
0000
0001
0000
0000
0100
0000
0000
0010
0000
0000
,
1000
0100
0010
0010
0001
0000
2000
0000
,
3020
0000
0100
0000
0130
0000
0000
0001
0000
0000
1000
0000
0000
0100
0000
0000
,
0010
0001
1000
0010
0210
0000
0301
0021
,
0000
0000
0130
0000
1001
0000
0000
0001
0000
0000
0100
0000
0000
0010
0000
0000
,
1000
1000
0100
0010
0001
0000
0200
0000
,
0320
0000
1000
0000
1030
0000
0000
0001
0000
0000
0100
0000
0000
0010
0000
0000
,
0100
0100
0001
1000
1200
0000
0310
0012
,
0000
1000
1003
0000
0010
0000
0100
0001
,
0010
0100
1000
0000
0001
0000
0100
0010
,
0100
1000
0100
0000
0001
0000
0010
1000
,
0010
0000
0100
0000
1000
0000
0000
1000
0000
0000
1000
0000
0001
0000
0000
0001
,
0000
0001
0101
0000
0010
0000
1100
0000
,
0001
1000
1010
0000
0001
0010
0110
0000
,
1000
0001
0101
0100
0010
1000
0001
0100
,
0001
1000
0001
1000
0020
0000
0000
0000
0000
0000
0000
0000
0000
0000
0000
0000
,
0130
0000
0000
0000
1001
0000
0000
0001
0000
0000
0100
0000
1000
0000
0100
0000
,
0001
0000
0010
0000
0100
0000
0000
1000
0000
0000
0100
0000
0010
0000
1000
0000
,
0010
0000
0001
0000
0100
0000
0000
1000
0000
0000
0100
0000
0010
0000
1000
0000
,
0100
0000
0010
0000
0010
0000
0000
0001
0000
0000
0001
0000
0100
0000
0000
0010
,
0000
0000
0010
0000
1000
0000
0000
0001
0000
0000
0010
0000
0100
0000
0001
0000
,
0100
0000
1000
0000
0010
0000
0000
0100
0000
0000
0001
0000
0010
0000
1000
0000
,
0010
0000
0100
0000
1000
0000
0000
0001
0000
0000
0100
0000
0010
0000
1000
0000
,
0001
0000
0100
0010
0100
0000
0000
0110
0000
0000
0110
0000
1000
0000
0000
1000
,
0000
0000
1000
0000
0001
0000
0000
0001
0000
0000
0100
0000
0000
0100
0000
0000
,
0010
0000
0010
0000
1000
0000
0100
0000
1000
0000
0001
0000
0010
0000
0001
0100
,
0000
0100
0001
0000
1000
0000
0000
1000
0000
0000
0100
0000
0000
0100
0000
0000
,
1000
0000
1000
0000
0100
0000
0010
0000
0001
0000
1000
0000
0100
0000
1000
0010
,
0000
0010
0100
0000
0010
0000
0000
0010
0000
0000
1000
0000
0000
1000
0000
0000
,
0100
0000
0100
0000
1000
0000
0001
0000
0100
0000
0010
0000
0100
0000
0010
1000
,
0000
1000
0010
0000
0100
0000
0000
0100
0000
0000
0001
0000
0000
0001
0000
0000
,
1000
0000
1000
0000
0100
0000
0010
0000
0001
0000
0100
0000
0001
0000
0100
0010
,
0000
0010
1000
0000
0000
0000
0000
0000
0000
0000
0000
0000
0000
0000
0000
0000
;

//---------------dance-single - Blank----------------
#NOTES:
     dance-single:
     :
     Medium:
     7:
     0.460,0.459,0.262,0.221,0.090,335.000,32.000,27.000,0.000,0.000,0.000,0.460,0.459,0.262,0.221,0.090,335.000,32.000,27.000,0.000,0.000,0.000:
0000
0000
0000
0000
,
0000
0000
0000
0000
,
0000
0000
0000
0000
,
0000
0000
0000
0000
,
1000
0001
0100
0010
,
1000
0100
0010
0000
0002
0000
0100
0000
,
1003
0100
1000
0010
,
0101
0000
1001
0000
1100
0100
0000
0010
,
0011
0001
1000
0010
,
0100
0001
1000
0000
0200
0000
0010
0000
,
1300
0001
0100
0010
,
1001
0000
0101
0000
0011
0010
0000
0100
,
2000
0000
0000
0000
,
0000
0000
0000
0000
3000
0000
0000
0000
0001
0000
0000
0001
0000
0000
0001
0000
,
0100
0000
0100
0000
0010
0000
0000
0000
1000
0000
1000
0000
0001
0000
0000
0100
,
0000
0010
0000
1000
0000
0010
0000
0100
0000
0000
0000
0000
0001
0000
0000
0000
,
1000
1000
0010
0000
0100
0100
0010
0000
,
1100
0000
0000
0000
0011
0000
0000
0000
1001
0000
0000
1000
0000
0000
1000
0000
,
0100
0000
0100
0000
0010
0000
0000
0000
0001
0000
0001
0000
0100
0000
0000
0010
,
0000
1000
0000
0010
0000
0100
0000
0001
0000
0000
0000
0000
1000
0000
0000
0000
,
0110
0000
0001
0000
1000
0100
0010
0001
,
1001
0000
2002
3003
,
0001
0000
0100
0010
1000
0001
0220
0000
,
0330
0000
1000
0000
0001
0100
0001
1000
,
0110
0000
0000
0010
0000
0000
1000
0001
,
0100
0000
0010
0000
1000
0001
0010
0100
,
1100
0000
0000
0101
0000
0000
0110
0100
,
0010
0000
0000
0010
0000
0000
0100
0000
0000
0100
0000
0000
0001
0000
1000
0000
,
1001
0000
1001
0001
,
0100
0010
1000
0100
0010
0000
0001
0000
,
1000
0001
0100
0001
1000
0000
0100
0000
,
0010
0001
1000
0010
0200
0000
0300
0000
,
0020
0030
1000
0001
,
0010
0100
1000
0001
0100
0000
0010
0000
,
1000
0001
0100
0001
1000
0000
0100
0000
,
0010
0001
0010
0100
2000
0000
3000
0000
,
0002
0003
0000
0110
,
1000
0001
1000
0001
0100
0000
0010
0000
,
1000
0100
1000
0001
0100
0000
0010
0000
,
1000
0001
0010
0100
0020
0000
0030
0000
,
0002
0003
0100
0010
,
1000
0001
0100
0001
0010
0000
0100
0000
,
1000
0001
0100
0001
0010
0000
0100
0000
,
1000
0100
0010
0001
2000
0000
3000
0000
,
0200
0300
2002
0000
,
0000
0000
0000
0000
,
0000
0000
0000
0000
,
0000
0000
0000
3003
,
0000
1000
0001
0100
,
0010
0000
1000
0100
0010
0000
0002
0000
,
0010
1003
0010
0100
,
0001
0000
0110
0000
1100
0000
1001
0001
,
0000
0100
0101
0000
1000
0000
0100
0000
,
0010
0000
0001
1000
0010
0000
0200
0000
,
0010
0301
1000
0100
,
0010
0012
1000
0200
,
0303
1000
0000
0001
,
0000
0100
0000
0010
,
0000
1000
0000
0100
,
0000
0010
0001
1000
,
0010
0110
0000
1000
,
0000
0001
0101
0000
0000
1000
1100
0000
,
0000
0001
0001
0100
0010
1000
0001
0100
,
0020
0200
0000
0000
,
0330
0000
1001
0000
0001
0000
0010
0100
,
1000
0010
0100
0000
0001
0000
1000
0100
,
0010
0001
1000
0000
0010
0000
0100
0001
,
1000
0010
0200
0000
0300
0000
0020
0000
,
0030
0000
1000
0000
0100
0000
0010
0001
,
0010
0100
1000
0000
0010
0000
0100
0001
,
1000
0001
0100
0000
0010
0000
1000
0100
,
0010
0001
2000
0000
3000
0000
0002
0000
,
0003
0000
0000
0000
1001
0000
0000
1000
0000
0000
1000
0000
0000
1000
0000
0000
,
1000
0001
1000
0000
0010
0000
0100
0000
,
0001
0000
0000
0000
0010
0000
0000
0010
0000
0000
0010
0000
0000
0010
0000
0000
,
0010
0100
0010
0000
0001
0000
1000
0000
,
0010
0000
0000
0000
0100
0000
0000
0100
0000
0000
0100
0000
0000
0100
0000
0000
,
0100
0010
0100
0000
0001
0000
1000
0000
,
0100
0000
0000
0000
0001
0000
0000
0001
0000
0000
0001
0000
0000
0001
0000
0000
,
0001
1000
0001
0000
0100
0000
0010
0000
,
1000
0001
0000
0000
0000
0000
0000
0000
;

//---------------dance-single - Blank----------------
#NOTES:
     dance-single:
     :
     Easy:
     4:
     0.315,0.360,0.139,0.057,0.000,246.000,17.000,7.000,0.000,0.000,0.000,0.315,0.360,0.139,0.057,0.000,246.000,17.000,7.000,0.000,0.000,0.000:
0000
0000
0000
0000
,
0000
0000
0000
0000
,
0000
0000
0000
0000
,
0000
0000
0000
0000
,
1001
0100
0010
1000
,
0001
0001
0100
0100
,
0010
1000
0001
0010
,
0100
0100
1000
0000
,
0001
0100
0001
1000
,
0100
0010
0001
0001
,
0100
0010
1000
0010
,
0100
0100
0001
0000
,
2002
0000
0000
0000
,
0000
3003
1000
0001
,
0100
0001
1000
0100
,
0010
0001
0100
0001
,
1000
0100
0010
0100
,
1100
0011
1001
1000
,
0001
0100
0001
1000
,
0100
1000
0020
0030
,
0200
0300
0001
1000
,
1001
0000
1001
0100
,
0010
1000
0001
1100
,
0001
0100
0001
1000
,
0110
0000
0000
0110
,
1000
0001
0100
0001
,
1000
0000
0000
1000
0000
0000
1000
0000
,
0001
0000
0000
0001
0000
0000
0001
0000
,
0100
0000
1001
1000
,
0001
0100
0001
1000
,
0100
0010
0001
0010
,
0100
1000
0001
0001
,
0100
0100
0010
1000
,
0010
0100
0001
0010
,
0100
1000
0100
0010
,
0001
1000
0001
0001
,
1000
1000
0000
0010
,
0100
0010
1000
0001
,
0010
0100
1000
0100
,
0010
0001
1000
1000
,
0100
0100
0010
0001
,
0010
0100
1000
0001
,
0100
0001
1000
0010
,
0100
0001
0010
0010
,
0001
0001
1001
0000
,
0000
0000
0000
0000
,
0000
0000
0000
0000
,
0000
0000
0000
0000
,
0000
1000
0001
0100
,
0001
1000
0100
0010
,
0010
0001
1000
0001
,
0100
0010
0010
1000
,
0000
0001
0010
0100
,
1000
0001
0100
0001
,
0001
1000
0100
0010
,
0001
0220
0000
0330
,
0000
1000
0000
1000
,
0000
0001
0000
0001
,
0000
0100
0000
0100
,
0000
0010
0000
0010
,
0000
1100
0000
0010
,
0000
0011
0000
1001
,
0000
1000
0001
0100
,
0010
2000
0000
0000
,
3000
1001
0001
0100
,
0001
1000
0100
0010
,
0001
0100
0010
1000
,
0010
0100
0100
0001
,
0001
1000
0100
0010
,
0001
0010
0100
1000
,
0001
0100
0001
1000
,
0001
0010
0010
0001
,
0001
0000
0100
0000
0000
0100
0000
0000
,
0100
0010
0000
1000
,
0000
0000
0001
0000
0000
0001
0000
0000
,
0001
0100
0000
0010
,
0000
0000
1000
0000
0000
1000
0000
0000
,
1000
0001
0000
0100
,
0000
0000
0010
0000
0000
0010
0000
0000
,
0010
0100
0000
0001
,
1000
0001
0000
0000
0000
0000
0000
0000
;

//---------------dance-single - Blank----------------
#NOTES:
     dance-single:
     :
     Beginner:
     2:
     0.157,0.261,0.131,0.000,0.000,118.000,16.000,0.000,0.000,0.000,0.000,0.157,0.261,0.131,0.000,0.000,118.000,16.000,0.000,0.000,0.000,0.000:
0000
0000
0000
0000
,
0000
0000
0000
0000
,
0000
0000
0000
0000
,
0000
0000
0000
0000
,
1000
0000
1000
0000
,
0001
0000
0000
0000
,
0001
0000
0001
0000
,
0100
0000
0000
0000
,
0010
0000
0010
0000
,
1000
0000
0000
0000
,
0100
0000
0100
0000
,
0010
0000
0000
0000
,
1001
0000
0000
0000
,
0000
0000
1000
0000
,
1000
0000
0001
0000
,
0001
0000
0100
0000
,
0100
0000
0010
0000
,
1000
0000
0001
0000
,
0100
0000
0001
0000
,
1000
0000
0110
0000
,
0110
0000
1001
0000
,
1001
0000
1001
0000
,
0000
0000
0000
0110
,
0000
0000
0000
0000
,
0110
0000
0000
0000
,
1000
0000
0000
0000
,
1001
0000
0000
0000
,
0001
0000
0000
0000
,
0100
0000
1001
0000
,
1000
0000
0001
0000
,
0001
0000
0100
0000
,
0100
0000
0010
0000
,
0010
0000
1000
0000
,
1000
0000
0100
0000
,
0100
0000
0010
0000
,
0010
0000
0001
0000
,
0001
0000
1000
0000
,
0001
0000
0100
0000
,
0001
0000
1000
0000
,
0100
0000
0010
0000
,
0010
0000
0001
0000
,
0001
0000
0100
0000
,
0100
0000
0010
0000
,
1000
0000
0001
0000
,
0001
0000
1001
0000
,
0000
0000
0000
0000
,
0000
0000
0000
0000
,
0000
0000
0000
0000
,
0000
1000
0000
0010
,
0000
0100
0000
0000
,
0000
0001
0000
0010
,
0000
0100
0000
0000
,
0000
1000
0000
0001
,
0000
0100
0000
0000
,
0000
0010
0000
1000
,
0000
0001
0000
0000
,
0000
1000
0000
0000
,
0000
0100
0000
0000
,
0000
0010
0000
0000
,
0000
0001
0000
0000
,
0000
0100
0000
0000
,
0000
0100
0000
0100
,
0000
0100
0100
0100
,
0100
0100
0000
0000
,
0000
0110
0000
0100
,
0000
0001
0000
1000
,
0000
0100
0000
0010
,
0000
0001
0000
0001
,
0000
0100
0000
0010
,
0000
1000
0000
0001
,
0000
0100
0000
0010
,
0000
1000
0000
1000
,
0000
1001
0000
0000
,
0000
0001
0000
0000
,
0000
1001
0000
0000
,
0000
1000
0000
0000
,
0000
0110
0000
0000
,
0000
0010
0000
0000
,
0000
0110
0000
0000
,
0000
0100
0000
0100
;
