#TITLE:Electronic or Treat!;
#SUBTITLE:;
#ARTIST:PON;
#TITLETRANSLIT:;
#SUBTITLETRANSLIT:;
#ARTISTTRANSLIT:;
#GENRE:;
#CREDIT:;
#BANNER:;
#BACKGROUND:;
#LYRICSPATH:;
#CDTITLE:gpopcdtitle.png;
#MUSIC:Electronic or Treat!.ogg;
#OFFSET:0.010;
#SAMPLESTART:11.370;
#SAMPLELENGTH:15.157;
#SELECTABLE:YES;
#BPMS:0.000=190.000,208.000=142.500,247.000=190.000;
#STOPS:;
#BGCHANGES:;
#KEYSOUNDS:;

//---------------dance-single - Gpop----------------
#NOTES:
     dance-single:
     Gpop:
     Challenge:
     10:
     0.807,1.000,1.000,0.241,0.772:
0000
0000
0000
0000
,
0000
0000
0000
0000
,
0000
0000
0000
0000
,
0000
0000
0000
0000
,
0000
0000
0000
0000
,
0000
0000
0000
0000
,
0000
0000
0000
0000
,
0000
0000
0000
0000
,
0000
0000
0000
0000
0000
0000
0000
0000
0000
0000
0000
0000
0000
0000
0000
0001
,
1000
0000
0000
1010
0000
0000
0101
0000
0000
0011
0000
0010
,
0100
0000
0000
0000
1100
0000
0000
0000
1001
0000
0000
0000
0101
0000
0000
0100
,
0001
0000
0000
0011
0000
0000
0110
0000
0000
1100
0000
1000
,
0010
0000
0000
0000
0110
0000
0000
0000
0101
0000
0000
0000
1001
0000
0000
0001
,
0010
0000
0000
0110
0000
0000
0011
0000
0000
1001
0000
1000
,
0010
0000
0000
0000
0110
0000
0000
0000
1010
0000
0000
0000
1001
0000
0000
0001
,
0010
0000
0000
0110
0000
0000
0011
0000
0000
1100
0000
1000
,
0001
0000
0000
0000
0101
0000
0000
0000
1010
0000
0000
0000
0110
0000
0000
0100
,
0001
0000
0000
1001
0000
0000
1100
0000
0000
0110
0000
0010
,
0001
1001
1010
0101
,
0001
0000
1000
0000
0100
0000
0010
0000
0001
0000
1000
0000
,
0040
0000
0000
0000
0000
0000
0000
0000
0000
0000
0000
0000
0230
0000
0000
0000
0000
0000
0000
0000
0000
0000
0000
0000
0301
0000
0000
1000
0000
0000
0001
0000
0000
1000
0000
0000
0001
0000
0000
0000
0000
0000
0000
0000
0011
0000
0000
0000
,
0000
0000
0000
0110
0000
0000
1100
0000
0000
1001
0000
0001
,
0100
0000
0000
0000
0110
0000
0000
0000
1010
0000
0000
0000
1001
0000
0000
0001
,
1000
0000
0000
1100
0000
0000
0011
0000
0000
1001
0000
1000
,
0100
0000
0000
0000
1100
0000
0000
0000
1010
0000
0000
0000
0101
0000
0000
0001
,
1000
0000
0000
1100
0000
0000
0011
0000
0000
0101
0000
0100
,
0010
0000
0000
0000
1010
0000
0000
0000
1001
0000
0000
0000
0011
0000
0000
0010
,
0001
0000
0000
1001
0000
0000
1010
0000
0000
0110
0000
0010
,
1000
0000
0000
0000
1100
0000
0000
0000
0011
0000
0000
0000
1001
0000
0000
1000
,
0001
0000
0000
0101
0000
0000
1100
0000
0000
1010
0000
1000
,
0001
0011
0110
1100
,
1001
0000
0001
0000
0100
0000
0010
0000
1000
0000
0001
0000
,
0020
0000
0430
1301
,
1010
0000
0000
1001
0000
0000
0011
0000
0000
0110
0000
0100
,
1000
0001
1000
0001
1000
0001
0200
0000
0000
0310
0000
0010
,
1000
0000
0000
1100
0000
0000
0011
0000
0001
1000
0000
1000
,
0004
0000
0000
0000
0203
0000
0000
0000
0310
1000
0010
1000
0010
0000
0000
0000
,
1010
0000
0000
1001
0000
0000
0011
0000
0000
0110
0000
0100
,
1000
0000
0000
0000
1010
0000
0000
0000
0101
0000
0000
0000
1001
0000
0000
1000
,
0100
0000
0000
0110
0000
0000
0011
0000
0001
0000
1000
0000
,
1010
0000
0010
0000
0100
0000
0001
0000
0010
0000
0100
0000
,
4000
0000
0000
0000
,
3001
0101
1000
1100
,
0001
0011
1000
1010
,
2000
0000
0000
3200
0000
0000
0320
0000
0000
0031
1000
0001
,
0200
0000
0310
2000
0000
0000
3001
0000
0001
0010
0000
0000
,
0100
1000
0001
2000
0000
3020
0000
0000
0000
0130
0001
0100
,
0002
0000
1003
0100
0000
2000
0000
0000
3010
0100
0000
0100
,
0001
1000
0001
1000
0000
0000
0100
0000
0020
0000
0000
0031
,
1000
0010
1000
0020
0000
0000
0130
0001
0100
0002
0000
0000
,
1003
0010
1000
0001
0000
0000
0010
0000
0100
0000
1000
0001
,
0100
0010
0100
0001
0000
0000
1000
0001
0000
0100
0010
1000
,
0M02
0000
0000
0000
0000
0003
0101
1000
,
1100
0000
0000
0000
0000
0000
0000
0000
1000
0001
1000
0001
1000
0001
1000
0001
,
1000
0010
0100
0010
1000
0001
0100
0010
1000
0010
1000
0010
0100
0001
0100
0001
,
1000
0100
1000
0100
0010
0001
0010
0100
0010
0001
1000
0100
0010
0100
0010
0001
,
1000
0010
0100
0010
1000
0001
0100
0010
0100
0010
0100
0001
1000
0010
0100
0001
,
1000
0100
1000
0001
0010
0001
1000
0100
0010
0001
0010
0001
1000
0100
1000
0100
,
0010
0001
1000
0000
0001
0100
0001
0000
1000
0010
1000
0000
0001
1000
0001
0010
,
0100
1000
0100
0000
0010
0001
0010
0000
0001
1000
0001
0000
0100
0010
0100
0010
,
1000
0001
0010
0100
1000
0001
0100
0001
,
1001
1000
0010
0110
0100
0001
40M0
0000
,
3200
0000
0000
0000
0000
0000
0000
0000
0000
0000
0000
0000
0310
0000
0000
0001
0000
0000
0010
0000
0000
0001
0000
0000
1000
0000
0000
0000
0000
0000
0000
0000
0001
0000
0000
0000
1000
0000
0000
0000
0000
0000
0000
0000
0000
0000
0000
0000
,
1100
0000
0000
0011
0000
0000
1001
0000
1000
0020
0000
0000
,
100M
0000
0000
M100
0000
0000
103M
0000
0001
0010
0000
0000
,
0110
0000
0000
1100
0000
0000
1001
0000
0001
0200
0000
0000
,
M010
0000
0000
03M1
1000
0001
1000
0000
0100
1000
0000
0000
,
1001
0000
0000
0101
0000
0000
0110
0000
0010
2000
0000
0000
,
0M01
0000
0000
00M1
0000
0000
3M01
0000
1000
0001
0000
0000
,
0011
0000
0000
0110
0000
0000
1100
0000
1000
0002
0000
0000
,
01M0
0000
0000
M010
0000
0000
10M3
0000
0001
0100
0000
0000
,
0110
0000
0000
1010
0000
0000
1001
0000
0001
0010
0000
0000
,
0110
0000
0000
1100
0000
0000
1001
0000
0000
2001
0000
0001
,
0000
0010
0000
0010
0000
0100
0000
3100
0010
0002
0000
1000
,
0000
0100
0000
0100
0000
0010
0000
0013
0100
1000
0000
0010
,
0000
0100
0000
0001
0000
0010
0000
0100
1000
0001
0000
0000
;

//---------------dance-single - Gpop----------------
#NOTES:
     dance-single:
     Gpop:
     Hard:
     6:
     0.603,0.683,1.000,0.160,0.175:
0000
0000
0000
0000
,
0000
0000
0000
0000
,
0000
0000
0000
0000
,
0000
0000
0000
0000
,
0000
0000
0000
0000
,
0000
0000
0000
0000
,
0000
0000
0000
0000
,
0000
0000
0000
0000
,
0000
0000
0000
0000
,
1001
0000
0000
1100
0000
0000
0001
0000
0000
0101
0000
0100
,
0010
1010
0100
0101
,
1000
0000
0000
1100
0000
0000
0001
0000
0000
0011
0000
0001
,
1000
1010
0001
0101
,
1000
0000
0000
1001
0000
0000
0001
0000
0000
1001
0000
0001
,
0100
0110
0010
0110
,
1000
0000
0000
1100
0000
0000
0001
0000
0000
0101
0000
0100
,
0001
0011
1000
1010
,
1001
0011
1000
1001
,
1010
1001
0001
0101
,
4000
0000
3004
0000
,
0203
0000
0000
0320
0000
0000
4030
0000
0000
3000
0000
1001
,
0000
0000
0000
1001
0000
0000
0101
0000
0000
0101
0000
0001
,
1000
1100
0011
0011
,
1010
0000
0000
1010
0000
0000
0101
0000
0000
0101
0000
0100
,
0010
0110
1001
1001
,
1100
0000
0000
1100
0000
0000
0011
0000
0000
0011
0000
0001
,
1000
1001
0110
0110
,
1001
0000
0000
1001
0000
0000
1100
0000
0000
1100
0000
0100
,
0010
0011
1001
1001
,
1010
0000
0000
1010
0000
0000
0101
0000
0000
0101
0000
0001
,
1000
1100
0101
0101
,
0400
0000
0340
0000
,
2030
0000
0000
3001
,
0101
1001
1100
0110
,
0040
0004
0000
0000
0000
0000
0033
0000
0000
1000
0000
0001
,
1000
1010
1001
0011
,
0002
2003
3040
0030
,
1010
0000
0000
1001
0000
0000
0101
0000
0000
1001
0000
1000
,
0001
0011
0110
1100
,
1001
0100
1001
0010
,
0400
0000
0000
0000
,
03M0
0000
0000
0000
,
1001
1100
0001
0101
,
1000
1010
0001
0011
,
1000
1100
0001
0101
,
0100
0000
0000
0110
0000
0000
0001
0000
1000
0001
0000
0000
,
1000
0101
0001
1100
,
1000
0110
0010
1001
,
1000
0011
0100
1010
,
1000
0000
0001
1000
0000
0000
0001
0000
1000
0001
0000
0000
,
1001
1010
0001
1100
,
0011
1001
0100
0011
,
2002
0000
3000
0100
,
0200
0000
0303
0000
,
0101
0000
0000
0000
0101
0000
0000
0000
1100
0000
0000
0000
1100
0000
0000
1000
,
0001
0000
0000
0000
0011
0000
0000
0000
1010
0000
0000
0000
1000
0001
1000
0001
,
1000
0000
0000
0000
1100
0000
0000
0000
0011
0000
0000
0000
0011
0000
0000
0001
,
1000
1010
0101
0101
,
1001
0000
0000
0000
1000
0000
0000
0000
0100
0000
0000
0000
0010
0000
0000
0001
,
1000
0000
0000
0000
0010
0000
0000
0000
0100
0000
0000
0000
0001
1000
0001
1000
,
0001
1000
0110
0001
,
1000
0100
0010
0001
1000
0001
2M00
0000
,
3020
0000
0000
0430
0000
0000
0300
0000
1001
0000
0000
0000
,
1001
1100
1100
0002
,
0100
0000
0000
1000
0000
0000
0103
0000
0101
0000
0000
0000
,
0101
1100
1100
0010
,
0010
0000
0000
0010
0000
0000
0000
0000
0110
0000
0000
0000
,
0110
1001
1001
2000
,
0010
0000
0000
0001
0000
0000
3010
0000
1010
0000
0000
0000
,
1010
0101
0101
0002
,
2003
3002
2003
3100
,
0110
0011
1001
1010
,
0110
0000
0000
0101
0000
0000
1001
0000
0000
0001
0000
1000
,
0000
0001
0000
1000
0000
0001
0000
1000
0000
0010
0000
0100
,
0000
0010
0000
0100
0000
0010
0000
0100
0000
0004
0000
0000
,
0000
4003
0000
3010
;

//---------------dance-single - Gpop----------------
#NOTES:
     dance-single:
     Gpop:
     Medium:
     4:
     0.374,0.493,0.321,0.000,0.045:
0000
0000
0000
0000
,
0000
0000
0000
0000
,
0000
0000
0000
0000
,
0000
0000
0000
0000
,
0000
0000
0000
0000
,
0000
0000
0000
0000
,
0000
0000
0000
0000
,
0000
0000
0000
0000
,
0000
0000
0000
0000
,
1000
1000
0001
0001
,
0100
0010
0100
0010
,
1000
1000
0100
0100
,
0010
0001
0010
0001
,
1000
1000
0001
0001
,
0100
0010
1000
0001
,
0010
0010
0001
0001
,
1000
0010
1000
0001
,
0010
0010
0100
0100
,
1000
1000
0001
0001
,
4000
0000
0000
0000
,
3000
0000
0000
0000
0000
0000
0000
0000
0000
0000
0000
1001
,
0000
0001
1000
0001
,
0100
0010
1000
0100
,
0010
0001
0010
0001
,
1000
0010
0100
0001
,
1000
0100
1000
0100
,
1000
0010
0100
0001
,
0100
0010
0100
0010
,
1000
0100
0010
0001
,
1000
0001
1000
0001
,
0100
0010
0100
0010
,
0400
0000
0000
0000
,
0300
0000
0000
0110
,
1001
1000
0100
0010
,
M001
00M0
0M00
000M
,
1001
0001
0010
0100
,
100M
0M00
00M0
0000
,
1001
1000
0010
1000
,
1100
0100
0010
0001
,
0011
0010
0110
0100
,
4100
0000
0000
0000
,
3000
0000
0000
0000
,
1001
0001
0100
0001
,
1000
0100
0010
0001
,
1000
1000
0001
0001
,
0100
0100
0010
0010
,
1000
0100
1000
0001
,
0100
0010
0100
0001
,
0010
0100
1000
0001
,
1000
1100
0001
0101
,
1001
1000
0001
0010
,
0110
0100
1000
0010
,
0110
0000
0000
1001
,
1001
0000
0000
0000
,
1001
1000
0001
1000
,
0010
0100
0010
0100
,
0001
1000
0001
1000
,
0100
0010
0100
0010
,
0001
0010
0100
1000
,
0001
0100
0010
1000
,
1001
0001
1001
1000
,
0010
0100
0010
0100
0010
0100
M001
0000
,
00M0
0000
0000
0M00
0000
0000
0000
0000
1001
0000
0000
0000
,
1001
1000
1100
0001
,
0001
0000
0000
0001
0000
0000
0001
0000
1000
0000
0000
0000
,
1100
0001
0101
00M0
,
00M0
0000
0000
00M0
0000
0000
00M0
0000
1001
0000
0000
0000
,
1001
1000
1010
0100
,
0100
0000
0000
0100
0000
0000
0100
0000
0010
0000
0000
0000
,
0110
0001
1001
0100
,
0010
0100
0010
1001
,
1000
0100
0010
0011
,
0001
1000
0010
0040
,
0000
0000
0000
0430
,
0000
0000
0000
0000
0000
0000
0000
0000
0000
0301
0000
1000
,
0000
0001
0000
1000
0000
0001
0000
1000
0000
0001
0000
0000
;

//---------------dance-single - Gpop----------------
#NOTES:
     dance-single:
     Gpop:
     Easy:
     2:
     0.208,0.304,0.220,0.020,0.025:
0000
0000
0000
0000
,
0000
0000
0000
0000
,
0000
0000
0000
0000
,
0000
0000
0000
0000
,
0000
0000
0000
0000
,
0000
0000
0000
0000
,
0000
0000
0000
0000
,
0000
0000
0000
0000
,
0000
0000
0000
0000
,
1000
0000
1000
0000
,
0001
0000
0001
0000
,
0100
0000
0100
0000
,
0010
0000
0010
0000
,
1000
0000
0100
0000
,
1000
0000
0100
0000
,
0010
0000
0001
0000
,
0010
0000
0001
0000
,
1000
0000
1000
0000
,
0010
0000
0010
0000
,
0100
0000
0000
0000
,
0010
0000
0000
0000
0000
0000
0000
0000
0000
0000
0000
1001
,
0000
0000
0001
0000
,
0010
0000
0010
0000
,
0100
0000
0100
0000
,
1000
0000
1000
0000
,
0001
0000
0001
0000
,
1000
0000
1000
0000
,
0010
0000
0010
0000
,
0100
0000
0100
0000
,
0001
0000
0010
0000
,
0100
0000
1000
0000
,
1001
0000
0000
0000
,
0100
0000
0000
0000
,
0110
0000
0001
0000
,
1000
0000
0000
0000
,
1100
0000
0100
0000
,
0010
0000
0000
0000
,
0011
0000
0001
0000
,
1000
0000
0010
0000
,
0100
0000
0001
0000
,
2000
0000
0000
0000
,
0002
0000
3003
0000
,
1001
0000
0001
0000
,
0010
0000
0100
0000
,
1000
0001
0100
0000
,
0010
1000
0001
0000
,
1000
0000
0100
0000
,
0010
0000
0001
0000
,
1000
0000
0010
0000
,
0000
1001
0000
1001
,
1000
0000
0010
0000
,
0110
0000
0100
0000
,
1001
0000
0000
0100
,
0100
0000
0000
0000
,
1001
0000
1000
0000
,
0100
0000
0010
0000
,
0001
0000
1000
0000
,
0010
0000
0100
0000
,
0001
0000
0001
0000
,
0001
0000
0001
0000
,
1001
0000
0110
0000
,
1000
0100
0010
0001
,
0000
0000
0000
0000
0000
0000
0000
0000
1001
0000
0000
0000
,
0000
1000
0000
0010
,
0000
0000
0000
0000
0000
0000
0000
0000
0110
0000
0000
0000
,
0000
0100
0000
0001
,
0000
0000
0000
0000
0000
0000
0000
0000
1001
0000
0000
0000
,
0000
1000
0000
0001
,
0000
0000
0000
0000
0000
0000
0000
0000
0101
0000
0000
0000
,
0000
0100
0000
0010
,
0000
0000
0000
1010
,
0000
1000
0000
0001
,
0000
0010
0000
0110
,
0000
0000
0000
1001
,
0000
0000
0000
1100
,
0000
0000
0000
0101
;

//---------------dance-single - Gpop----------------
#NOTES:
     dance-single:
     Gpop:
     Beginner:
     1:
     0.103,0.152,0.060,0.000,0.000:
0000
0000
0000
0000
,
0000
0000
0000
0000
,
0000
0000
0000
0000
,
0000
0000
0000
0000
,
0000
0000
0000
0000
,
0000
0000
0000
0000
,
0000
0000
0000
0000
,
0000
0000
0000
0000
,
0000
0000
0000
0000
,
1000
0000
0000
0000
,
1000
0000
0000
0000
,
0001
0000
0000
0000
,
0001
0000
0000
0000
,
0100
0000
0000
0000
,
0100
0000
0000
0000
,
0010
0000
0000
0000
,
0010
0000
0000
0000
,
1000
0000
0000
0000
,
0001
0000
0000
0000
,
0010
0000
0000
0000
,
0000
0000
0000
0000
,
0100
0000
0000
0000
,
1000
0000
0000
0000
,
0001
0000
0000
0000
,
0100
0000
0000
0000
,
0001
0000
0000
0000
,
1000
0000
0000
0000
,
0100
0000
0000
0000
,
0010
0000
0000
0000
,
0001
0000
0000
0000
,
0100
0000
0000
0000
,
0010
0000
0000
0000
,
0000
0000
0000
0000
,
1001
0000
0000
0000
,
0000
0000
0000
0000
,
1001
0000
0000
0000
,
0000
0000
0000
0000
,
0110
0000
0000
0000
,
0110
0000
0000
0000
,
1001
0000
0000
0000
,
1000
0000
0000
0000
,
0000
0000
0000
0000
,
0001
0000
0000
0000
,
1000
0000
0000
0000
,
0010
0000
0000
0000
,
0100
0000
0000
0000
,
0010
0000
0000
0000
,
1000
0000
0000
0000
,
0001
0000
0000
0000
,
0010
0000
0010
0000
,
0010
0000
0000
0000
,
0100
0000
0000
0000
,
1000
0000
0000
0000
,
0000
0000
0000
0000
,
0001
0000
0000
0000
,
1000
0000
0000
0000
,
0010
0000
0000
0000
,
0100
0000
0000
0000
,
0001
0000
0001
0000
,
0001
0000
0001
0000
,
1000
0000
1000
0000
,
1000
0000
1000
0000
,
0000
0000
0000
1000
,
0000
0000
0000
1000
,
0000
0000
0000
0001
,
0000
0000
0000
0001
,
0000
0000
0000
0100
,
0000
0000
0000
0100
,
0000
0000
0000
0010
,
0000
0000
0000
0010
,
0000
0000
0000
1000
,
0000
0000
0000
0001
,
0000
0000
0000
1000
,
0000
0000
0000
0001
,
0000
0000
0000
0100
,
0000
0000
0000
1001
;
