#TITLE:Dr. Who;
#SUBTITLE:(Hardcore Remix);
#ARTIST:JAKAZiD;
#TITLETRANSLIT:;
#SUBTITLETRANSLIT:;
#ARTISTTRANSLIT:;
#GENRE:;
#CREDIT:;
#BANNER:Doctor Who - bn.png;
#BACKGROUND:Doctor Who - bg.png;
#LYRICSPATH:;
#CDTITLE:cdtitlegpop.png;
#MUSIC:Doctor Who (Hardcore Remix).ogg;
#OFFSET:-0.030;
#SAMPLESTART:55.140;
#SAMPLELENGTH:12.000;
#SELECTABLE:YES;
#BPMS:0.000=172.000,96.000=86.000,111.000=87.740,112.000=86.000,128.000=172.000,188.000=167.000,192.000=172.020,292.000=344.000,294.000=172.000;
#STOPS:292.000=0.116
,292.667=0.116
,293.333=0.116
;
#BGCHANGES:28.000=-random-=1.000=1=0=1=SongBgWithMovieViz==CrossFade==,
32.000=-random-=1.000=0=0=1=====,
48.000=-random-=1.000=0=0=1=====,
64.000=-random-=1.000=0=0=1=====,
80.000=-random-=1.000=0=0=1=====,
96.000=-random-=1.000=1=0=1=SongBgWithMovieViz==CrossFade==,
112.000=-random-=1.000=0=0=1=SongBgWithMovieViz====,
128.000=-random-=1.000=0=0=1=====,
144.000=-random-=1.000=0=0=1=====,
160.000=-random-=1.000=0=0=1=====,
176.000=-random-=1.000=0=0=1=====,
192.000=-random-=1.000=0=0=1=SongBgWithMovieViz====,
208.000=-random-=1.000=0=0=1=SongBgWithMovieViz====,
224.000=-random-=1.000=0=0=1=====,
240.000=-random-=1.000=0=0=1=====,
256.000=-random-=1.000=0=0=1=====,
272.000=-random-=1.000=0=0=1=====,
280.000=-random-=1.000=1=0=1=SongBgWithMovieViz==CrossFade==,
288.000=-random-=1.000=0=0=1=Kaleidoscope2x2====,
292.000=-random-=1.000=0=0=1=====,
292.667=-random-=1.000=0=0=1=====,
293.333=-random-=1.000=0=0=1=====,
294.000=-random-=1.000=0=0=1=SongBgWithMovieViz====,
296.000=-random-=1.000=0=0=1=====,
312.000=-random-=1.000=0=0=1=====,
328.000=-random-=1.000=0=0=1=====,
344.000=-random-=1.000=0=0=1=====,
360.000=Doctor Who - bg.png=1.000=0=0=1=====,
99999=-nosongbg-=1.000=0=0=0 // don't automatically add -songbackground-
;
#BGCHANGES2:32.000=white flash=1.000=0=0=1=====,
112.000=white flash=1.000=0=0=1=====,
116.000=white flash=1.000=0=0=1=====,
120.000=white flash=1.000=0=0=1=====,
120.500=white flash=1.000=0=0=1=====,
121.000=white flash=1.000=0=0=1=====,
122.000=white flash=1.000=0=0=1=====,
122.750=white flash=1.000=0=0=1=====,
123.000=white flash=1.000=0=0=1=====,
124.000=white flash=1.000=0=0=1=====,
124.375=white flash=1.000=0=0=1=====,
124.750=white flash=1.000=0=0=1=====,
125.000=white flash=1.000=0=0=1=====,
125.375=white flash=1.000=0=0=1=====,
125.750=white flash=1.000=0=0=1=====,
126.000=white flash=1.000=0=0=1=====,
128.000=white flash=1.000=0=0=1=====,
192.000=white flash=1.000=0=0=1=====,
224.000=white flash=1.000=0=0=1=====,
296.000=white flash=1.000=0=0=1=====,
360.000=white flash=1.000=0=0=1=====,
;
#KEYSOUNDS:;

//---------------dance-single - ----------------
#NOTES:
     dance-single:
     :
     Challenge:
     10:
     0.884,1.000,0.210,0.145,1.000:
0000
0000
0000
0000
,
0000
0000
0000
0000
,
0000
0000
0000
0000
,
0000
0000
0000
0000
,
0000
0000
0000
0000
,
0000
0000
0000
0000
,
0000
0000
0000
0000
,
2002
0000
3003
0000
,
1001
0000
1000
0100
0000
0010
0001
0000
1000
0000
0001
0100
0000
0010
1000
0000
,
0001
0000
0100
0000
0010
0000
1000
0100
0000
0010
0000
0001
0100
0000
0001
0000
,
1000
0000
0001
0100
0000
0001
0100
0000
0010
0000
1000
0100
0000
1000
0100
0000
,
0010
0000
0001
0000
0100
0000
0010
1000
0000
0001
0000
0100
0010
0000
1000
0000
,
0001
0000
1000
0100
0000
0100
0010
0000
0001
0000
0100
0010
0000
0010
1000
0000
,
0001
0000
0010
0000
0001
0000
0100
0010
0000
0010
0000
0010
1000
0000
0001
0000
,
1000
0000
0010
0100
0000
0100
0001
0000
1000
0000
0100
0010
0000
0010
0001
0000
,
0100
0000
0010
0000
1000
0000
0001
0100
0000
0100
0000
0100
0010
0000
1000
0000
,
1001
0000
0001
0010
0000
0010
0100
0000
1000
0000
0010
0100
0000
0100
0001
0000
,
1000
0000
0100
0000
0010
0000
0001
0100
0000
0100
0000
0001
1000
0000
1000
0000
,
0001
0000
0010
0100
0000
0100
1000
0000
0010
0000
0100
0001
0000
0001
1000
0000
,
0001
0000
1000
0000
0100
0000
0010
0001
0000
0001
0000
0100
0010
0000
0010
0000
,
1000
0000
0010
0100
0000
0001
1000
0000
0001
0000
0010
0100
0000
1000
0100
0000
,
0010
0000
0001
0000
0100
0000
0010
1000
0000
0001
0000
0100
0001
0000
1000
0000
,
0001
0000
1000
0100
0000
0001
0100
0000
1000
0000
0010
0001
0000
0010
1000
0000
,
2001
0000
0000
0010
0000
0000
0100
0000
0100
0000
0000
0001
0000
0000
3000
0000
,
2001
0000
3020
0000
0230
0000
0301
0100
,
0002
0000
0023
0000
0230
0000
1300
0010
,
1000
0100
1000
0100
0000
0000
0010
0001
0010
0001
0000
0000
1000
0001
1000
0001
0000
0000
0100
0000
0010
0000
1000
0001
,
0100
0010
1000
0010
0000
0000
0100
0001
0100
0010
0000
0000
1000
0100
0010
0001
0000
0000
1000
0000
0001
0000
0100
0010
,
1000
0000
0001
0100
0000
0100
0001
0000
1000
0000
0100
0010
0000
0010
0100
0000
1000
0000
0010
0100
0000
0100
0001
0000
0010
0000
0100
1000
0000
1000
0010
0000
,
0101
0000
0001
1000
0000
1000
0100
0000
0010
0000
0001
0010
0000
0010
0100
0000
1000
0000
0010
0100
0000
0100
0001
0000
1000
0000
0010
0100
0000
0100
0001
0000
,
1001
0000
1000
0100
0010
0000
0001
0000
0011
0000
0001
0010
0000
0010
0100
0000
1100
0000
1000
0010
0000
0010
0100
0000
0101
0000
0001
1000
0000
1000
0100
0000
,
1100
0000
0000
0110
0000
0000
0011
0000
1001
0000
0000
1100
0000
0000
1001
0000
0202
0000
0000
0000
0300
0000
0000
0000
2003
0000
0000
0000
3200
0000
0000
0000
,
0310
0000
0001
0100
0000
0010
1000
0000
0001
0000
0010
0100
0000
1000
0001
0000
,
1000
0000
0010
0100
0000
0001
0100
0000
0010
0000
1000
0100
0000
0010
0001
0000
,
1000
0000
0100
0010
0000
0001
0010
0000
0100
0000
1000
0001
0000
0100
0001
0000
,
1000
0000
0010
0100
0000
0001
0100
0000
0010
0000
1000
0100
0000
0010
0001
0000
,
1000
0000
0001
0100
0000
0001
1000
0000
0010
0000
0100
0001
0000
0100
0010
0000
,
1000
0000
0100
0010
0000
0001
0010
0000
0100
0000
1000
0001
0000
0100
0010
0000
,
1000
0000
0010
0100
0000
0001
0100
0000
0010
0000
1000
0100
0000
0010
0001
0000
,
1000
0000
0010
0100
0000
0001
0100
0000
0010
0000
1000
0001
0000
0001
1000
0000
,
1001
0000
0001
0100
0000
0010
0100
0000
0010
0000
1000
0100
0000
0010
0001
0000
,
0100
0000
0010
1000
0000
0010
0100
0000
0001
0000
1000
0100
0000
1000
0100
0000
,
1000
0000
0001
0100
0000
0010
0100
0000
0001
0000
0010
0100
0000
1000
0001
0000
,
1000
0000
0001
0010
0000
0100
0010
0000
0001
0000
1000
0100
0000
0010
0001
0000
,
0011
0000
0010
0100
0000
1000
0001
0000
0100
0000
0010
1000
0000
0001
0100
0000
,
0101
0000
0001
1000
0000
0100
0010
0000
0001
0000
0010
0100
0000
1000
0001
0000
,
0101
0000
0100
0010
1000
0000
0001
0010
0100
0000
1000
0001
0100
0000
0010
2000
,
0002
0000
3000
0000
0100
0000
0100
0003
,
1001
0001
0100
0010
0000
1000
0001
0100
0001
1000
0000
0001
,
0010
0100
1000
0001
0000
0100
0010
0000
1000
0000
0001
0100
,
0010
0100
0001
1000
0000
0001
1000
0100
1000
0100
0000
0010
,
0001
0010
0100
1000
0000
0001
0100
0000
0001
0000
1000
0001
,
1000
0100
0010
0001
0000
1000
0010
0100
0001
0100
0000
0010
,
1000
0001
0100
0001
0000
1000
0100
0000
0010
0000
0001
0100
,
0001
1000
0100
0010
0000
0001
0010
0100
1000
0001
0000
0001
,
1000
0001
0001
1000
0001
0001
1000
0001
0001
1000
0100
0010
,
1001
0000
0001
1000
0000
1000
0100
0000
0100
0010
0001
0010
,
0001
0000
0001
1000
0000
1000
0010
0000
0010
0100
0001
0100
,
0001
0000
0001
1000
0000
1000
0100
0000
0100
0001
0100
0001
,
0100
0000
0100
1000
0000
1000
0010
0000
0100
0000
0001
1000
,
0100
0000
0010
0001
0000
1000
0100
0000
1000
0010
0100
0001
,
1000
0000
0001
0100
0000
0010
1000
0000
0100
0001
0100
1000
,
0001
0000
0100
1000
0000
0100
0001
0000
0010
0100
1000
0001
,
0100
0000
0010
1000
0000
0001
0100
0000
0001
0000
1000
0100
,
0010
0001
0010
0100
0000
1000
0010
0100
0001
1000
0000
0001
,
0100
0001
1000
0100
0000
0010
0001
0000
0100
0010
1000
0001
,
0100
0010
1000
0010
0000
0100
0001
1000
0001
0100
0000
0010
,
1000
0001
0010
0100
0000
1000
0100
0000
0010
0000
0001
1000
,
0001
0100
0001
1000
0000
0001
0100
0010
0100
0001
0000
1000
,
0100
0010
0001
1000
0000
0001
0100
0000
0010
0000
1000
0100
,
10M0
0001
1000
0M01
1000
0001
10M0
0001
1000
0M01
1000
0001
,
M100
0010
0100
001M
0100
0010
M100
0010
0100
001M
0100
0010
,
M400
0004
0000
0000
0000
0000
00M0
0000
0000
0000
0300
0000
40M0
0000
0000
0000
0000
0000
0M00
0000
0000
0000
0000
0000
,
3003
0000
0000
0000
1100
0000
0000
0000
0011
0000
0000
0000
0202
0000
0000
0300
0000
0000
2000
0000
0000
3003
0000
0000
,
1001
0000
0001
0100
0000
0100
0010
0000
1000
0000
0100
0010
0000
0010
0001
0000
,
1000
0000
0001
0100
0000
0100
0010
0000
0100
0000
0001
1000
0000
1000
0100
0000
,
0010
0000
0001
0010
0000
0010
0100
0000
1000
0000
0001
0100
0000
0100
0010
0000
,
1000
0000
0001
1000
0000
1000
0100
0000
0010
0000
0001
1000
0000
1000
0001
0000
,
0100
0000
0010
1000
0000
1000
0100
0000
0010
0000
0001
0100
0000
0100
1000
0000
,
0100
0000
0001
0010
0000
0010
1000
0000
0010
0000
0001
0010
0000
0010
0100
0000
,
1000
0000
0010
0100
0000
0100
0001
0000
0010
0000
0100
1000
0000
1000
0001
0000
,
0100
0000
0010
0001
0000
0001
0010
0000
1000
0000
0001
0100
0000
0100
0010
0000
,
1001
0000
1000
0100
0000
0010
0001
0000
0100
0000
1000
0010
0000
0100
0010
0000
,
1000
0000
0100
0010
0000
0001
0100
0000
0010
0000
1000
0001
0000
0100
0001
0000
,
1000
0000
0100
0010
0000
0001
0010
0000
0100
0000
1000
0001
0000
0100
0001
0000
,
1000
0000
0010
0100
0000
0001
0100
0000
0001
0000
1000
0100
0000
0010
0100
0000
,
1000
0000
0001
0100
0000
1000
0100
0000
0001
0000
0010
1000
0000
0010
0001
0000
,
0100
0000
0010
1000
0000
0010
0001
0000
0010
0000
1000
0100
0000
0010
0001
0000
,
0100
0000
1000
0100
0000
0001
0010
0000
0100
0000
1000
0100
0000
0010
0001
0000
,
4000
0004
0000
0000
0000
0000
0000
0000
0000
0000
0000
0000
0000
0000
0000
0000
0000
0000
3003
0000
0000
0000
0000
0000
,
2002
0000
0000
0000
,
3003
0000
0000
0000
;

//---------------dance-single - ----------------
#NOTES:
     dance-single:
     :
     Hard:
     9:
     0.607,0.790,0.456,0.123,0.597:
0000
0000
0000
0000
,
0000
0000
0000
0000
,
0000
0000
0000
0000
,
0000
0000
0000
0000
,
0000
0000
0000
0000
,
0000
0000
0000
0000
,
0000
0000
0000
0000
,
2002
0000
3003
0000
,
1001
0000
0000
1000
0000
0000
0010
0000
0100
0000
0000
0001
0000
0000
0010
0000
,
0100
0000
0000
1000
0000
0000
0010
0000
0100
0000
0001
0100
0000
0000
0010
0000
,
1000
0000
0000
0100
0000
0000
1000
0000
0010
0000
0000
0100
0000
0000
0001
0000
,
0010
0000
0000
0100
0000
0000
1000
0000
0001
0000
0100
0001
0000
0000
0100
0000
,
0010
0000
0000
1000
0000
0000
0100
0000
0010
0000
0000
0100
0000
0000
1000
0000
,
0001
0000
0000
0100
0000
0000
0010
0000
1000
0000
0001
0100
0000
0000
0010
0000
,
0100
0000
0000
0001
0000
0000
0010
0000
0100
0000
0000
1000
0000
0000
0100
0000
,
0010
0000
0000
0001
0000
0000
0100
0000
0010
0000
1000
0010
0000
0000
0100
0000
,
0001
0000
0000
0010
0000
0000
0100
0000
0010
0000
0000
0001
0000
0000
0100
0000
,
0010
0000
0000
1000
0000
0000
0100
0000
0010
0000
0001
0010
0000
0000
0100
0000
,
1000
0000
0000
0010
0000
0000
0001
0000
0010
0000
0000
1000
0000
0000
0100
0000
,
0010
0000
0000
0001
0000
0000
0100
0000
0010
0000
1000
0010
0000
0000
0100
0000
,
0101
0000
0000
0001
0000
0000
1000
0000
0100
0000
0000
0010
0000
0000
0001
0000
,
0011
0000
0000
1000
0000
0000
0010
0000
0001
0000
0010
1000
0000
0000
0001
0000
,
1001
0000
0000
1000
0000
0000
0001
0000
0011
0000
0000
0010
0000
0000
0100
0000
,
2200
0000
0000
3300
,
1001
0000
0010
0000
0100
0000
0001
0010
,
0100
0000
1000
0000
0010
0000
0100
0001
,
1000
0000
0100
0000
0010
0000
0001
0100
,
0001
0000
1000
0000
0100
0000
0010
0001
,
1100
1000
0001
0100
0001
0100
0010
1000
,
0011
0001
0100
0010
1000
0100
1000
0001
,
0110
0000
1001
0000
1100
0000
0000
0000
0101
0000
0000
0110
1010
0000
0000
0000
,
1000
0000
0000
1000
0000
0000
1000
0000
0001
0000
0000
0001
0000
0000
0001
0000
2002
0000
0000
0000
0000
0000
0000
0000
3003
0000
0000
0000
0000
0000
0000
0000
,
1000
0000
0000
0100
0000
0000
0010
0000
0001
0000
0000
0010
0000
0000
0100
0000
,
1000
0000
0000
0010
0000
0000
0100
0000
0001
0000
0000
0100
0000
0000
0010
0000
,
1000
0000
0000
0100
0000
0000
0010
0000
0100
0000
0000
1000
0000
0000
0010
0000
,
0100
0000
0000
0001
0000
0000
0010
0000
0001
0000
0000
0100
0000
0000
0010
0000
,
1010
0000
0110
0000
0101
0000
0001
1000
,
1100
0000
0100
0010
0011
0000
0001
1000
,
2100
0000
0010
0000
3001
0000
0100
0010
,
1010
0000
0000
0000
1000
0000
0000
0000
0001
0000
0000
0100
0000
0000
0010
0000
,
1000
0000
0000
0001
0000
0000
0010
0000
0001
0000
0000
0100
0000
0000
0010
0000
,
1000
0000
0000
0100
0000
0000
0010
0000
0001
0000
0000
0001
0000
0000
0001
0000
,
1000
0000
0000
0100
0000
0000
0010
0000
0001
0000
0000
0100
0000
0000
0010
0000
,
1000
0000
0000
0100
0000
0000
1000
0000
0010
0000
0000
0100
0000
0000
0010
0000
,
0110
0000
0101
0000
1001
0000
1000
0100
,
0110
0000
0010
0001
1001
0000
1000
0100
,
1100
0110
0011
1001
,
2200
0300
0002
3003
,
1001
0100
0010
1000
,
0100
0010
0011
0100
,
1001
0100
0010
1000
,
0100
0000
0000
0010
0000
0000
0001
0000
0001
0000
0001
0000
,
1100
0110
0011
0100
,
1010
0000
0000
0100
0000
0001
1000
0000
0000
0001
0000
1000
,
0002
0000
0000
0100
0000
0000
0013
0000
0000
1000
0000
0001
,
0100
0000
0000
0101
0000
0000
0101
0000
0000
0001
1000
0001
,
1000
0000
1000
0100
0000
0100
0010
0000
0010
0001
0000
0001
,
0100
0000
0100
0010
0000
0010
1000
0000
1000
0001
0000
0001
,
0100
0000
0100
0010
0000
0010
0100
0000
0100
0001
0000
0001
,
1000
0000
1000
0100
0000
0100
0010
0000
0001
0000
1000
0000
,
0010
0000
0010
0100
0000
0100
0001
0000
0001
1000
0000
1000
,
0100
0000
0100
1000
0000
1000
0010
0000
0010
0100
0000
0100
,
0001
0000
0001
1000
0000
1000
0100
0000
0100
0010
0000
0010
,
0001
0000
0001
1000
0000
1000
0001
0000
1000
0000
0001
1000
,
0001
0000
0001
0100
0000
0100
0010
0000
0010
1000
0000
1000
,
0100
0000
0100
0001
0000
0001
0100
0000
0100
1000
0000
1000
,
0001
0000
0001
0100
0000
0100
0010
0000
0010
1000
0000
1000
,
0010
0000
0010
0001
0000
0001
0010
0000
1000
0000
0001
0100
,
0001
0000
0001
1000
0100
1000
0100
0000
0100
0010
0000
0010
,
0001
0000
0001
0100
0010
0100
0010
0000
0010
1000
0000
1000
,
0001
1000
0001
1000
0001
1000
0001
1000
0001
1000
0001
1000
,
0001
1000
0001
1000
0001
1000
0001
1000
0001
1000
0001
1000
,
0001
0000
0110
0000
,
1001
0000
1100
0000
0101
0000
2002
0000
0000
3003
0000
0000
,
1000
0000
0000
0010
0000
0000
0001
0000
0010
0000
0000
1000
0000
0000
0100
0000
,
0010
0000
0000
0001
0000
0000
0010
0000
1000
0000
0000
0010
0000
0000
0001
0000
,
0100
0000
0000
0010
0000
0000
1000
0000
0100
0000
0000
0010
0000
0000
0001
0000
,
0100
0000
0000
1000
0000
0000
0100
0000
0001
0000
0000
0010
0000
0000
0100
0000
,
1100
0000
0000
0000
1001
0000
0000
0000
0101
0000
0000
0100
0000
0000
0010
0000
,
1010
0000
0000
1000
0000
0000
0001
0000
0101
0000
0000
0100
0000
0000
0010
0000
,
1010
0000
0000
1000
0000
0000
0100
0000
0010
0000
0000
0100
0000
0000
1000
0000
,
0001
0000
0000
0100
0000
0000
0010
0000
1000
0000
0000
0001
0000
0000
0001
0000
,
1001
0000
0000
1000
0000
0000
0100
0000
0001
0000
0000
1000
0000
0000
0010
0000
,
0001
0000
0000
1000
0000
0000
0010
0000
0100
0000
0000
0001
0000
0000
1000
0000
,
0100
0000
0000
1000
0000
0000
0010
0000
0001
0000
0000
1000
0000
0000
0100
0000
,
0010
0000
0000
1000
0000
0000
0001
0000
0100
0000
0000
0010
0000
0000
1000
0000
,
1100
0000
0000
0000
0110
0000
0000
0000
0011
0000
0000
0001
0000
0000
1000
0000
,
1100
0000
0000
0100
0000
0000
0010
0000
0011
0000
0000
0001
0000
0000
0100
0000
,
0110
0000
0000
0010
0000
0000
1000
0000
0100
0000
0000
0010
0000
0000
0001
0000
,
0220
0300
1000
1030
,
2002
0000
0000
0000
,
3003
0000
0000
0000
;

//---------------dance-single - ----------------
#NOTES:
     dance-single:
     :
     Medium:
     6:
     0.511,0.560,0.651,0.239,0.011:
0000
0000
0000
0000
,
0000
0000
0000
0000
,
0000
0000
0000
0000
,
0000
0000
0000
0000
,
0000
0000
0000
0000
,
0000
0000
0000
0000
,
0000
0000
0000
0000
,
2002
0000
3003
0000
,
1000
0001
0100
0010
,
1000
0100
0010
0001
1000
0001
1000
0000
,
0010
0100
0001
1000
,
0001
0100
0010
0100
0001
0010
0100
0000
,
1000
0100
0010
0001
,
0100
0010
1000
0001
0100
0001
1000
0000
,
0001
0010
0100
1000
,
0001
0100
0001
0100
0001
1000
0100
0000
,
0010
0001
0100
0010
,
1000
0100
0010
0001
0010
0100
1000
0000
,
0001
0100
0010
1000
,
0001
0100
0010
1000
0010
0100
0001
0000
,
1001
0100
0010
1000
,
1100
0100
0010
0001
0100
0010
1000
0000
,
0101
1001
1100
0110
,
0022
0000
0000
0033
,
1001
0001
0100
0010
,
0010
1000
0100
0010
,
0010
0001
0100
0010
,
0010
1000
0100
1000
,
1100
0001
0100
0010
,
1010
0100
0001
1000
,
0101
0000
0001
0000
1000
0000
0000
0000
1001
0000
0000
1000
1000
0000
0000
0000
,
0101
0001
1000
1000
2002
0000
3003
0000
,
1000
0000
0100
0010
0001
0000
1000
0010
,
0100
0000
0001
1000
0100
0000
0010
0000
,
0001
0000
1000
0100
1000
0000
0010
0100
,
0001
0000
1000
1000
0001
0000
0100
0000
,
0010
0000
1000
0010
0010
0000
0100
0001
,
0001
0000
1000
0100
0010
0000
0001
0100
,
0001
0000
1100
0000
0011
0000
1100
0100
,
0010
0000
0001
0000
1000
0100
0010
0001
,
1000
0000
0001
0100
0001
0000
1000
0100
,
0010
0000
0001
0100
0010
0000
1000
0000
,
0010
0000
0100
0001
1000
0000
0100
0010
,
0001
0000
0100
0010
1000
0000
0001
0000
,
1100
0000
0011
0000
1001
0000
1000
0001
,
0100
0000
0010
1000
0001
0000
0100
0010
,
0200
0000
0001
0000
0301
0000
1000
0001
,
2002
0000
0000
3003
,
2000
3000
0200
0300
,
0020
0030
0001
0100
,
0020
0030
2000
3000
,
0002
0003
0100
0010
,
2000
3000
0002
0003
,
0200
0300
0010
1000
,
0002
0003
0020
0030
,
1100
1100
1100
1001
,
0101
0101
0101
0110
,
1010
1010
1010
1001
,
1100
1100
1100
1001
,
0101
0101
0101
0110
,
1010
1010
1010
0101
,
0110
0110
0110
1010
,
1100
1100
1100
0110
,
0011
0011
1001
1100
,
1001
0101
0110
1010
,
1001
0101
1001
1100
,
0110
0011
1001
1100
,
1001
0101
0110
0110
,
1001
1100
1001
0101
,
0110
1010
1001
1100
,
2002
0000
0000
3000
,
0200
0000
0000
0003
,
0020
0300
2000
3030
,
1001
0000
1001
0000
1001
0000
2002
0000
0000
3003
0000
0000
,
1000
0000
0100
0010
0001
0000
0100
0010
,
1000
0000
0001
0100
0001
0000
1000
0000
,
0100
0000
0010
0001
0100
0000
0010
1000
,
0001
0000
0100
0001
1000
0000
0100
0000
,
1000
0000
0010
0100
0001
0000
1000
0100
,
0010
0000
0001
1000
0100
0000
0010
0001
,
0020
0100
0130
1000
,
0101
0000
0100
0000
0010
1000
0001
1000
,
0001
0000
0100
0010
1000
0000
0001
0010
,
0100
0000
1000
0100
1000
0000
0001
0000
,
0100
0000
0010
1000
0010
0000
0100
0001
,
0100
0000
0001
1000
0001
0000
0010
0000
,
0100
0000
1000
0010
0100
0000
0001
0100
,
0001
0000
1000
0100
0010
0000
0001
1000
,
0002
0100
0103
0010
,
0220
0000
0000
0330
,
2002
0000
0000
0000
,
3003
0000
0000
0000
;

//---------------dance-single - ----------------
#NOTES:
     dance-single:
     :
     Easy:
     4:
     0.365,0.527,0.384,0.195,0.000:
0000
0000
0000
0000
,
0000
0000
0000
0000
,
0000
0000
0000
0000
,
0000
0000
0000
0000
,
0000
0000
0000
0000
,
0000
0000
0000
0000
,
0000
0000
0000
0000
,
0000
0000
0000
0000
,
1001
0000
1000
0000
,
0010
0100
0001
1000
,
0100
0000
0010
0000
,
0001
0100
0001
1000
,
0100
0000
1000
0000
,
0010
0100
0001
1000
,
0001
0000
0100
0000
,
0010
1000
0100
0010
,
0001
0000
0010
0000
,
0100
1000
0001
0100
,
0001
0000
1000
0000
,
0010
0100
0010
0100
,
0101
0000
1000
0000
,
0110
0010
0001
0100
,
0110
0000
1010
0000
,
2002
0000
0000
3003
,
1002
0003
0200
0300
,
0020
0030
2000
3000
,
0200
0300
0020
0030
,
0002
0003
1000
0001
,
0100
0100
0010
0010
,
1001
1000
0001
0001
,
0110
1100
1001
0101
,
0110
1010
2002
3003
,
1001
1000
0010
0100
,
0001
0100
0010
1000
,
0100
0010
0001
0010
,
0100
1000
0010
0100
,
0001
0001
1000
0010
,
0100
0001
1000
0001
,
1100
1000
0001
0100
,
0010
1000
0010
0010
,
0110
0001
1000
0100
,
0010
0001
0010
0100
,
1000
0010
0001
0100
,
1000
0010
0100
0001
,
1000
1000
0100
0010
,
0011
0100
0010
1000
,
0101
1000
0010
0100
,
2002
3000
0103
0000
,
1001
0000
0100
0000
,
0010
0000
1000
0000
,
0100
0000
0010
0000
,
0001
0000
0100
0010
,
1000
0000
0001
0000
,
0100
0000
0010
0000
,
1000
0000
0100
0000
,
0010
0010
0010
0001
,
1001
1000
0001
1000
,
0010
0100
0010
0100
,
0001
0100
0001
0100
,
0001
1000
0001
1000
,
0100
0010
0001
1000
,
0010
0100
0010
0100
,
0001
1000
0001
1000
,
0100
0010
0001
1000
,
1100
0001
0100
0010
,
1000
0010
0100
0001
,
1000
0100
1000
0100
,
0010
0001
0010
0001
,
2000
3100
0002
0103
,
2000
3010
0002
0013
,
2200
0000
3300
0000
,
2002
0000
3003
0000
,
0101
0000
1100
0000
,
2002
0000
3003
0000
,
1001
0001
0100
0010
,
1000
0100
0010
0001
,
1100
0010
0100
0001
,
1000
0100
1000
0001
,
0101
1100
1001
0100
,
0011
0100
1001
0010
,
1100
1001
0101
0010
,
1100
0010
0101
1001
,
1100
0010
0001
0100
,
0010
1000
1100
0001
,
0101
1000
0010
0100
,
0010
0100
0001
1000
,
1100
0110
0011
1000
,
0101
0100
1010
0001
,
1100
0001
0100
0010
,
0220
0000
0330
0000
,
2002
0000
0000
0000
,
3003
0000
0000
0000
;

//---------------dance-single - ----------------
#NOTES:
     dance-single:
     :
     Beginner:
     2:
     0.187,0.326,0.152,0.000,0.000:
0000
0000
0000
0000
,
0000
0000
0000
0000
,
0000
0000
0000
0000
,
0000
0000
0000
0000
,
0000
0000
0000
0000
,
0000
0000
0000
0000
,
0000
0000
0000
0000
,
0000
0000
0000
0000
,
1000
0000
1000
0000
,
0100
0100
0100
0000
,
0010
0000
0010
0000
,
0001
0001
0001
0000
,
0100
0000
0100
0000
,
0010
0010
0010
0000
,
1000
0000
0001
0000
,
0100
0100
0100
0000
,
0010
0000
1000
0000
,
0100
0100
0100
0000
,
0010
0000
0001
0000
,
1000
1000
1000
0000
,
0010
0000
0100
0000
,
0001
0001
0001
0000
,
0100
0000
0010
0000
,
1001
0000
0000
0000
,
1001
0000
0000
0000
,
1000
0000
0000
0000
,
0001
0000
0000
0000
,
0100
0000
0000
0000
,
1001
0000
0001
0000
,
0110
0000
0100
0000
,
0110
0000
1001
0000
,
0110
0110
0110
0000
,
1001
0000
1000
0000
,
0100
0000
0100
0000
,
0010
0000
0010
0000
,
0001
0000
0001
0000
,
0100
0000
0010
0000
,
0100
0000
0001
0000
,
1000
0000
1000
0000
,
0001
0000
0100
0100
,
0100
0000
0010
0000
,
0100
0000
0001
0000
,
1000
0000
1000
0000
,
0100
0000
0010
0000
,
0001
0000
0001
0000
,
0100
0000
0010
0000
,
1000
0000
0001
0000
,
0110
0000
0000
0000
,
1001
0000
0000
0000
,
1000
0000
0000
0000
,
0100
0000
0000
0000
,
0010
0000
0000
0000
,
0001
0000
0000
0000
,
0100
0000
0000
0000
,
0010
0000
0000
0000
,
1000
0000
0000
0000
,
1001
0000
1000
0000
,
0100
0000
0100
0000
,
0010
0000
0010
0000
,
0001
0000
0001
0000
,
0100
0000
0100
0000
,
0010
0000
0010
0000
,
1000
0000
1000
0000
,
0001
0000
0001
0001
,
0001
0000
0010
0000
,
0010
0000
0100
0000
,
0100
0000
1000
0000
,
1000
0000
0001
0000
,
0001
0000
0100
0000
,
0100
0000
0010
0000
,
0110
0000
0000
0000
,
1001
0000
0000
0000
,
1001
0000
1001
0000
,
1001
0000
0000
0000
,
1001
0000
1000
0000
,
0100
0000
0100
0000
,
0010
0000
0001
0000
,
0100
0000
0010
0000
,
1000
1000
1000
0000
,
0100
0000
1000
0000
,
0010
0000
0100
0000
,
0001
0000
0010
0010
,
0010
0000
0100
0000
,
1000
0000
0010
0000
,
0100
0000
0100
0000
,
0001
0000
1000
0000
,
0001
0001
0001
0000
,
0100
0000
0010
0000
,
1000
0000
0100
0000
,
0110
0000
0000
0000
,
1001
0000
0000
0000
;
