#TITLE:Chaining Intention;
#SUBTITLE:;
#ARTIST:Treow feat. Hatsune Miku;
#TITLETRANSLIT:;
#SUBTITLETRANSLIT:;
#ARTISTTRANSLIT:;
#CREDIT:;
#BANNER:Chaining Intention2.png;
#BACKGROUND:Chaining Intention - BG.png;
#LYRICSPATH:;
#CDTITLE:cdtitlegpop.png;
#MUSIC:Chaining Intention.ogg;
#OFFSET:1.590;
#SAMPLESTART:68.680;
#SAMPLELENGTH:12.000;
#SELECTABLE:YES;
#BPMS:0.000=140.000,132.000=70.000,148.000=140.000;
#STOPS:;
#BGCHANGES:4.000=Chaining Intention.avi=1.000=1=0=1,
213.500=Chaining Intention - BG.png=1.000=1=0=1,
99999=-nosongbg-=1.000=0=0=0 // don't automatically add -songbackground-
;

//---------------dance-single - ----------------
#NOTES:
     dance-single:
     :
     Challenge:
     10:
     0.652,0.816,0.151,0.493,0.730:
0000
0000
0000
0000
,
0000
0000
0000
0000
,
0000
0000
0000
0000
,
0000
0000
0000
0000
,
0000
0000
0000
0000
,
0000
0000
0000
0000
,
0000
0000
0000
0000
,
0000
0000
0000
0000
,
0000
0000
0000
0000
,
1000
0000
0001
0000
0100
0010
0000
0000
1000
0100
1000
0010
0000
0000
0100
0000
,
0002
0023
0230
2300
,
3020
0000
0000
0000
0100
0000
0130
0001
2000
0000
0000
0000
3002
0000
0000
0000
,
0023
0230
2300
3200
,
0302
0000
2003
0000
0001
3001
0100
0010
,
0002
0203
2300
3002
,
2003
0000
0000
0000
0100
0000
3100
0001
1000
0000
0000
0000
2002
0000
0000
0000
,
0000
0000
0000
3003
0000
0000
1000
0001
1000
0001
1000
0001
1000
0000
0100
0000
0010
0000
0001
0000
0000
MMMM
0000
0000
,
1001
0000
1000
0100
0010
0001
0010
0001
0100
0010
1000
0001
0000
1000
0100
0000
,
0010
0000
0000
0001
0000
0000
1000
0000
0000
0001
0000
0000
1000
0000
0001
0000
,
0001
0100
0001
0010
0100
1000
0100
1000
0010
0100
0001
1000
0000
0001
0100
0000
,
0001
0000
1000
0100
0000
0010
0001
0000
1000
0100
0000
1000
0010
0000
0100
0000
,
0100
0010
0100
0001
0100
0010
1000
0001
0010
0100
1000
0001
0000
1000
0100
0000
,
1000
0000
0100
1000
0000
0002
1000
0000
1003
0100
1000
0000
0001
0000
0100
0000
,
0100
0010
0100
0001
0010
0100
0010
0001
0100
0010
1000
0001
0000
1000
0100
0000
,
1000
0000
0100
0000
0000
0000
0100
0000
0010
0000
0000
0000
0010
0000
0001
0000
0000
0000
0001
0000
1000
0000
0001
1000
0001
0000
1000
0000
0001
0000
0100
0000
,
0010
0010
0000
0000
1000
0000
0001
0100
0001
0000
0100
0000
0010
0000
1000
0100
,
1000
1000
0000
0000
0001
0010
0100
0000
1000
0000
0010
0100
0000
0010
0000
0000
,
0100
0100
0000
0000
0001
0000
1000
0100
0010
0000
0100
1000
0010
0100
0001
1000
,
1001
0000
0001
0101
0000
0100
0110
0000
0020
0000
0000
1030
0001
0000
0100
0000
,
0001
0001
0000
0000
0010
0000
0100
1000
0100
1000
0000
0001
0100
0000
0010
1000
,
0001
0001
0000
0000
0001
0010
0100
0010
0001
0000
0100
0010
0000
2000
0000
0000
,
3001
0001
0000
0000
0100
0010
1000
0010
0100
0000
0001
0010
0100
1000
0100
1000
,
0001
0100
0000
0100
0010
0000
0010
1000
0000
1000
0001
0000
1000
0001
1000
0000
,
2001
0000
0000
0000
0000
0000
3001
0000
0100
0000
0000
0000
0010
0000
1000
0000
0001
0000
0000
0001
0000
0000
0002
0000
1000
0000
0000
0000
0003
0000
0000
0000
,
1001
0000
0000
0000
1000
0000
0001
0000
0100
0000
0000
0000
0010
0000
1000
0000
0010
0000
0000
0010
0000
0000
0020
0000
0000
0000
1030
0001
1000
0001
1000
0001
,
1000
0000
0000
0000
0000
0000
0001
0000
0100
0000
0000
0000
0010
0000
1000
0000
0010
0000
0000
0010
0000
0000
0010
0000
2000
0000
0000
0000
3200
0000
0000
0000
,
2300
0000
0000
0000
3001
0100
0001
0100
0001
0000
0000
0000
0200
0000
0000
0000
0320
0000
0000
1030
0002
0000
0010
0000
0023
0000
0000
0000
0130
0000
0000
0000
,
1001
1000
0000
0000
1001
0001
0000
0000
1000
0100
1000
0010
0000
0000
0100
0000
,
0001
0000
0000
1000
0000
0000
0200
0000
0000
0000
0310
0001
0010
0001
0010
0100
,
1000
0000
0100
0000
1000
0000
0100
0000
0010
0000
0000
0010
0000
0000
0002
0000
,
1000
0000
0000
0000
1003
0000
0000
0000
0001
0000
1000
0100
1000
0010
0100
0001
,
2000
0000
0000
0000
0010
0000
0000
0000
3010
0000
0000
0100
0000
0000
0001
0000
,
2000
0010
0100
3001
,
1001
0000
0000
0000
1000
0000
0001
0100
0001
0000
0000
0000
1000
0000
0010
0100
,
0002
0203
2300
3020
,
0031
0000
0000
0000
1001
0000
0000
0000
1000
0100
1000
0010
0000
0000
0100
0000
,
0001
0000
0000
1000
0000
0000
0200
0000
0000
0000
0310
0001
0010
0100
1000
0100
,
1000
0000
0100
0000
1000
0000
0100
0000
0010
0000
0000
0001
0000
0000
2000
0000
,
0100
0000
0000
0000
0010
0000
0000
0000
3001
0000
0100
0010
0100
0010
0100
0001
,
2000
0000
0000
0000
0010
0000
0000
0000
3010
0000
0000
0100
0000
0000
0001
0000
,
2000
3020
0032
0103
,
1100
0000
0000
0000
1000
0000
0001
0100
0001
0000
0000
0000
0100
0000
0010
1000
,
0M10
0000
0000
011M
0000
0000
M101
0000
0000
10M1
0000
0000
1000
0001
1000
0002
,
2000
0000
0000
0000
,
3003
0000
0000
0000
;

//---------------dance-single - ----------------
#NOTES:
     dance-single:
     :
     Hard:
     8:
     0.416,0.489,0.222,0.121,0.201: // measure 1
0000
0000
0000
0000
,  // measure 2
0000
0000
0000
0000
,  // measure 3
0000
0000
0000
0000
,  // measure 4
0000
0000
0000
0000
,  // measure 5
0000
0000
0000
0000
,  // measure 6
0000
0000
0000
0000
,  // measure 7
0000
0000
0000
0000
,  // measure 8
0000
0000
0000
0000
,  // measure 9
0000
0000
0000
0000
,  // measure 10
1000
0000
0100
0000
0010
0000
0001
0100
,  // measure 11
0100
0010
1000
0010
,  // measure 12
0100
0000
0001
1000
0100
0000
0001
0000
,  // measure 13
0100
0010
1000
0001
,  // measure 14
0010
0000
0100
0000
1000
0000
0001
0100
,  // measure 15
0001
0100
0010
1000
,  // measure 16
0100
0000
0010
0001
0001
0000
2002
0000
,  // measure 17
0000
3003
1000
1001
,  // measure 18
1000
0000
0100
0000
0010
0000
0001
0000
0100
0000
0000
0100
0000
0000
0001
0000
,  // measure 19
0100
0000
0000
0100
0000
0000
0100
0000
0000
0000
0001
0000
1000
0000
0001
0000
,  // measure 20
0001
0000
0100
0000
0010
0000
0100
0000
0001
0000
0000
0001
0000
0000
1000
0000
,  // measure 21
0100
0000
0000
0010
0000
0000
0001
0000
0100
0000
0000
0000
0010
0000
1000
0000
,  // measure 22
1000
0000
0001
0000
0100
0000
0010
0000
1000
0000
0000
1000
0000
0000
0001
0000
,  // measure 23
0010
0000
0000
0010
0000
0000
0010
0000
0000
0000
0100
0000
1000
0000
0001
0000
,  // measure 24
0001
0000
0100
0000
0010
0000
1000
0000
0010
0000
0000
0010
0000
0000
0100
0000
,  // measure 25
0001
0000
0000
0010
0000
0000
0100
0000
0000
1000
0000
0000
0001
0000
0100
0000
,  // measure 26
0001
1000
0000
0000
0010
0000
0100
0000
0001
0000
0100
0000
0010
0000
1000
0000
,  // measure 27
0001
0100
0000
0000
0010
0000
1000
0000
0010
0000
0100
0000
0001
0000
1000
0000
,  // measure 28
0001
0010
0000
0000
0100
0000
1000
0000
0100
0000
1000
0000
0010
0000
0100
0000
,  // measure 29
0001
0000
0000
0001
0000
0000
0001
0000
1000
0000
0000
0000
0001
0000
0100
0000
,  // measure 30
0001
1000
0000
0000
0010
0000
0100
0000
0001
0000
0010
0000
0100
0000
1000
0000
,  // measure 31
0001
0100
0000
0000
0010
0000
1000
0000
0010
0000
0100
0000
0001
0000
0010
0000
,  // measure 32
0100
1000
0000
0000
0001
0000
0100
0000
0010
0000
1000
0000
0001
0000
0010
0000
,  // measure 33
0100
0000
0000
0100
0000
0000
0100
0000
0000
0100
0000
0000
1000
0000
0001
0000
,  // measure 34
1000
0000
0000
0001
0100
0000
0100
0001
0000
0100
0000
0020
0000
0000
0000
0000
,  // measure 35
1030
0000
0000
1000
0001
0000
0001
0010
0000
0000
0100
1000
0000
0001
0000
0000
,  // measure 36
1000
0000
0000
0001
0100
0000
0001
0100
0000
0001
0000
0100
0010
0000
0100
0000
,  // measure 37
0020
0000
1030
0001
0100
0010
1000
0001
,  // measure 38
1001
0000
0000
0000
1001
0000
0000
0000
0001
0000
0000
1000
0000
0000
0001
0000
,  // measure 39
0100
0000
0000
0010
0000
0000
2000
0000
0000
0000
0000
0000
3001
0000
0100
0000
,  // measure 40
0010
0000
0100
0000
0010
0000
0100
0000
0001
0000
0000
0001
0000
0000
0002
0000
,  // measure 41
1000
1000
1003
0010
,  // measure 42
2000
0000
0000
0000
0000
0000
0000
0000
3010
0000
0000
0100
0000
0000
0010
0000
,  // measure 43
0100
0001
0010
0100
,  // measure 44
1100
0000
0000
0001
0101
0000
0000
1000
,  // measure 45
1001
1100
0101
1100
,  // measure 46
1001
0000
0000
0000
1001
0000
0000
0000
0001
0000
0000
0100
0000
0000
0010
0000
,  // measure 47
1000
0000
0000
1000
0000
0000
2000
0000
0000
0000
0000
0000
3001
0000
0100
0000
,  // measure 48
0010
0000
0100
0000
0001
0000
0010
0000
0100
0000
0000
1000
0000
0000
0200
0000
,  // measure 49
1000
1000
1300
0010
,  // measure 50
0200
0000
0000
0000
0001
0000
0000
0000
0301
0000
0000
0010
0000
0000
0100
0000
,  // measure 51
1000
1100
0101
0110
,  // measure 52
1001
0000
0000
1000
1001
0000
0000
0001
,  // measure 53
1001
0000
0000
0101
0000
0000
1100
0000
0000
1001
0000
0000
1000
0000
0001
0000
,  // measure 54
2002
0000
0000
0000
,  // measure 55
3003
0000
0000
0000
;

//---------------dance-single - ----------------
#NOTES:
     dance-single:
     :
     Medium:
     5:
     0.318,0.408,0.131,0.060,0.050:
0000
0000
0000
0000
,
0000
0000
0000
0000
,
0000
0000
0000
0000
,
0000
0000
0000
0000
,
0000
0000
0000
0000
,
0000
0000
0000
0000
,
0000
0000
0000
0000
,
0000
0000
0000
0000
,
0000
0000
0000
0000
,
1000
0001
0100
0010
,
1000
0010
0100
0001
,
0010
0100
1000
0100
,
1000
0010
0100
0001
,
0010
0100
0010
0001
,
0100
0010
1000
0010
,
0100
0001
0010
2002
,
0000
0000
3003
1001
,
1001
0000
0001
0100
0010
0000
1000
0000
,
0001
0000
0000
0001
0000
0000
0001
0000
0000
0000
0000
0000
1000
0000
0000
0000
,
0001
0000
0010
0100
1000
0000
0010
0000
,
0100
0000
0000
0100
0000
0000
0100
0000
0000
0000
0000
0000
0001
0000
1000
0000
,
0001
0000
0100
0010
1000
0000
0010
0000
,
1000
0000
0000
1000
0000
0000
1000
0000
0000
0000
0000
0000
0001
0000
0000
0000
,
0010
0000
0100
0010
0001
0000
1000
0000
,
0001
0000
0000
0001
0000
0000
0001
0000
0000
0001
0000
0000
0001
0000
0000
0000
,
1000
0000
0010
0000
0100
0001
0100
0010
,
1000
0000
0001
0000
0010
0100
1000
0010
,
0100
0000
0001
0000
0100
0010
1000
0010
,
0100
0000
0000
0100
0000
0000
0100
0000
0000
0000
0000
0000
0001
0000
0100
0000
,
0010
0000
1000
0000
0010
0100
0001
0010
,
0100
0000
1000
0000
0100
0010
0100
1000
,
0001
0000
0100
0000
0010
1000
0010
0100
,
0001
0000
0000
0001
0000
0000
0001
0000
0000
0001
0000
0000
0001
0000
0000
0000
,
1001
0000
1000
0000
0010
0000
0100
0001
,
1000
0000
0001
0000
0010
0000
0100
1000
,
0010
0000
0100
0000
0001
0000
0010
0010
,
0100
0000
1000
0001
0100
0010
0100
0010
,
1001
0000
1001
0000
1000
0100
0010
0000
,
0001
0000
0000
0001
0000
0000
1000
0000
,
0010
0100
0010
0100
0010
0000
0000
0010
,
0000
1000
0001
0010
,
0200
0000
1300
0010
,
0100
0100
0001
0001
,
1001
0000
0000
1000
0001
0000
0000
0001
,
0100
0010
1100
0101
,
1001
0000
1001
0000
1000
0010
0100
0000
,
0001
0000
0000
0001
0000
0000
0100
0000
,
0010
1000
0010
1000
0010
0000
0000
0010
,
0000
0100
0001
0010
,
0200
0000
0310
0001
,
0100
0100
0010
0010
,
1001
0000
0000
0001
1000
0000
0000
1000
,
0001
0000
0000
0001
0000
0000
1000
0000
0000
1000
0000
0000
0001
0000
1000
0000
,
2002
0000
0000
0000
,
3003
0000
0000
0000
;

//---------------dance-single - ----------------
#NOTES:
     dance-single:
     :
     Easy:
     3:
     0.216,0.272,0.040,0.050,0.000:
0000
0000
0000
0000
,
0000
0000
0000
0000
,
0000
0000
0000
0000
,
0000
0000
0000
0000
,
0000
0000
0000
0000
,
0000
0000
0000
0000
,
0000
0000
0000
0000
,
0000
0000
0000
0000
,
0000
0000
0000
0000
,
1000
1000
1000
1000
,
0001
0001
0001
0001
,
0100
0100
0100
0100
,
0010
0010
0010
0010
,
1000
0100
1000
0100
,
0010
0001
0010
0001
,
1000
0010
1000
2002
,
0000
0000
3003
0000
,
1000
0001
0100
0100
,
0010
0000
0010
0000
,
1000
0100
1000
0010
,
0100
0001
1000
0001
,
0001
0010
0100
1000
,
0010
0000
0100
0000
,
0001
0010
0100
0010
,
0001
0000
0000
1000
,
0001
0000
0000
1000
,
0010
0000
0000
0100
,
0010
0000
0000
1000
,
0001
0001
1000
1000
,
0010
0000
0000
0100
,
0010
0000
0000
1000
,
0001
0000
0000
1000
,
0100
0100
0010
0010
,
1001
0100
0010
1000
,
0001
0010
0100
1000
,
0010
0100
0001
0010
,
0100
0000
1000
0001
,
1001
1000
0001
0000
,
0100
0010
1000
0000
,
0001
0001
1000
1000
,
0010
0010
0100
0001
,
1000
0000
0001
0100
,
0010
0010
0100
0100
,
0001
0000
1000
0000
,
0001
0010
0100
1000
,
0001
0001
0100
0100
,
0010
0000
0010
0000
,
1000
0100
1000
0010
,
0200
0000
0300
0000
,
0001
0000
1000
0100
,
0010
0010
0001
0001
,
0100
0000
0010
0000
,
1000
1000
0001
0001
,
2002
0000
0000
0000
,
3003
0000
0000
0000
;

//---------------dance-single - ----------------
#NOTES:
     dance-single:
     :
     Beginner:
     1:
     0.112,0.187,0.121,0.000,0.000:
0000
0000
0000
0000
,
0000
0000
0000
0000
,
0000
0000
0000
0000
,
0000
0000
0000
0000
,
0000
0000
0000
0000
,
0000
0000
0000
0000
,
0000
0000
0000
0000
,
0000
0000
0000
0000
,
0000
0000
0000
0000
,
1000
0000
1000
0000
,
1000
0000
1000
0000
,
0001
0000
0001
0000
,
0001
0000
0001
0000
,
0100
0000
0100
0000
,
0100
0000
0100
0000
,
0010
0000
0010
0010
,
0000
0000
0000
0000
,
1001
0000
0000
0000
,
1000
0000
0000
0000
,
0001
0000
0000
0000
,
0100
0000
0000
0000
,
0010
0000
0000
0000
,
1000
0000
0000
0000
,
0001
0000
0000
0000
,
0010
0000
0000
0000
,
0110
0000
0000
0000
,
0110
0000
0000
0000
,
1001
0000
0000
0000
,
1001
0000
0000
0000
,
1001
0000
0000
0000
,
1001
0000
0000
0000
,
0110
0000
0000
0000
,
0110
0000
0000
0000
,
1001
0000
1000
0000
,
0001
0000
0001
0000
,
0100
0000
0010
0000
,
0100
0000
0010
0010
,
0010
0000
0010
0000
,
0100
0000
0000
0000
,
0001
0000
0001
0000
,
1000
0000
0000
0000
,
0001
0000
0000
0000
,
0010
0000
0000
0000
,
0100
0000
0100
0000
,
1000
1000
1000
1000
,
1000
0000
1000
0000
,
0001
0000
0000
0000
,
0010
0000
0010
0000
,
0100
0000
0000
0000
,
0001
0000
0000
0000
,
1000
0000
0000
0000
,
0010
0000
0010
0000
,
0110
0000
0000
0000
,
1001
0000
0000
0000
;
