#TITLE:Butterfly;
#SUBTITLE:;
#ARTIST:Kors K feat. Starbitz;
#TITLETRANSLIT:;
#SUBTITLETRANSLIT:;
#ARTISTTRANSLIT:;
#GENRE:;
#CREDIT:;
#BANNER:Butterfly - bn.png;
#BACKGROUND:Butterfly - bg.png;
#LYRICSPATH:;
#CDTITLE:;
#MUSIC:Butterfly.ogg;
#OFFSET:0.009;
#SAMPLESTART:72.892;
#SAMPLELENGTH:14.221;
#SELECTABLE:YES;
#BPMS:0.000=135.000;
#STOPS:;
#BGCHANGES:;
#KEYSOUNDS:;

//---------------dance-single - Gpop----------------
#NOTES:
     dance-single:
     Gpop:
     Challenge:
     11:
     0.839,0.984,0.629,0.343,0.644:
0000
0000
0000
0000
,
4001
0000
0000
3000
1004
0000
0000
0003
0201
0000
0000
0310
1000
0000
0001
0000
,
1000
0000
0100
0000
0001
0000
0100
0000
2000
0000
0000
3001
0100
0000
0010
0000
,
2010
0000
0000
3000
0001
0000
1000
0000
1200
0000
0000
0310
0001
0000
1000
0000
,
0001
0000
0010
0000
1000
0000
0010
0000
0001
1000
0001
1000
0010
0000
0100
0000
,
0401
0000
0000
0300
0104
0000
0000
0003
2001
0000
0000
3100
0010
0000
0001
0000
,
1000
0000
0010
0000
0001
0000
0010
0000
0200
0000
0000
0301
1000
0000
0100
0000
,
0012
0000
0000
0000
1003
0000
0001
0000
0201
0000
0000
0310
1000
0000
0001
0000
,
1000
0000
0100
0000
0010
0000
0001
0000
0100
0010
0100
0010
1000
0000
0001
0000
,
1001
0000
0000
1000
0001
0000
0100
0000
0010
1000
0010
0000
1010
0000
1000
0000
,
0002
0000
0000
0013
0100
0000
1000
0000
0001
0100
0010
1000
0001
0000
1000
0000
,
0200
0000
0000
0000
0301
M0M0
0001
0000
1000
0010
1000
0000
0010
MM00
0010
0000
,
0001
0000
0100
0000
1000
0000
0100
0000
0010
1000
0100
0010
0001
0000
1000
0000
,
1020
0000
0000
0130
0001
0000
0010
0000
0100
1000
0100
0000
1100
0000
1000
0000
,
0002
0000
0000
0103
0010
0000
1000
0000
0001
0010
0001
0100
0010
0000
1000
0000
,
0020
0000
0000
0000
0031
MM00
0001
0000
1000
0100
1000
0000
0100
M0M0
0100
0000
,
0001
0000
0000
0010
0000
0000
1000
0000
0000
0010
0000
0000
0001
0010
0100
1000
0100
0010
0001
1000
0010
1000
0001
0100
,
0004
0000
0043
0000
2030
0000
3001
0100
,
1000
0010
0001
0010
0200
0000
0301
0000
,
2001
0000
0100
3100
0012
0000
1000
1003
,
0001
0010
1000
0001
0200
0000
1300
0010
,
4000
0000
3400
0000
0302
0000
1003
0010
,
0001
0100
1000
0100
0020
0000
1030
0000
,
1002
0000
0010
0013
2100
0000
0001
3001
,
1000
0010
0001
1000
0200
0000
0301
1000
,
0001
0000
0000
1000
0000
0000
0100
0000
0000
0010
0000
0000
0100
0000
0000
1000
0000
0000
0001
0000
0000
0100
0000
0000
0010
0000
0000
0100
0000
0000
0001
0000
0000
1000
0000
0000
0100
0000
0000
1000
0000
0000
0001
0000
0100
0000
0010
0000
,
1000
0000
0000
0100
0000
0000
0010
0000
0000
0100
0000
0000
1000
0000
0000
0001
0000
0000
0100
0000
0000
0001
0000
0000
0010
0000
0000
0100
0000
0000
1000
0000
0000
0010
0000
0000
0100
0000
0000
0001
0000
0000
1000
0000
0100
0000
0010
0000
,
0001
0000
0000
1000
0000
0000
0001
0000
0000
0100
0000
0000
0001
0000
0000
1000
0000
0000
0100
0000
0000
0010
0000
0000
0100
0000
0000
1000
0000
0000
0010
0000
0000
0100
0000
0000
0001
0000
0000
0010
0000
0000
0100
0000
0010
0000
0001
0000
,
1000
0000
0000
0100
0000
0000
0010
0000
0000
0001
0000
0000
0010
0000
0000
0100
0000
0000
1000
0000
0000
0001
0000
0000
0100
0000
0000
0010
0000
0000
0100
0000
0000
0010
0000
0000
1000
0000
0000
0001
0000
0000
1000
0000
0100
0000
0010
0000
,
0100
0000
0000
1000
0000
0000
0001
0000
0000
0100
0000
0000
0001
0000
0000
0100
0000
0000
0010
0000
1000
0000
0001
0000
1000
0000
0000
0100
0000
0000
0010
0000
0000
0001
0000
0000
0100
0000
0000
0010
0000
0000
1000
0000
0001
0000
1000
0000
,
0010
0000
0000
0100
0000
0000
0010
0000
0000
1000
0000
0000
0010
0000
0000
0100
0000
0000
0001
0000
0010
0000
0100
0000
1000
0000
0000
0100
0000
0000
0010
0000
0000
0001
0000
0000
1000
0000
0000
0010
0000
0000
1000
0000
0001
0000
0100
0000
,
0010
1000
0010
0100
0010
1000
0001
0010
0100
1000
0010
0100
0001
0010
0001
1000
,
0M10
0000
0000
0000
0000
0000
000M
0000
0000
0100
0000
0000
M010
0000
0000
0000
0000
0000
01M0
0000
0001
0000
1000
0000
0M01
0000
0000
0000
0000
0000
0010
0000
0000
0000
0000
0000
0011
0000
0000
0000
0000
0000
1000
0000
0000
0000
0000
0000
,
1010
0000
0000
0000
1010
0000
0001
0000
0011
0000
0000
0010
0001
0000
1000
0000
,
1010
0000
0001
0000
0101
0000
1000
0000
0100
1000
0100
0010
0001
0000
1000
0000
,
1100
0000
0000
0000
1100
0000
0001
0000
0101
0000
0000
0100
0001
0000
1000
0000
,
1010
0000
0001
0000
0011
0000
1000
0000
0002
0000
0000
0103
0010
0000
1000
0000
,
1001
0000
0000
0000
1001
0000
0010
0000
0110
0000
0000
0100
0010
0000
0100
0000
,
0110
0000
0001
0000
0101
0000
1000
0000
0010
0100
0001
0010
0100
0000
1000
0000
,
1010
0000
0000
0000
1010
0000
0001
0000
0101
0000
0000
0100
0001
0000
0010
0000
,
0110
0000
0100
0000
1000
0000
0001
0000
1000
0001
1000
0001
0100
0000
0010
0000
,
4001
0000
0000
3000
1004
0000
0000
0003
0201
0000
0000
0310
1000
0000
0001
0000
,
1000
0000
0100
0000
0001
0000
1000
0000
0020
0000
0000
0130
1000
0000
0001
0000
,
0201
0000
0000
0000
0310
0000
1000
0000
1002
0000
0000
0013
0100
0000
1000
0000
,
0001
0000
0100
0000
1000
0000
0100
0000
0010
1000
0001
1000
0100
0000
0010
0000
,
0014
0000
0000
0003
4001
0000
0000
3000
1020
0000
0000
0130
0001
0000
1000
0000
,
0001
0000
0010
0000
1000
0000
0001
0000
0200
0000
0000
1300
0001
0000
0100
0000
,
2010
0000
0000
0000
3001
0000
0010
0000
0012
0000
0000
1003
0010
0000
0100
0000
,
0001
0000
1000
0000
0100
0000
0010
0000
0001
1000
0001
1000
0010
0000
0000
0000
,
1010
0000
0000
0000
1010
0000
0100
0000
0011
0000
0000
0001
0010
0000
0100
0000
,
1100
0000
0010
0000
0101
0000
1000
0000
0001
0010
0100
1000
0010
0000
0100
0000
,
1001
0000
0000
0000
1001
0000
0010
0000
0101
0000
0000
0001
0100
0000
0010
0000
,
2001
0000
0100
0000
0001
0000
0010
0000
3002
0000
0000
0103
0010
0000
1000
0000
,
1001
0000
0000
0000
1001
0000
0100
0000
0011
0000
0000
0010
0100
0000
1000
0000
,
0101
0000
0010
0000
1100
0000
0001
0000
1000
0100
1000
0010
0100
0000
0001
0000
,
0011
0000
0000
0000
0011
0000
0100
0000
1001
0000
0000
1000
0001
0000
0010
0000
,
0001
0000
0100
0000
1000
0000
0010
0000
0001
1000
0001
1000
0010
0000
0100
0000
,
2002
0000
0000
0000
,
0000
0000
0000
0000
,
3003
0000
0000
0000
;

//---------------dance-single - Gpop----------------
#NOTES:
     dance-single:
     Gpop:
     Hard:
     8:
     0.618,0.506,0.324,0.753,0.029:
0000
0000
0000
0000
,
1001
1000
0100
0010
2000
0000
3010
0001
,
0100
0010
0001
0010
2000
0000
3001
0010
,
0210
0000
1300
0001
0201
0000
0310
1000
,
0001
0010
1000
0010
0002
0000
1003
0010
,
0110
0100
0001
0010
2000
0000
3010
0001
,
1000
0100
0001
0100
0020
0000
0031
1000
,
1020
0000
0130
0001
0021
0000
0130
1000
,
0001
0100
1000
0100
0002
0000
1003
0000
,
1001
0000
0000
0001
0010
0000
0100
0000
2000
0000
0000
0000
3010
0000
0000
0000
,
0210
0000
0000
0301
1000
0000
0100
0000
0020
0000
0000
0000
0031
0000
0000
0000
,
1200
0302
2003
3020
,
0031
0100
0010
1000
0002
0000
1003
0000
,
2001
0000
0000
3010
0100
0000
0001
0000
0020
0000
0000
0000
0130
0000
1000
0000
,
1020
0000
0000
0130
0001
0000
0100
0000
0020
0000
0000
0000
1030
0000
0000
0000
,
0021
2030
3002
0203
,
0310
0001
0100
0010
2000
0000
3001
0000
,
1040
0000
0430
0000
0302
0000
0013
0100
,
1000
0010
0001
0010
0200
0000
0301
0000
,
0021
0000
1030
0001
2000
0000
3010
0001
,
0100
0010
1000
0001
0200
0000
0310
0000
,
4010
0000
3004
0000
0023
0000
0130
1000
,
0001
0100
1000
0100
0020
0000
1030
0000
,
1200
0000
0301
1000
0002
0000
0103
1000
,
0010
0100
0001
1000
0002
0000
1003
0000
,
1100
0200
0000
0310
0001
0010
0002
0000
,
0003
2000
0000
3010
0100
0010
0200
0000
,
0300
0002
0000
1003
0100
1000
0200
0000
,
0310
0001
0010
0100
2000
0000
3001
0000
,
1000
0010
1000
0010
0100
0001
0010
0100
,
1000
0100
1000
0001
0100
0001
1000
0100
,
4000
0004
0000
0000
0000
0000
0000
0000
0000
0000
0000
0000
0000
0000
0000
0000
,
3003
0000
0000
1000
0001
0000
0400
0000
0310
0000
1000
0000
1001
0000
0001
0000
,
1100
0000
1100
0100
0020
0000
0031
1000
,
0010
0100
1000
0100
0002
0000
1003
0100
,
0120
0000
0031
1000
1020
0000
0130
0001
,
1000
0100
0001
0100
1000
0000
1100
0100
,
0011
0000
0011
0001
2000
0000
3010
0100
,
0001
0010
1000
0010
0200
0000
1300
0001
,
0201
0000
0310
1000
1200
0000
0310
0001
,
1000
0010
0001
0010
0200
0000
0301
1000
,
1400
0000
0340
0000
0032
0000
1003
0010
,
1000
0100
0001
1000
0020
0000
0031
0100
,
0102
0000
1003
0100
0002
0000
0103
1000
,
0001
0100
1000
0001
0020
0000
1030
0001
,
0041
0000
0430
0000
2300
0000
3010
0100
,
0001
0010
1000
0001
0200
0000
0310
0001
,
2001
0000
3010
0100
2000
0000
3100
0001
,
1000
0100
0001
1000
0020
0000
0130
0000
,
1100
2000
0000
3001
0100
0010
2000
0000
,
3001
0020
0000
0130
0010
0001
2000
0000
,
3010
0200
0000
0310
1000
0001
0020
0000
,
0130
0001
1000
0010
0002
0000
1003
0000
,
1010
0020
0000
0130
0001
1000
0200
0000
,
0310
0002
0000
0013
0100
1000
0002
0000
,
0103
0020
0000
1030
0001
1000
0200
0000
,
0310
1000
0001
0100
2000
0000
3001
0000
,
2002
0000
0000
0000
,
0000
0000
0000
0000
,
3003
0000
0000
0000
;

//---------------dance-single - Gpop----------------
#NOTES:
     dance-single:
     Gpop:
     Medium:
     5:
     0.516,0.450,0.953,0.362,0.000:
0000
0000
0000
0000
,
1001
0000
1100
0000
0101
0000
0100
0010
,
1010
1001
0022
0033
,
1001
0000
1000
0001
1000
0000
0001
0100
,
0010
1010
0022
0033
,
1001
0000
0101
0000
1010
0000
1000
0001
,
0011
0110
2200
3300
,
0110
0000
0010
0001
0010
0000
0100
1000
,
0001
0101
2020
3030
,
1001
0000
1000
0100
0020
0000
0030
0000
,
0011
0000
0001
1000
0020
0000
0030
0000
,
1020
0001
1000
0130
,
0001
1000
0001
1000
0200
0000
0300
0000
,
0011
0000
0001
0010
0200
0000
0300
0000
,
1010
0000
1000
0001
0200
0000
0300
0000
,
0201
1000
0001
0310
,
1000
0001
1000
0001
0020
0000
0030
0000
,
0110
0100
1000
0001
,
0100
0010
1000
0001
,
0100
0001
0010
0100
,
0010
0100
1000
0001
,
1000
0010
1000
0001
,
0100
0001
1000
0100
,
0010
0001
1000
0010
,
0100
0001
1000
0001
,
0000
2000
0000
3010
0100
0000
0010
0000
,
0000
0200
0000
0301
1000
0000
0001
0000
,
0000
0020
0000
0130
1000
0000
0100
0000
,
1100
0101
2002
3003
,
0000
0002
0000
1003
0010
0000
2000
0000
,
3000
0200
0000
0310
0001
0000
0020
0000
,
0030
0002
0000
1003
0100
0000
1000
0000
,
1100
0000
0101
0000
0001
1000
1001
0000
,
0101
0101
1010
1010
,
1100
0110
0012
1003
,
1010
1010
0011
0011
,
1001
1100
0102
0013
,
0011
0011
1100
1100
,
1010
1001
0012
0103
,
0110
0110
1001
1001
,
1100
0101
2001
3010
,
1010
1001
0011
0110
,
0100
1000
0100
1000
0002
0000
0103
0000
,
0110
0110
1001
1001
,
1000
0100
1000
0100
0020
0000
0031
0000
,
0101
0101
1010
1010
,
0001
0010
0100
1000
0020
0000
0130
0000
,
0011
0011
1010
1010
,
1000
0100
0010
0001
0200
0000
0310
0000
,
1010
1001
0011
0110
,
1100
0110
0011
0101
,
1010
1001
1100
1001
,
0001
0010
1000
0010
0002
0000
1003
0000
,
1010
1001
0110
1001
,
1100
0101
0011
1010
,
1001
0101
1010
1001
,
1000
0100
0001
0100
2000
0000
3001
0000
,
2002
0000
0000
0000
,
0000
0000
0000
0000
,
3003
0000
0000
0000
;

//---------------dance-single - Gpop----------------
#NOTES:
     dance-single:
     Gpop:
     Easy:
     3:
     0.278,0.309,0.219,0.124,0.000:
0000
0000
0000
0000
,
2000
0001
3001
1000
,
0010
0100
0001
0000
,
0101
0000
1100
0000
,
1000
0001
1001
0000
,
2000
0100
3100
1000
,
0001
0100
0110
0000
,
1010
0000
0011
0000
,
0100
0010
0110
0000
,
1000
0000
0001
0000
,
0100
0000
0010
0000
,
1000
1000
0001
0001
,
0010
0100
1000
0000
,
0001
0000
1000
0000
,
0010
0000
1000
0000
,
0100
0100
0010
0010
,
0001
1000
0010
0000
,
0100
0100
0100
0000
,
0001
1000
0001
0000
,
0101
0000
1100
0000
,
1000
0100
0010
0000
,
0001
0001
0001
0000
,
1000
0010
0100
0000
,
0110
0000
1001
0000
,
1000
0001
1000
0000
,
0002
0000
0010
0000
,
0100
0000
1003
0000
,
2000
0000
0010
0000
,
0001
0000
3100
0000
,
0020
0000
0100
0000
,
0100
0000
0130
0000
,
0001
0000
1000
0000
,
0010
0100
0010
0000
,
1001
1000
0001
0100
,
0010
0010
1000
0000
,
0001
0010
0100
1000
,
0100
0100
0010
0000
,
0001
0100
0010
0100
,
0001
0001
1000
0000
,
0100
0010
0001
0100
,
0010
0010
1000
0000
,
0001
0001
0001
1000
,
0100
0010
0001
0000
,
0011
0000
1010
0000
,
1001
0110
1001
0000
,
1000
1000
1000
0100
,
0010
0001
0100
0000
,
0110
0000
1001
0000
,
0110
0110
0110
0000
,
2000
0100
0001
0100
,
3002
0100
1000
0100
,
0023
0100
0001
0100
,
0031
1000
0010
0000
,
2000
0001
0010
0001
,
3020
1000
0100
1000
,
0230
0001
0010
0001
,
0310
1000
0001
0000
,
2002
0000
0000
0000
,
0000
0000
0000
0000
,
3003
0000
0000
0000
;

//---------------dance-single - Gpop----------------
#NOTES:
     dance-single:
     Gpop:
     Beginner:
     1:
     0.129,0.109,0.019,0.000,0.000:
0000
0000
0000
0000
,
1000
0000
1000
0000
,
0001
0000
0001
0000
,
0100
0000
0100
0000
,
0010
0000
0010
0000
,
1000
0000
1000
0000
,
0100
0000
0100
0000
,
0010
0000
0010
0000
,
0001
0000
0001
0000
,
1000
0000
0000
0000
,
0001
0000
0000
0000
,
0100
0000
0100
0000
,
0010
0000
0010
0000
,
0100
0000
0000
0000
,
0001
0000
0000
0000
,
1000
0000
1000
0000
,
0100
0000
0100
0000
,
0010
0000
0000
0000
,
0001
0000
0000
0000
,
1000
0000
0000
0000
,
0010
0000
0000
0000
,
0100
0000
0000
0000
,
0001
0000
0000
0000
,
1000
0000
0000
0000
,
0100
0000
0000
0000
,
0010
0000
0000
0000
,
0001
0000
0000
0000
,
0010
0000
0000
0000
,
0100
0000
0000
0000
,
1000
0000
0000
0000
,
0001
0000
0000
0000
,
0100
0000
0000
0000
,
0010
0000
0000
0000
,
1001
0000
1000
0000
,
0100
0000
0100
0000
,
0010
0000
0010
0000
,
0001
0000
0001
0000
,
0100
0000
0100
0000
,
0010
0000
0010
0000
,
1000
0000
1000
0000
,
0001
0000
0001
0000
,
1000
0000
0100
0000
,
0010
0000
0001
0000
,
0100
0000
0010
0000
,
1000
0000
0001
0000
,
0010
0000
0100
0000
,
1000
0000
0010
0000
,
0100
0000
0001
0000
,
1000
0000
0001
0000
,
1000
0000
1000
0000
,
0100
0000
0100
0000
,
0010
0000
0010
0000
,
0001
0000
1000
0000
,
0010
0000
0010
0000
,
0100
0000
0100
0000
,
0001
0000
0001
0000
,
1000
0000
0001
0000
,
1001
0000
0000
0000
;
