#TITLE:Butterfly On Your Right Shoulder;
#SUBTITLE:;
#ARTIST:NoriP feat. Len Kagamine;
#TITLETRANSLIT:;
#SUBTITLETRANSLIT:;
#ARTISTTRANSLIT:;
#CREDIT:;
#BANNER:Butterfly on Your Right Shoulder - bn.png;
#BACKGROUND:Butterfly on Your Right Shoulder - bg.png;
#LYRICSPATH:;
#CDTITLE:cdtitlegpop.png;
#MUSIC:Butterfly On Your Right Shoulder.ogg;
#OFFSET:1.620;
#SAMPLESTART:20.640;
#SAMPLELENGTH:12.000;
#SELECTABLE:YES;
#BPMS:0.000=140.000,202.500=280.000,203.500=140.000,204.500=280.000,207.500=140.000,210.000=280.000,212.000=140.000,213.500=280.000,214.000=140.000,215.500=280.000,216.000=140.000,219.000=280.000,220.000=140.000,221.500=280.000,222.000=140.000,226.500=280.000,227.500=140.000,260.000=280.000,261.500=140.000,274.000=70.000,276.000=140.000,304.000=70.000;
#STOPS:202.500=0.036
,202.667=0.036
,202.833=0.036
,203.000=0.054
,203.250=0.054
,204.500=0.036
,204.667=0.036
,204.833=0.036
,205.000=0.107
,205.500=0.054
,205.750=0.107
,206.250=0.054
,206.500=0.036
,206.667=0.036
,206.833=0.036
,207.000=0.107
,210.000=0.107
,210.500=0.107
,211.000=0.107
,211.500=0.107
,213.500=0.054
,213.750=0.054
,215.500=0.054
,215.750=0.054
,219.000=0.054
,219.250=0.054
,219.500=0.036
,219.667=0.036
,219.833=0.036
,221.500=0.054
,221.750=0.054
,226.500=0.036
,226.667=0.036
,226.833=0.036
,227.000=0.054
,227.250=0.054
,260.000=0.161
,260.750=0.161
,261.500=0.429
;
#BGCHANGES:2.750=Butterfly on Your Right Shoulder.avi=1.000=1=0=1,
99999=-nosongbg-=1.000=0=0=0 // don't automatically add -songbackground-
;

//---------------dance-single - ----------------
#NOTES:
     dance-single:
     :
     Challenge:
     10:
     0.792,0.812,0.243,0.410,0.721:
0000
0000
0000
0000
,
0000
0000
0000
0000
,
0000
0000
0000
0000
,
0000
0000
0000
0000
,
2002
0000
0000
0000
0000
0000
0000
0000
0000
0000
0000
0000
0000
0000
0000
0000
0000
0000
3003
0000
0000
0000
0000
0000
1001
0000
0000
0000
0000
0000
0000
0000
0000
1001
0000
0000
0000
0000
0000
0000
0000
0000
0001
0000
1000
0000
0001
0000
,
1000
0010
0100
0000
0001
0001
0010
0100
,
1000
0000
1000
0000
0010
0000
0000
0100
0010
0000
1000
0000
0100
0000
0000
0000
,
1000
1000
0010
0000
0100
0100
0001
0010
,
0100
0000
0100
0000
1000
0000
0000
0001
0100
0000
0001
0000
1000
0000
0000
0000
,
0010
0010
0100
0000
0001
0001
1000
0100
,
1000
0000
1000
0000
0010
0000
0000
0100
0010
0000
1000
0000
0001
0000
0000
0000
,
1000
0100
0010
0000
0001
0001
0100
0010
,
1000
0000
0001
0000
0100
0000
0010
1000
0001
0000
0100
0000
0010
0000
1000
0000
,
1001
0001
0000
0200
0000
0000
0010
0000
0310
0000
1000
0000
0100
0000
1000
0001
,
0100
0001
0000
0020
0000
0000
0100
0000
0130
0000
1000
0000
0001
0000
0100
0000
,
0010
1000
0000
0020
0000
0000
1000
0000
1030
0000
0001
0000
0010
0000
0200
0000
,
2300
0000
0000
0000
3002
0000
0000
0000
0203
0000
0000
0000
0320
0000
0000
0000
2030
0000
0000
0000
3001
0000
0000
0200
0000
0000
0000
0000
0001
0000
0000
0000
,
0301
1000
0000
0200
0000
0000
0010
0000
1300
0000
0010
0000
0100
0000
0001
1000
,
0100
0010
0000
0002
0000
0000
0100
0000
1003
0000
0010
0000
0100
0000
0001
0000
,
1000
0100
0000
2000
0000
0000
0001
0000
3100
0000
0010
0000
0001
0000
0100
0010
,
1000
0100
0000
2000
0000
0000
0001
0000
3002
0000
0100
0000
0103
0000
0000
0000
,
1001
0000
0000
0000
0001
0000
0100
0000
0010
0000
0000
0010
0000
0000
0010
0000
,
1000
0000
0000
0100
0000
0000
0010
0000
0010
0001
0010
0000
0100
0000
1000
0010
,
0100
0000
0000
0100
0000
0000
0001
0000
2000
0000
0000
0000
3100
0000
0010
0000
,
0001
0000
0100
0001
0000
0000
1000
0000
0M01
0010
010M
1000
010M
0010
0M01
1000
,
0001
0000
000M
0000
0100
0000
0010
0000
1000
0000
0000
1000
0000
0000
0010
0000
,
0100
0000
0010
0200
0000
0000
0001
0000
0301
1000
0001
1000
0001
0000
0010
0100
,
1000
0000
0000
0000
0000
0000
0000
0000
0000
1100
0000
0000
0000
0000
0000
0000
0000
0000
0010
0000
0000
0000
0000
0000
0100
0000
0000
0000
0000
0000
0000
0000
0000
0101
0000
0000
0000
0000
0000
0100
0000
0000
0001
0000
1000
0000
0001
0000
,
2000
0000
0000
0000
0100
0000
3100
0000
0010
0000
0001
0000
1000
0100
0010
0000
,
1001
0000
0000
0000
0001
0000
0100
0000
0010
0000
0000
1000
0000
0000
0100
0000
,
0010
0000
0000
0010
0000
0000
0001
0000
1000
0100
1000
0000
0010
0000
0100
0001
,
1000
0000
0000
0010
0000
0000
0100
0000
0200
0000
0000
0000
0301
0000
0010
0000
,
0100
0000
0000
0100
0000
0000
1000
0000
0M01
0010
010M
1000
0M01
0010
010M
1000
,
0001
0000
000M
0000
0100
0000
0010
0000
2000
0000
0000
0100
0000
0000
3001
0000
,
0200
0000
0000
0010
0000
0000
0301
0000
1000
0100
1000
0100
0010
0000
0001
1000
,
0100
0000
0000
0000
0000
0000
0000
0000
0000
1100
0000
0000
0000
0000
0000
0000
0000
0000
0010
0000
0000
0000
0000
0000
0001
0000
0000
0100
0000
0000
0000
0000
0000
0101
0000
0000
0000
0000
0000
0000
0000
0000
0100
0000
0001
0000
0100
0000
,
0001
0010
0100
1000
0001
0000
0001
0100
0010
0000
0010
0000
0010
1000
0100
0000
,
1001
0000
0001
0100
0010
0000
1000
0000
1000
0000
0100
0010
0001
1000
0001
0000
,
0100
0000
0001
1000
0100
0000
0010
0000
0010
0000
0100
0010
0001
1000
0001
0000
,
1000
0000
0100
1000
0100
0000
1000
0000
1000
0000
0001
0010
0100
1000
0001
0000
,
0101
0000
0110
0000
1010
0000
0110
0000
1001
1000
0100
0010
0001
1000
0100
0010
,
0001
0100
0000
0020
0000
0000
0100
0000
1030
0000
0010
0000
0100
0000
0001
0010
,
0100
1000
0000
0002
0000
0000
1000
0000
0103
0000
0010
0000
1000
0000
0001
0000
,
1000
0001
0000
0200
0000
0000
0010
0000
0301
0000
0010
0000
0100
0000
2000
0000
,
3200
0000
0000
0000
0302
0000
0000
0000
0203
0000
0000
0000
2300
0000
0000
0000
3020
0000
0000
0000
0130
0000
0000
0002
0000
0000
0000
0000
1000
0000
0000
0000
,
1003
0100
0000
2000
0000
0000
0001
0000
3100
0000
0010
0000
0001
0000
0100
0010
,
1000
0001
0000
0200
0000
0000
1000
0000
0301
0000
1000
0000
0100
0000
0010
0000
,
0001
0010
0000
0200
0000
0000
0001
0000
1300
0000
0010
0000
0100
0000
0001
1000
,
0100
0010
0000
0002
0000
0000
0103
0010
2000
0000
0001
0000
3001
0000
0000
0000
,
1001
0000
1000
0000
0000
0100
0000
0000
0010
0000
0000
0001
0000
0000
0100
0001
,
1000
0000
0000
0100
0000
0000
0000
0000
0000
0020
0000
0000
0000
0000
0000
0000
0000
0000
0001
0000
0000
0000
0000
0000
0031
0000
0000
0000
0000
0000
1000
0000
0100
0000
1000
0000
0001
0000
0000
0100
0000
0000
0010
0000
0000
0000
0000
0000
,
1001
0000
0000
0000
0000
0000
0001
0000
0100
0000
0001
0000
1000
0000
0000
0000
0000
0000
1000
0000
0000
0100
0000
0000
0000
0000
0000
0100
0000
0000
0010
0000
0001
0000
0010
0000
0001
0000
0000
0000
0000
0000
0001
0000
0000
0000
0000
0000
,
1000
0000
1000
0000
0010
0000
0100
0001
1000
0000
1100
0000
0110
0000
0011
0000
,
1001
0000
1000
0000
0010
0000
0100
0001
1000
0000
1000
0000
0100
0000
0010
0001
,
0100
0000
0000
0000
0000
0000
0010
0000
0000
0000
0000
0000
1000
0000
0000
0000
0000
0000
0100
0000
0000
0000
0000
0000
0010
0000
0000
0000
0000
0000
0001
0000
0000
0000
0000
0000
0100
0000
0000
0010
0000
0000
1000
0000
0010
0000
1000
0000
,
0001
0000
0000
0000
0000
0000
0001
0000
0000
0000
0000
0000
0010
0000
0000
0000
0000
0000
0100
0000
0000
1000
0000
0000
0010
0000
0000
0000
0000
0000
0010
0000
0000
0000
0000
0000
0100
0000
0000
0000
0000
0000
0001
0000
1000
0000
0001
0000
,
1000
0000
0000
0100
0000
0000
0000
0000
0000
2000
0000
0000
0000
0000
0000
0000
0000
0000
0001
0000
0000
0000
0000
0000
3001
0000
0000
0000
0000
0000
0100
0000
0010
0000
0100
0000
0010
0000
0000
1000
0000
0000
0001
0000
0000
0000
0000
0000
,
1001
0000
1000
0000
0100
0000
0010
0000
0001
0100
0001
0000
1000
0010
0100
0000
,
0001
0000
1000
0100
0010
0000
0001
0000
0100
0010
1000
0000
0001
0010
0100
0000
,
1000
0000
0010
0100
0001
0000
1000
0000
0100
0010
0001
0000
0010
0100
1000
0000
,
0001
0000
0100
0010
1000
0000
0001
0000
1000
0100
1000
0000
0001
0100
0001
0000
,
1001
0000
1000
0001
0100
0000
0010
0000
1000
0010
0100
0000
0001
0100
0010
0000
,
1000
0000
0100
0010
0001
0000
0010
0000
0100
1000
0001
0000
0100
0010
1000
0000
,
0001
0000
0100
0010
1000
0000
0001
0000
0010
0100
0010
0000
0001
1000
0001
0000
,
1000
0000
0000
0000
0000
0000
0001
0000
0000
0100
0000
0000
0010
0000
0000
0000
0000
0000
1000
0000
0000
0000
0000
0000
0001
0000
0000
0010
0000
0000
0100
0000
0000
0000
0000
0000
1000
0000
0000
0010
0000
0000
1000
0000
0001
0000
1000
0000
,
0001
0000
0000
0101
0000
0000
1100
0000
0001
1000
0000
0020
0000
0000
0100
0000
,
0130
0000
0001
0000
0010
0000
0100
1000
0001
0100
0000
0002
0000
0000
1000
0000
,
1003
0000
0100
0000
1000
0000
0010
0000
0100
0001
0000
0200
0000
0000
0001
0000
,
0301
0000
0000
0000
0000
0000
0000
0000
0000
0000
0000
0000
0000
0000
0000
0000
0000
0000
0000
0000
0000
0000
0000
0000
1000
0000
0000
0000
0000
0000
0000
0000
0000
0000
0000
0000
0000
0000
0000
0000
0000
0000
0000
0000
0000
0000
0000
0000
0100
0000
0000
0000
0000
0000
0000
0000
0000
0000
0000
0000
0000
0000
0000
0000
0000
0000
0000
0000
0000
0000
0000
0000
0010
0000
0000
0000
0000
0000
0000
0000
0000
0000
0000
0000
0000
0000
0000
0000
0000
0000
0000
0000
0000
0000
0000
0000
0001
0000
0000
0000
0000
0000
1000
0000
0000
0000
0000
0000
0000
0000
0000
0000
0000
0000
0002
0000
0000
0000
0000
0000
0000
0000
0000
0000
0000
0000
0000
0000
0000
0000
0000
0000
1003
0000
0000
0000
0000
0000
0000
0000
0000
0000
0000
0000
0004
0000
0000
0000
0000
0000
0000
0000
4000
0000
0000
0000
0M00
0000
0000
0000
0000
0000
0000
0000
0000
0000
0000
0000
30M3
0000
0000
0000
0000
0000
0000
0000
0000
0000
0000
0000
MMMM
0000
0000
0000
0000
0000
0000
0000
0000
0000
0000
0000
,
1001
0000
0000
0000
0002
0000
0000
0000
0103
0010
0000
2000
0000
0000
3001
0000
,
0100
0000
0010
0000
1000
0000
0001
0100
0000
0010
0000
2000
0000
0000
3000
0000
,
0002
0000
0000
0000
0000
0000
1003
0100
0010
0000
0001
0100
0000
0000
0010
0000
,
0110
0000
0000
0000
1001
0000
0000
1000
0100
0000
0010
0000
0001
0000
0100
0000
,
0110
0000
0000
0000
0010
0000
1000
0001
0010
0100
1000
0002
0000
0000
1003
0000
,
1200
0000
0010
0000
0010
0000
0320
0000
0000
0002
0000
0000
0033
0000
0001
0000
,
0100
0000
0010
0000
1000
0100
0000
0020
0000
0000
0001
0000
0031
0000
0100
0000
,
0001
0010
0100
1000
0001
0100
0000
0020
0000
1030
0001
0000
0100
0000
0100
0000
0000
0000
0000
0000
0000
0000
0000
0000
0000
0000
0000
0000
0000
0000
0000
0000
;

//---------------dance-single - ----------------
#NOTES:
     dance-single:
     :
     Hard:
     8:
     0.486,0.464,0.182,0.137,0.228: // measure 1
0000
0000
0000
0000
,  // measure 2
0000
0000
0000
0000
,  // measure 3
0000
0000
0000
0000
,  // measure 4
0000
0000
0000
0000
,  // measure 5
1001
0000
0000
0000
0000
0000
0000
0000
1000
0000
0000
1000
0000
0000
0001
0000
,  // measure 6
1001
0000
1000
0000
0000
0100
0000
0000
0010
0000
0000
0001
0000
0000
0100
0000
,  // measure 7
0010
0000
0100
0000
0000
0001
0000
0000
0010
0000
0000
0100
0000
0000
1000
0000
,  // measure 8
0100
0000
1000
0000
0000
0010
0000
0000
0100
0000
0000
0001
0000
0000
0010
0000
,  // measure 9
0100
0000
1000
0000
0000
0100
0000
0000
0010
0000
0000
0001
0000
0000
0100
0000
,  // measure 10
0010
0000
0100
0000
0000
0001
0000
0000
0010
0000
0000
0001
0000
0000
1000
0000
,  // measure 11
0100
0000
0010
0000
0000
0100
0000
0000
0010
0000
0000
0001
0000
0000
1000
0000
,  // measure 12
0010
0000
0100
0000
0000
0001
0000
0000
1000
0000
0000
1000
0000
0000
0001
0000
,  // measure 13
0100
0001
0100
0002
0000
0000
1003
0000
,  // measure 14
1000
0100
0000
1000
0000
0000
0010
0000
0100
0000
0000
0000
0001
0000
0010
0000
,  // measure 15
0100
1000
0000
0100
0000
0000
1000
0000
1000
0000
0000
0000
1001
0000
0000
0000
,  // measure 16
0001
0100
0000
0001
0000
0000
1000
0000
1000
0000
0000
0000
0001
0000
0010
0000
,  // measure 17
0100
1000
0100
0010
0001
1000
0100
0000
,  // measure 18
1000
0010
0000
1000
0000
0000
0100
0000
0100
0000
0000
0000
0010
0000
0001
0000
,  // measure 19
0100
0010
0000
0100
0000
0000
0010
0000
0010
0000
0000
0000
1001
0000
0000
0000
,  // measure 20
1000
0001
0000
1000
0000
0000
0001
0000
0001
0000
0000
0000
1000
0000
0100
0000
,  // measure 21
0010
0001
0000
0010
0000
0000
0001
0000
0002
0000
1000
0000
1003
0000
0000
0000
,  // measure 22
1001
0000
1000
0000
0100
0000
0010
0001
,  // measure 23
0010
0100
1000
0000
,  // measure 24
0010
0000
0100
0001
1000
0000
0001
0000
,  // measure 25
0010
0000
0100
1000
0001
0000
0000
0000
,  // measure 26
1001
0001
0100
0010
,  // measure 27
1000
0100
0010
0000
1100
0000
0000
0000
,  // measure 28
1001
0000
0000
0001
0000
0000
0001
0000
1100
0000
0000
1000
0000
0000
1000
0000
,  // measure 29
0020
0000
0000
0100
0130
0000
0000
0000
,  // measure 30
1001
0100
0010
1000
,  // measure 31
0100
0000
0010
0001
1000
0000
0001
0000
,  // measure 32
0100
0000
0010
1000
0001
0000
0010
0000
,  // measure 33
0100
0000
1000
0001
0100
0000
0000
0000
,  // measure 34
1001
0010
0100
1000
,  // measure 35
0010
0000
0100
0001
1000
0000
0000
0000
,  // measure 36
0001
0100
0001
0000
1000
0100
1000
0000
,  // measure 37
0020
0000
0000
1000
1030
0000
0001
1000
,  // measure 38
1001
0000
0000
0000
0001
0000
0010
0000
0100
0000
0000
0100
0000
0000
0100
0000
,  // measure 39
1000
0000
0010
0000
0100
0000
0001
0000
0010
0000
0000
0010
0000
0000
0000
0000
,  // measure 40
0001
0000
0100
0000
0010
0000
1000
0000
0001
0000
0000
0001
0000
0000
0001
0000
,  // measure 41
1000
1000
1000
1000
1000
0000
1001
0000
,  // measure 42
0001
0100
0000
0001
0000
0000
1000
0000
1000
0000
0000
0000
0001
0000
0010
0000
,  // measure 43
0100
1000
0000
0100
0000
0000
1000
0000
1000
0000
0000
0000
1001
0000
0000
0000
,  // measure 44
1000
0100
0000
1000
0000
0000
0010
0000
0010
0000
0000
0000
0100
0000
0001
0000
,  // measure 45
1000
0100
0010
0001
0100
0010
1000
0000
,  // measure 46
0001
1000
0000
0001
0000
0000
0010
0000
0010
0000
0000
0000
0100
0000
1000
0000
,  // measure 47
0100
0010
0000
0100
0000
0000
0010
0000
0010
0000
0000
0000
1001
0000
0000
0000
,  // measure 48
1000
0010
0000
1000
0000
0000
0010
0000
0010
0000
0000
0000
0100
0000
0001
0000
,  // measure 49
1000
0001
0000
1000
0000
0000
0001
0000
0002
0000
1000
0000
1003
0000
0000
0000
,  // measure 50
1001
0001
0100
0010
,  // measure 51
1000
0100
0010
0001
1000
0001
0001
0001
,  // measure 52
0100
0000
0001
0000
0001
0000
0000
0001
0000
0000
0001
0000
0001
0000
0100
0000
,  // measure 53
0010
0010
0010
1000
0100
0100
0100
0100
,  // measure 54
0010
0001
1000
0000
0001
0100
0010
0000
,  // measure 55
1000
0100
0010
0001
0100
0010
1000
0000
,  // measure 56
0001
0100
0001
0000
1000
0100
1000
0000
,  // measure 57
0100
0010
0001
0100
0010
2000
0001
0001
,  // measure 58
3001
0000
0100
0000
0010
0000
1000
0100
,  // measure 59
0010
0000
0001
0000
0010
0000
0100
1000
,  // measure 60
0001
0000
0100
0000
0010
0000
1000
0010
,  // measure 61
0100
0000
0001
0000
0010
0000
0100
1000
,  // measure 62
1001
0000
0001
0000
0100
0000
0010
0000
1000
0000
0000
1000
0000
0000
0100
0000
,  // measure 63
0010
0000
0001
0000
0010
0000
0100
0000
1000
0000
0000
1000
0000
0000
0000
0000
,  // measure 64
0001
0000
0100
0000
0010
0000
1000
0000
0010
0000
0000
0010
0000
0000
0010
0000
,  // measure 65
0200
0000
0000
0002
0000
0000
0303
0000
,  // measure 66
1001
0000
0000
1001
0000
0000
1001
0000
0100
0000
0000
0000
0010
0000
0000
0000
,  // measure 67
1000
0000
0001
0010
0100
0000
1000
0000
,  // measure 68
0001
0000
0110
0010
,  // measure 69
1000
0000
2002
3003
,  // measure 70
1001
0000
0000
0000
1000
0000
0000
0000
0001
0100
0000
0001
0000
0000
0100
0000
,  // measure 71
0010
0000
1000
0000
0010
0000
0100
0001
0000
0001
0000
0001
0000
0000
0000
0000
,  // measure 72
2000
0000
0000
0010
3010
0100
0001
1000
,  // measure 73
0002
0000
0023
0000
0130
1000
0001
0200
,  // measure 74
0000
0000
0000
0000
0310
0000
1000
0000
0001
0000
0100
0001
0000
0000
1000
0000
,  // measure 75
0200
0000
0000
1000
0000
1300
0000
0010
,  // measure 76
0100
0000
0001
0000
1000
0000
0000
2000
0000
0000
0000
0000
3000
0000
0000
0000
,  // measure 77
2002
0000
0000
0000
0000
0000
0000
3003
0000
0000
0000
0000
0000
0000
0000
0000
;

//---------------dance-single - ----------------
#NOTES:
     dance-single:
     :
     Medium:
     5:
     0.349,0.406,0.137,0.099,0.011:
0000
0000
0000
0000
,
0000
0000
0000
0000
,
0000
0000
0000
0000
,
0000
0000
0000
0000
,
1001
0000
0000
0000
,
1000
0100
0010
0001
,
0100
0010
1000
0010
,
0100
0001
0010
0100
,
1000
0100
0010
0001
,
0100
0010
1000
0010
,
0100
0001
1000
0001
,
0100
0001
0010
0100
,
1000
0001
1000
0002
0000
0000
0000
0000
,
1003
0100
1000
0000
0010
0000
0000
0000
,
0100
0001
1000
0000
0001
0000
0000
0000
,
1000
0100
0010
0000
0001
0000
0000
0000
,
0010
0100
1000
0000
0010
0100
0001
0000
,
1000
0100
1000
0000
0001
0000
0000
0000
,
0100
0010
1000
0000
0001
0000
0000
0000
,
0100
0010
1000
0000
0100
0000
0000
0000
,
0010
0001
1000
0000
0100
0000
0000
0000
,
1001
0001
0100
0010
,
1000
0100
0010
0000
,
0001
0010
0100
1000
,
0100
0100
0010
0000
,
1001
0010
0100
1000
,
0010
0100
0001
0000
,
1000
1000
0001
0001
,
0200
0000
0310
0000
,
1001
0001
0010
0100
,
1000
1000
0001
0000
,
0100
0010
1000
0010
,
0100
0001
1000
0000
,
0101
0010
1000
0001
,
0010
0010
0100
0000
,
1000
1000
0001
0001
,
0200
0000
0301
0000
,
1001
0000
1000
0000
0100
0010
0001
0000
,
0100
0000
0010
0000
1000
0001
0100
0000
,
0001
0000
0010
0000
0100
1000
0001
0000
,
1000
0001
1000
0001
1000
0000
0000
0000
,
1001
1000
0010
0000
0100
0000
0000
0000
,
0001
0010
1000
0000
0010
0000
0000
0000
,
0001
1000
0100
0000
0010
0000
0000
0000
,
0001
0010
0100
0000
1000
0100
1000
0000
,
0101
0100
0010
0000
1000
0000
0000
0000
,
0001
0010
1000
0000
0100
0000
0000
0000
,
0001
1000
0010
0000
0100
0000
0000
0000
,
0001
1000
0001
0000
0010
0000
0000
0000
,
1001
1000
0010
0100
,
0001
1000
0001
0000
0200
0000
0001
0000
,
0301
0000
0000
0000
1000
0000
0000
1000
0000
0000
1000
0000
1000
0000
0000
0000
,
0001
0100
0001
0000
1000
0001
1000
0001
,
1000
1000
0010
0010
,
0100
0000
0001
0000
1000
0000
0100
0010
,
0001
0001
0010
0010
,
0100
0000
1000
0000
0001
0000
1000
0001
,
1001
0100
0010
1000
,
0100
0010
0001
0010
,
0100
1000
0010
0100
,
0001
1000
0001
0100
,
0110
0000
0010
0000
1000
0100
0010
0000
,
0001
0000
0100
0000
0010
1000
0001
0000
,
0100
0000
0010
0000
1000
1000
0100
0000
,
0020
0000
0000
0002
0000
0000
0033
0000
,
1000
0000
0000
0001
0000
0000
1000
0000
1001
0000
0000
0000
0001
0000
0000
0000
,
0100
0000
0010
1000
,
0001
0000
0010
0100
,
1000
0000
2002
3003
,
1001
0000
0000
0000
0001
0000
0000
0000
0100
0000
0000
0100
0000
0000
0010
0000
,
1000
0000
0001
0000
0010
0100
1000
0000
,
0002
0000
0103
0010
,
1100
0000
0011
0000
1000
0001
1000
0000
,
0110
0000
0100
0000
0001
0100
0010
0000
,
2000
0000
0000
0100
0000
3100
0000
0000
,
0010
0001
1000
0000
0002
0000
0003
0000
,
2002
0000
0000
0000
0000
0000
0000
3003
0000
0000
0000
0000
0000
0000
0000
0000
;

//---------------dance-single - ----------------
#NOTES:
     dance-single:
     :
     Easy:
     3:
     0.221,0.319,0.144,0.038,0.000:
0000
0000
0000
0000
,
0000
0000
0000
0000
,
0000
0000
0000
0000
,
0000
0000
0000
0000
,
0000
0000
0000
0000
,
1001
0000
1000
0000
,
0010
0000
0100
0000
,
0001
0000
0010
0000
,
0100
0000
1000
0000
,
0100
0000
0010
0000
,
0001
0000
0100
0000
,
0010
0000
1000
0000
,
0001
1000
0001
0000
,
1001
1000
0100
0000
,
0010
0001
1000
0000
,
0001
0100
0010
0000
,
1000
1000
0001
0100
,
0010
0010
1000
0000
,
0001
0001
0010
0000
,
0100
1000
0001
0000
,
0100
0010
1000
0000
,
1001
0000
0001
0000
,
0010
0100
1000
0000
,
0010
0000
0100
0000
,
0001
1000
0001
0000
,
1001
0000
0100
0000
,
0010
1000
0100
0000
,
0010
0000
0001
0000
,
0010
0000
0010
0000
,
0110
0000
0100
0000
,
1000
0001
0100
0000
,
0010
0000
1000
0000
,
0001
0100
0001
0000
,
1100
0000
0100
0000
,
0010
0001
1000
0000
,
0010
0000
0100
0000
,
0001
0000
0001
0000
,
1001
1000
0100
0000
,
0010
0001
0100
0000
,
0010
1000
0001
0000
,
0110
0110
0110
0000
,
1001
0001
1000
0000
,
0100
0010
1000
0000
,
0001
0001
0010
0000
,
0100
0000
1000
0000
,
0011
0100
0010
0000
,
1000
0100
1000
0000
,
0010
0100
0001
0000
,
1000
0001
1000
0000
,
0001
0000
0100
0000
,
0010
0000
1000
0000
,
0002
0000
0000
0003
,
0100
0000
0020
0000
,
1030
0000
0001
0000
,
0010
0010
0100
0000
,
1000
0000
0001
0000
,
0100
0010
1000
0000
,
1001
0000
0001
0000
,
0010
0000
0100
0000
,
1000
0000
0100
0000
,
0010
0000
0001
0000
,
0110
0000
0010
0000
,
1000
0100
0010
0000
,
0001
0000
0100
0000
,
0002
0000
1003
0000
,
1001
0000
1001
0000
,
1000
0000
0100
0000
,
0100
0000
0010
0000
,
0001
0000
1001
0000
,
1001
0001
0100
0010
,
1000
1000
0100
0000
,
0010
0000
0001
0100
,
0010
0010
1000
1000
,
0001
0000
0010
0100
,
1000
0000
0001
0000
,
0100
0010
1000
0000
,
2002
0000
0000
0000
0000
0000
0000
3003
0000
0000
0000
0000
0000
0000
0000
0000
;

//---------------dance-single - ----------------
#NOTES:
     dance-single:
     :
     Beginner:
     1:
     0.118,0.202,0.091,0.000,0.000:
0000
0000
0000
0000
,
0000
0000
0000
0000
,
0000
0000
0000
0000
,
0000
0000
0000
0000
,
0000
0000
0000
0000
,
1001
0000
0000
0000
,
0100
0000
0000
0000
,
0010
0000
0000
0000
,
1000
0000
0000
0000
,
0100
0000
0000
0000
,
0010
0000
0000
0000
,
0001
0000
0000
0000
,
0100
0000
0000
0000
,
0001
0000
0001
0000
,
0100
0000
0100
0000
,
0010
0000
0010
0000
,
1000
0000
0100
0000
,
0010
0000
0010
0000
,
0001
0000
0001
0000
,
1000
0000
1000
0000
,
0010
0000
0000
0000
,
1001
0000
0000
0000
,
0100
0000
0000
0000
,
0010
0000
0000
0000
,
1000
0000
0000
0000
,
0001
0000
0000
0000
,
0010
0000
0000
0000
,
0100
0000
0000
0000
,
0100
0000
0000
0000
,
1001
0000
0000
0000
,
0001
0000
0000
0000
,
0100
0000
0000
0000
,
0010
0000
0000
0000
,
0110
0000
0000
0000
,
0100
0000
0000
0000
,
0001
0000
0000
0000
,
0001
0000
0000
0000
,
1001
0000
0000
0000
,
1000
0000
0000
0000
,
0100
0000
0000
0000
,
0010
0010
0010
0000
,
0110
0000
0010
0000
,
0001
0000
0001
0000
,
0100
0000
0100
0000
,
0010
0000
1000
0000
,
0001
0000
0001
0000
,
0010
0000
0010
0000
,
0100
0000
0100
0000
,
1000
0000
0000
0000
,
1001
0000
0000
0000
,
1000
0000
0000
0000
,
0001
0000
0000
0000
,
1000
0000
0000
0000
,
0001
0000
0001
0000
,
0001
0000
0000
0000
,
1000
0000
1000
0000
,
1000
0000
0000
0000
,
1001
0000
0000
0000
,
0100
0000
0000
0000
,
0010
0000
0000
0000
,
1000
0000
0000
0000
,
0001
0000
0000
0000
,
0010
0000
0000
0000
,
0100
0000
0000
0000
,
0010
0000
0000
0000
,
0000
0000
1001
0000
,
0000
0000
0001
0000
,
0000
0000
0100
0000
,
0000
0000
0110
0000
,
1001
0000
1000
0000
,
0100
0000
0100
0000
,
0010
0000
0010
0000
,
0001
0000
0001
0000
,
0100
0000
0010
0000
,
1000
0000
0001
0000
,
0010
0000
0100
0000
,
1001
0000
0000
0000
;
