#TITLE:Zebras Crossing The Street;
#SUBTITLE:(30-Minute Stamina Challenge);
#ARTIST:Scooter;
#TITLETRANSLIT:;
#SUBTITLETRANSLIT:;
#ARTISTTRANSLIT:;
#GENRE:;
#CREDIT:;
#BANNER:Zebras Crossing The Street 30-minutes-bn.png;
#BACKGROUND:Zebras Crossing The Street 30-minutes-bg.png;
#LYRICSPATH:;
#CDTITLE:;
#MUSIC:Zebras Crossing The Street 30-minutes.ogg;
#OFFSET:-1.010;
#SAMPLESTART:13.420;
#SAMPLELENGTH:15.100;
#SELECTABLE:YES;
#BPMS:0.000=155.000;
#STOPS:;
#SCROLLS:0.000=1.000;
#TIMESIGNATURES:0.000=4=4;
#BGCHANGES:;
#KEYSOUNDS:;

//---------------dance-single - Geriatric Patrick----------------
#NOTES:
     dance-single:
     Geriatric Patrick:
     Challenge:
     12:
     0.854,0.902,1.000,0.000,0.529:
0000
0000
0000
0000
,
0000
0000
0000
0000
,
0000
0000
0000
0000
,
0000
0000
0000
0000
,
0000
0000
0000
0000
,
0000
0000
0000
0000
,
0000
0000
0000
0000
,
0000
0000
0000
0000
,
0011
0000
0100
0000
,
1000
0000
0000
0000
0000
0000
0000
0000
1001
0000
0000
0001
0000
0000
0010
0000
,
0110
0000
0010
0100
0000
0000
0000
0000
,
1100
0000
0001
0100
0010
0000
0000
0000
,
1010
0000
0100
0000
,
0010
0000
0000
0000
0000
0000
0000
0000
1010
0000
0000
1000
0000
0000
0001
0000
,
0011
0000
0001
1000
0000
0000
0000
0000
,
1000
0010
0100
0010
1000
0001
0100
0001
1000
0100
0010
0100
1000
0001
0010
0001
,
1000
1001
0101
0101
,
1010
0000
1010
0000
0110
0000
0110
0100
,
0101
0101
1001
1001
,
0101
0000
1001
0000
0101
0000
1010
0010
,
0110
1010
0101
1010
,
0110
1010
1100
1010
,
0101
0000
1001
0000
1100
0000
1001
0001
,
1000
0001
0010
0001
1000
0100
0010
0001
1000
0010
0100
0010
1000
0001
0100
0010
,
1000
0001
1000
0000
0001
1000
0001
0000
1000
0001
1000
0000
0001
1000
0001
0000
,
1000
0010
1000
0000
0010
1000
0010
0000
0100
0010
0100
0000
0010
0100
0010
0000
,
0001
0010
0001
0000
0010
0001
0010
0000
0001
0010
0001
0000
0010
0001
0010
0000
,
1000
0001
1000
0000
0001
1000
0001
0000
0100
0001
0100
0000
0001
0100
0001
0000
,
1000
0100
1000
0000
0100
1000
0100
0000
1000
0100
1000
0000
0100
1000
0100
0000
,
0010
0001
0010
0000
0001
0010
0001
0000
0010
0100
0010
0000
0100
0010
0100
0000
,
1000
0001
1000
0000
0001
1000
0001
0000
1000
0001
1000
0000
0001
1000
0001
0000
,
1000
0010
0100
0001
1000
0100
0010
0100
1000
0001
0100
0010
1000
0001
0010
0001
,
1000
0010
0100
0000
0010
0100
0010
0000
0100
0010
0100
0000
0010
0100
0010
0000
,
0100
0001
0010
0000
0001
0010
0001
0000
0010
0001
1000
0000
0001
1000
0001
0000
,
1000
0100
0010
0000
0100
0010
0100
0000
0010
0100
0010
0000
0100
0010
0100
0000
,
0010
0100
1000
0000
0100
1000
0100
0000
1000
0001
0100
0000
0001
0100
0001
0000
,
0100
0001
1000
0000
0001
1000
0001
0000
1000
0001
1000
0000
0001
1000
0001
0000
,
1000
0001
0010
0000
0001
0010
0001
0000
0010
0100
1000
0000
0100
1000
0100
0000
,
1000
0001
0100
0000
0001
0100
0001
0000
0100
0001
0100
0000
0001
0100
0001
0000
,
0100
0010
1000
0010
0100
0001
0010
0001
1000
0100
0010
0100
1000
0001
0100
0001
,
0010
0011
0110
1001
,
1100
0000
1100
0000
0101
0000
1001
0001
,
0101
0101
1010
0110
,
1001
0000
1001
0000
0011
0000
1010
1000
,
1100
1100
1010
1100
,
0101
1001
0110
1001
,
1010
0000
1010
0000
0110
0000
1001
0001
,
1000
0010
0100
0010
1000
0001
0010
0100
1000
0001
0100
0001
0010
0100
1000
0001
,
0100
0110
0101
1010
,
1100
0000
0101
0000
1100
0000
0011
0001
,
0101
0110
1001
1010
,
1100
0000
0011
0000
0101
0000
0011
0010
,
0110
1001
1100
1001
,
0110
0011
0101
0011
,
1100
0000
0101
0000
1001
0000
0101
0001
,
1M1M
MM11
1M1M
MM11
,
1000
0001
0100
0001
0010
0001
0100
0001
,
1000
0001
0100
0001
0010
0001
0100
0001
,
1000
0100
0010
0100
1000
0001
0100
0001
,
1000
0100
0010
0100
1000
0001
0100
0001
,
1000
0100
0010
0100
0001
0100
0010
0100
,
1000
0100
0010
0100
0001
0100
0010
0100
,
1000
0001
0100
0010
0001
1000
0001
0010
,
0100
0001
0010
0001
1000
0100
0010
0001
0100
0010
1000
0010
0100
0001
0010
0001
,
1000
0100
0100
0001
1000
0010
0010
0001
,
1000
0100
0100
0001
1000
0010
0010
0001
,
1000
0100
0100
0010
1000
0010
0010
0100
,
1000
0100
0100
0010
1000
0010
0010
0100
,
1000
0100
0100
0001
0100
0100
0010
0010
,
1000
0100
0100
0001
0100
0100
0010
0010
,
1000
0010
0010
0100
0001
0001
0010
0010
,
1000
0100
0100
0001
0001
0010
0100
0100
,
1000
0001
0100
0000
0001
0100
0001
0000
0100
0001
0100
0000
0001
0100
0001
0000
,
1000
0100
0010
0000
0100
0010
0100
0000
0010
0001
1000
0000
0001
1000
0001
0000
,
0100
0010
0001
0000
0010
0001
0010
0000
0001
0010
0001
0000
0010
0001
0010
0000
,
0100
0010
1000
0000
0010
1000
0010
0000
1000
0010
0100
0000
0010
0100
0010
0000
,
0100
0001
1000
0000
0001
1000
0001
0000
1000
0001
1000
0000
0001
1000
0001
0000
,
0100
0010
1000
0000
0010
1000
0010
0000
1000
0001
0100
0000
0001
0100
0001
0000
,
0010
0100
1000
0000
0100
1000
0100
0000
1000
0100
1000
0000
0100
1000
0100
0000
,
1000
0100
1000
0000
0100
1000
0100
0000
1000
0010
0100
0000
0010
0100
0010
0000
,
1010
1001
1100
1001
,
0101
0000
1010
0000
0101
0000
1010
1000
,
1001
0011
1100
0011
,
0101
0000
0110
0000
0101
0000
1001
0001
,
0101
0011
0101
1001
,
0101
1100
0110
1100
,
0101
0000
1010
0000
0011
0000
1010
1000
,
0001
0010
0100
0010
0001
1000
0010
0100
0001
1000
0100
1000
0001
0100
0010
1000
,
0010
1010
0110
1010
,
0101
0000
1100
0000
0101
0000
1001
0001
,
0101
0011
1100
0011
,
0110
0000
0110
0000
1001
0000
1010
1000
,
1001
1001
0110
1010
,
0101
1100
0011
0110
,
1001
0000
1100
0000
0101
0000
0011
0001
,
1001
0110
1001
0011
,
1M00
0000
0100
0000
,
M000
0000
0000
0000
0000
0000
0000
0000
10M0
0000
0000
0100
0000
0000
0010
0000
,
0M01
0000
0010
0100
0000
0000
0000
0000
,
0M10
0000
0001
0100
000M
0000
0000
0000
,
1010
0000
0100
0000
,
0010
0000
0000
0000
0000
0000
0000
0000
1010
0000
0000
1000
0000
0000
0001
0000
,
0011
0000
0001
1000
0000
0000
0000
0000
,
1000
0010
0100
0010
1000
0001
0100
0001
1000
0100
0010
0100
1000
0001
0010
0001
,
1000
1001
0101
0101
,
1010
0000
1010
0000
0110
0000
0110
0100
,
0101
0101
1001
1001
,
0101
0000
1001
0000
0101
0000
1010
0010
,
0110
1010
0101
1010
,
0110
1010
1100
1010
,
0101
0000
1001
0000
1100
0000
1001
0001
,
1000
0001
0010
0001
1000
0100
0010
0001
1000
0010
0100
0010
1000
0001
0100
0010
,
1000
0001
1000
0000
0001
1000
0001
0000
1000
0001
1000
0000
0001
1000
0001
0000
,
1000
0010
1000
0000
0010
1000
0010
0000
0100
0010
0100
0000
0010
0100
0010
0000
,
0001
0010
0001
0000
0010
0001
0010
0000
0001
0010
0001
0000
0010
0001
0010
0000
,
1000
0001
1000
0000
0001
1000
0001
0000
0100
0001
0100
0000
0001
0100
0001
0000
,
1000
0100
1000
0000
0100
1000
0100
0000
1000
0100
1000
0000
0100
1000
0100
0000
,
0010
0001
0010
0000
0001
0010
0001
0000
0010
0100
0010
0000
0100
0010
0100
0000
,
1000
0001
1000
0000
0001
1000
0001
0000
1000
0001
1000
0000
0001
1000
0001
0000
,
1000
0010
0100
0001
1000
0100
0010
0100
1000
0001
0100
0010
1000
0001
0010
0001
,
1000
0010
0100
0000
0010
0100
0010
0000
0100
0010
0100
0000
0010
0100
0010
0000
,
0100
0001
0010
0000
0001
0010
0001
0000
0010
0001
1000
0000
0001
1000
0001
0000
,
1000
0100
0010
0000
0100
0010
0100
0000
0010
0100
0010
0000
0100
0010
0100
0000
,
0010
0100
1000
0000
0100
1000
0100
0000
1000
0001
0100
0000
0001
0100
0001
0000
,
0100
0001
1000
0000
0001
1000
0001
0000
1000
0001
1000
0000
0001
1000
0001
0000
,
1000
0001
0010
0000
0001
0010
0001
0000
0010
0100
1000
0000
0100
1000
0100
0000
,
1000
0001
0100
0000
0001
0100
0001
0000
0100
0001
0100
0000
0001
0100
0001
0000
,
0100
0010
1000
0010
0100
0001
0010
0001
1000
0100
0010
0100
1000
0001
0100
0001
,
0010
0011
0110
1001
,
1100
0000
1100
0000
0101
0000
1001
0001
,
0101
0101
1010
0110
,
1001
0000
1001
0000
0011
0000
1010
1000
,
1100
1100
1010
1100
,
0101
1001
0110
1001
,
1010
0000
1010
0000
0110
0000
1001
0001
,
1000
0010
0100
0010
1000
0001
0010
0100
1000
0001
0100
0001
0010
0100
1000
0001
,
0100
0110
0101
1010
,
1100
0000
0101
0000
1100
0000
0011
0001
,
0101
0110
1001
1010
,
1100
0000
0011
0000
0101
0000
0011
0010
,
0110
1001
1100
1001
,
0110
0011
0101
0011
,
1100
0000
0101
0000
1001
0000
0101
0001
,
1M1M
MM11
1M1M
MM11
,
1000
0001
0100
0001
0010
0001
0100
0001
,
1000
0001
0100
0001
0010
0001
0100
0001
,
1000
0100
0010
0100
1000
0001
0100
0001
,
1000
0100
0010
0100
1000
0001
0100
0001
,
1000
0100
0010
0100
0001
0100
0010
0100
,
1000
0100
0010
0100
0001
0100
0010
0100
,
1000
0001
0100
0010
0001
1000
0001
0010
,
0100
0001
0010
0001
1000
0100
0010
0001
0100
0010
1000
0010
0100
0001
0010
0001
,
1000
0100
0100
0001
1000
0010
0010
0001
,
1000
0100
0100
0001
1000
0010
0010
0001
,
1000
0100
0100
0010
1000
0010
0010
0100
,
1000
0100
0100
0010
1000
0010
0010
0100
,
1000
0100
0100
0001
0100
0100
0010
0010
,
1000
0100
0100
0001
0100
0100
0010
0010
,
1000
0010
0010
0100
0001
0001
0010
0010
,
1000
0100
0100
0001
0001
0010
0100
0100
,
1000
0001
0100
0000
0001
0100
0001
0000
0100
0001
0100
0000
0001
0100
0001
0000
,
1000
0100
0010
0000
0100
0010
0100
0000
0010
0001
1000
0000
0001
1000
0001
0000
,
0100
0010
0001
0000
0010
0001
0010
0000
0001
0010
0001
0000
0010
0001
0010
0000
,
0100
0010
1000
0000
0010
1000
0010
0000
1000
0010
0100
0000
0010
0100
0010
0000
,
0100
0001
1000
0000
0001
1000
0001
0000
1000
0001
1000
0000
0001
1000
0001
0000
,
0100
0010
1000
0000
0010
1000
0010
0000
1000
0001
0100
0000
0001
0100
0001
0000
,
0010
0100
1000
0000
0100
1000
0100
0000
1000
0100
1000
0000
0100
1000
0100
0000
,
1000
0100
1000
0000
0100
1000
0100
0000
1000
0010
0100
0000
0010
0100
0010
0000
,
1010
1001
1100
1001
,
0101
0000
1010
0000
0101
0000
1010
1000
,
1001
0011
1100
0011
,
0101
0000
0110
0000
0101
0000
1001
0001
,
0101
0011
0101
1001
,
0101
1100
0110
1100
,
0101
0000
1010
0000
0011
0000
1010
1000
,
0001
0010
0100
0010
0001
1000
0010
0100
0001
1000
0100
1000
0001
0100
0010
1000
,
0010
1010
0110
1010
,
0101
0000
1100
0000
0101
0000
1001
0001
,
0101
0011
1100
0011
,
0110
0000
0110
0000
1001
0000
1010
1000
,
1001
1001
0110
1010
,
0101
1100
0011
0110
,
1001
0000
1100
0000
0101
0000
0011
0001
,
1001
0110
1001
0011
,
1M00
0000
0100
0000
,
M000
0000
0000
0000
0000
0000
0000
0000
10M0
0000
0000
0100
0000
0000
0010
0000
,
0M01
0000
0010
0100
0000
0000
0000
0000
,
0M10
0000
0001
0100
000M
0000
0000
0000
,
1010
0000
0100
0000
,
0010
0000
0000
0000
0000
0000
0000
0000
1010
0000
0000
1000
0000
0000
0001
0000
,
0011
0000
0001
1000
0000
0000
0000
0000
,
1000
0010
0100
0010
1000
0001
0100
0001
1000
0100
0010
0100
1000
0001
0010
0001
,
1000
1001
0101
0101
,
1010
0000
1010
0000
0110
0000
0110
0100
,
0101
0101
1001
1001
,
0101
0000
1001
0000
0101
0000
1010
0010
,
0110
1010
0101
1010
,
0110
1010
1100
1010
,
0101
0000
1001
0000
1100
0000
1001
0001
,
1000
0001
0010
0001
1000
0100
0010
0001
1000
0010
0100
0010
1000
0001
0100
0010
,
1000
0001
1000
0000
0001
1000
0001
0000
1000
0001
1000
0000
0001
1000
0001
0000
,
1000
0010
1000
0000
0010
1000
0010
0000
0100
0010
0100
0000
0010
0100
0010
0000
,
0001
0010
0001
0000
0010
0001
0010
0000
0001
0010
0001
0000
0010
0001
0010
0000
,
1000
0001
1000
0000
0001
1000
0001
0000
0100
0001
0100
0000
0001
0100
0001
0000
,
1000
0100
1000
0000
0100
1000
0100
0000
1000
0100
1000
0000
0100
1000
0100
0000
,
0010
0001
0010
0000
0001
0010
0001
0000
0010
0100
0010
0000
0100
0010
0100
0000
,
1000
0001
1000
0000
0001
1000
0001
0000
1000
0001
1000
0000
0001
1000
0001
0000
,
1000
0010
0100
0001
1000
0100
0010
0100
1000
0001
0100
0010
1000
0001
0010
0001
,
1000
0010
0100
0000
0010
0100
0010
0000
0100
0010
0100
0000
0010
0100
0010
0000
,
0100
0001
0010
0000
0001
0010
0001
0000
0010
0001
1000
0000
0001
1000
0001
0000
,
1000
0100
0010
0000
0100
0010
0100
0000
0010
0100
0010
0000
0100
0010
0100
0000
,
0010
0100
1000
0000
0100
1000
0100
0000
1000
0001
0100
0000
0001
0100
0001
0000
,
0100
0001
1000
0000
0001
1000
0001
0000
1000
0001
1000
0000
0001
1000
0001
0000
,
1000
0001
0010
0000
0001
0010
0001
0000
0010
0100
1000
0000
0100
1000
0100
0000
,
1000
0001
0100
0000
0001
0100
0001
0000
0100
0001
0100
0000
0001
0100
0001
0000
,
0100
0010
1000
0010
0100
0001
0010
0001
1000
0100
0010
0100
1000
0001
0100
0001
,
0010
0011
0110
1001
,
1100
0000
1100
0000
0101
0000
1001
0001
,
0101
0101
1010
0110
,
1001
0000
1001
0000
0011
0000
1010
1000
,
1100
1100
1010
1100
,
0101
1001
0110
1001
,
1010
0000
1010
0000
0110
0000
1001
0001
,
1000
0010
0100
0010
1000
0001
0010
0100
1000
0001
0100
0001
0010
0100
1000
0001
,
0100
0110
0101
1010
,
1100
0000
0101
0000
1100
0000
0011
0001
,
0101
0110
1001
1010
,
1100
0000
0011
0000
0101
0000
0011
0010
,
0110
1001
1100
1001
,
0110
0011
0101
0011
,
1100
0000
0101
0000
1001
0000
0101
0001
,
1M1M
MM11
1M1M
MM11
,
1000
0001
0100
0001
0010
0001
0100
0001
,
1000
0001
0100
0001
0010
0001
0100
0001
,
1000
0100
0010
0100
1000
0001
0100
0001
,
1000
0100
0010
0100
1000
0001
0100
0001
,
1000
0100
0010
0100
0001
0100
0010
0100
,
1000
0100
0010
0100
0001
0100
0010
0100
,
1000
0001
0100
0010
0001
1000
0001
0010
,
0100
0001
0010
0001
1000
0100
0010
0001
0100
0010
1000
0010
0100
0001
0010
0001
,
1000
0100
0100
0001
1000
0010
0010
0001
,
1000
0100
0100
0001
1000
0010
0010
0001
,
1000
0100
0100
0010
1000
0010
0010
0100
,
1000
0100
0100
0010
1000
0010
0010
0100
,
1000
0100
0100
0001
0100
0100
0010
0010
,
1000
0100
0100
0001
0100
0100
0010
0010
,
1000
0010
0010
0100
0001
0001
0010
0010
,
1000
0100
0100
0001
0001
0010
0100
0100
,
1000
0001
0100
0000
0001
0100
0001
0000
0100
0001
0100
0000
0001
0100
0001
0000
,
1000
0100
0010
0000
0100
0010
0100
0000
0010
0001
1000
0000
0001
1000
0001
0000
,
0100
0010
0001
0000
0010
0001
0010
0000
0001
0010
0001
0000
0010
0001
0010
0000
,
0100
0010
1000
0000
0010
1000
0010
0000
1000
0010
0100
0000
0010
0100
0010
0000
,
0100
0001
1000
0000
0001
1000
0001
0000
1000
0001
1000
0000
0001
1000
0001
0000
,
0100
0010
1000
0000
0010
1000
0010
0000
1000
0001
0100
0000
0001
0100
0001
0000
,
0010
0100
1000
0000
0100
1000
0100
0000
1000
0100
1000
0000
0100
1000
0100
0000
,
1000
0100
1000
0000
0100
1000
0100
0000
1000
0010
0100
0000
0010
0100
0010
0000
,
1010
1001
1100
1001
,
0101
0000
1010
0000
0101
0000
1010
1000
,
1001
0011
1100
0011
,
0101
0000
0110
0000
0101
0000
1001
0001
,
0101
0011
0101
1001
,
0101
1100
0110
1100
,
0101
0000
1010
0000
0011
0000
1010
1000
,
0001
0010
0100
0010
0001
1000
0010
0100
0001
1000
0100
1000
0001
0100
0010
1000
,
0010
1010
0110
1010
,
0101
0000
1100
0000
0101
0000
1001
0001
,
0101
0011
1100
0011
,
0110
0000
0110
0000
1001
0000
1010
1000
,
1001
1001
0110
1010
,
0101
1100
0011
0110
,
1001
0000
1100
0000
0101
0000
0011
0001
,
1001
0110
1001
0011
,
1M00
0000
0100
0000
,
M000
0000
0000
0000
0000
0000
0000
0000
10M0
0000
0000
0100
0000
0000
0010
0000
,
0M01
0000
0010
0100
0000
0000
0000
0000
,
0M10
0000
0001
0100
000M
0000
0000
0000
,
1010
0000
0100
0000
,
0010
0000
0000
0000
0000
0000
0000
0000
1010
0000
0000
1000
0000
0000
0001
0000
,
0011
0000
0001
1000
0000
0000
0000
0000
,
1000
0010
0100
0010
1000
0001
0100
0001
1000
0100
0010
0100
1000
0001
0010
0001
,
1000
1001
0101
0101
,
1010
0000
1010
0000
0110
0000
0110
0100
,
0101
0101
1001
1001
,
0101
0000
1001
0000
0101
0000
1010
0010
,
0110
1010
0101
1010
,
0110
1010
1100
1010
,
0101
0000
1001
0000
1100
0000
1001
0001
,
1000
0001
0010
0001
1000
0100
0010
0001
1000
0010
0100
0010
1000
0001
0100
0010
,
1000
0001
1000
0000
0001
1000
0001
0000
1000
0001
1000
0000
0001
1000
0001
0000
,
1000
0010
1000
0000
0010
1000
0010
0000
0100
0010
0100
0000
0010
0100
0010
0000
,
0001
0010
0001
0000
0010
0001
0010
0000
0001
0010
0001
0000
0010
0001
0010
0000
,
1000
0001
1000
0000
0001
1000
0001
0000
0100
0001
0100
0000
0001
0100
0001
0000
,
1000
0100
1000
0000
0100
1000
0100
0000
1000
0100
1000
0000
0100
1000
0100
0000
,
0010
0001
0010
0000
0001
0010
0001
0000
0010
0100
0010
0000
0100
0010
0100
0000
,
1000
0001
1000
0000
0001
1000
0001
0000
1000
0001
1000
0000
0001
1000
0001
0000
,
1000
0010
0100
0001
1000
0100
0010
0100
1000
0001
0100
0010
1000
0001
0010
0001
,
1000
0010
0100
0000
0010
0100
0010
0000
0100
0010
0100
0000
0010
0100
0010
0000
,
0100
0001
0010
0000
0001
0010
0001
0000
0010
0001
1000
0000
0001
1000
0001
0000
,
1000
0100
0010
0000
0100
0010
0100
0000
0010
0100
0010
0000
0100
0010
0100
0000
,
0010
0100
1000
0000
0100
1000
0100
0000
1000
0001
0100
0000
0001
0100
0001
0000
,
0100
0001
1000
0000
0001
1000
0001
0000
1000
0001
1000
0000
0001
1000
0001
0000
,
1000
0001
0010
0000
0001
0010
0001
0000
0010
0100
1000
0000
0100
1000
0100
0000
,
1000
0001
0100
0000
0001
0100
0001
0000
0100
0001
0100
0000
0001
0100
0001
0000
,
0100
0010
1000
0010
0100
0001
0010
0001
1000
0100
0010
0100
1000
0001
0100
0001
,
0010
0011
0110
1001
,
1100
0000
1100
0000
0101
0000
1001
0001
,
0101
0101
1010
0110
,
1001
0000
1001
0000
0011
0000
1010
1000
,
1100
1100
1010
1100
,
0101
1001
0110
1001
,
1010
0000
1010
0000
0110
0000
1001
0001
,
1000
0010
0100
0010
1000
0001
0010
0100
1000
0001
0100
0001
0010
0100
1000
0001
,
0100
0110
0101
1010
,
1100
0000
0101
0000
1100
0000
0011
0001
,
0101
0110
1001
1010
,
1100
0000
0011
0000
0101
0000
0011
0010
,
0110
1001
1100
1001
,
0110
0011
0101
0011
,
1100
0000
0101
0000
1001
0000
0101
0001
,
1M1M
MM11
1M1M
MM11
,
1000
0001
0100
0001
0010
0001
0100
0001
,
1000
0001
0100
0001
0010
0001
0100
0001
,
1000
0100
0010
0100
1000
0001
0100
0001
,
1000
0100
0010
0100
1000
0001
0100
0001
,
1000
0100
0010
0100
0001
0100
0010
0100
,
1000
0100
0010
0100
0001
0100
0010
0100
,
1000
0001
0100
0010
0001
1000
0001
0010
,
0100
0001
0010
0001
1000
0100
0010
0001
0100
0010
1000
0010
0100
0001
0010
0001
,
1000
0100
0100
0001
1000
0010
0010
0001
,
1000
0100
0100
0001
1000
0010
0010
0001
,
1000
0100
0100
0010
1000
0010
0010
0100
,
1000
0100
0100
0010
1000
0010
0010
0100
,
1000
0100
0100
0001
0100
0100
0010
0010
,
1000
0100
0100
0001
0100
0100
0010
0010
,
1000
0010
0010
0100
0001
0001
0010
0010
,
1000
0100
0100
0001
0001
0010
0100
0100
,
1000
0001
0100
0000
0001
0100
0001
0000
0100
0001
0100
0000
0001
0100
0001
0000
,
1000
0100
0010
0000
0100
0010
0100
0000
0010
0001
1000
0000
0001
1000
0001
0000
,
0100
0010
0001
0000
0010
0001
0010
0000
0001
0010
0001
0000
0010
0001
0010
0000
,
0100
0010
1000
0000
0010
1000
0010
0000
1000
0010
0100
0000
0010
0100
0010
0000
,
0100
0001
1000
0000
0001
1000
0001
0000
1000
0001
1000
0000
0001
1000
0001
0000
,
0100
0010
1000
0000
0010
1000
0010
0000
1000
0001
0100
0000
0001
0100
0001
0000
,
0010
0100
1000
0000
0100
1000
0100
0000
1000
0100
1000
0000
0100
1000
0100
0000
,
1000
0100
1000
0000
0100
1000
0100
0000
1000
0010
0100
0000
0010
0100
0010
0000
,
1010
1001
1100
1001
,
0101
0000
1010
0000
0101
0000
1010
1000
,
1001
0011
1100
0011
,
0101
0000
0110
0000
0101
0000
1001
0001
,
0101
0011
0101
1001
,
0101
1100
0110
1100
,
0101
0000
1010
0000
0011
0000
1010
1000
,
0001
0010
0100
0010
0001
1000
0010
0100
0001
1000
0100
1000
0001
0100
0010
1000
,
0010
1010
0110
1010
,
0101
0000
1100
0000
0101
0000
1001
0001
,
0101
0011
1100
0011
,
0110
0000
0110
0000
1001
0000
1010
1000
,
1001
1001
0110
1010
,
0101
1100
0011
0110
,
1001
0000
1100
0000
0101
0000
0011
0001
,
1001
0110
1001
0011
,
1M00
0000
0100
0000
,
M000
0000
0000
0000
0000
0000
0000
0000
10M0
0000
0000
0100
0000
0000
0010
0000
,
0M01
0000
0010
0100
0000
0000
0000
0000
,
0M10
0000
0001
0100
000M
0000
0000
0000
,
1010
0000
0100
0000
,
0010
0000
0000
0000
0000
0000
0000
0000
1010
0000
0000
1000
0000
0000
0001
0000
,
0011
0000
0001
1000
0000
0000
0000
0000
,
1000
0010
0100
0010
1000
0001
0100
0001
1000
0100
0010
0100
1000
0001
0010
0001
,
1000
1001
0101
0101
,
1010
0000
1010
0000
0110
0000
0110
0100
,
0101
0101
1001
1001
,
0101
0000
1001
0000
0101
0000
1010
0010
,
0110
1010
0101
1010
,
0110
1010
1100
1010
,
0101
0000
1001
0000
1100
0000
1001
0001
,
1000
0001
0010
0001
1000
0100
0010
0001
1000
0010
0100
0010
1000
0001
0100
0010
,
1000
0001
1000
0000
0001
1000
0001
0000
1000
0001
1000
0000
0001
1000
0001
0000
,
1000
0010
1000
0000
0010
1000
0010
0000
0100
0010
0100
0000
0010
0100
0010
0000
,
0001
0010
0001
0000
0010
0001
0010
0000
0001
0010
0001
0000
0010
0001
0010
0000
,
1000
0001
1000
0000
0001
1000
0001
0000
0100
0001
0100
0000
0001
0100
0001
0000
,
1000
0100
1000
0000
0100
1000
0100
0000
1000
0100
1000
0000
0100
1000
0100
0000
,
0010
0001
0010
0000
0001
0010
0001
0000
0010
0100
0010
0000
0100
0010
0100
0000
,
1000
0001
1000
0000
0001
1000
0001
0000
1000
0001
1000
0000
0001
1000
0001
0000
,
1000
0010
0100
0001
1000
0100
0010
0100
1000
0001
0100
0010
1000
0001
0010
0001
,
1000
0010
0100
0000
0010
0100
0010
0000
0100
0010
0100
0000
0010
0100
0010
0000
,
0100
0001
0010
0000
0001
0010
0001
0000
0010
0001
1000
0000
0001
1000
0001
0000
,
1000
0100
0010
0000
0100
0010
0100
0000
0010
0100
0010
0000
0100
0010
0100
0000
,
0010
0100
1000
0000
0100
1000
0100
0000
1000
0001
0100
0000
0001
0100
0001
0000
,
0100
0001
1000
0000
0001
1000
0001
0000
1000
0001
1000
0000
0001
1000
0001
0000
,
1000
0001
0010
0000
0001
0010
0001
0000
0010
0100
1000
0000
0100
1000
0100
0000
,
1000
0001
0100
0000
0001
0100
0001
0000
0100
0001
0100
0000
0001
0100
0001
0000
,
0100
0010
1000
0010
0100
0001
0010
0001
1000
0100
0010
0100
1000
0001
0100
0001
,
0010
0011
0110
1001
,
1100
0000
1100
0000
0101
0000
1001
0001
,
0101
0101
1010
0110
,
1001
0000
1001
0000
0011
0000
1010
1000
,
1100
1100
1010
1100
,
0101
1001
0110
1001
,
1010
0000
1010
0000
0110
0000
1001
0001
,
1000
0010
0100
0010
1000
0001
0010
0100
1000
0001
0100
0001
0010
0100
1000
0001
,
0100
0110
0101
1010
,
1100
0000
0101
0000
1100
0000
0011
0001
,
0101
0110
1001
1010
,
1100
0000
0011
0000
0101
0000
0011
0010
,
0110
1001
1100
1001
,
0110
0011
0101
0011
,
1100
0000
0101
0000
1001
0000
0101
0001
,
1M1M
MM11
1M1M
MM11
,
1000
0001
0100
0001
0010
0001
0100
0001
,
1000
0001
0100
0001
0010
0001
0100
0001
,
1000
0100
0010
0100
1000
0001
0100
0001
,
1000
0100
0010
0100
1000
0001
0100
0001
,
1000
0100
0010
0100
0001
0100
0010
0100
,
1000
0100
0010
0100
0001
0100
0010
0100
,
1000
0001
0100
0010
0001
1000
0001
0010
,
0100
0001
0010
0001
1000
0100
0010
0001
0100
0010
1000
0010
0100
0001
0010
0001
,
1000
0100
0100
0001
1000
0010
0010
0001
,
1000
0100
0100
0001
1000
0010
0010
0001
,
1000
0100
0100
0010
1000
0010
0010
0100
,
1000
0100
0100
0010
1000
0010
0010
0100
,
1000
0100
0100
0001
0100
0100
0010
0010
,
1000
0100
0100
0001
0100
0100
0010
0010
,
1000
0010
0010
0100
0001
0001
0010
0010
,
1000
0100
0100
0001
0001
0010
0100
0100
,
1000
0001
0100
0000
0001
0100
0001
0000
0100
0001
0100
0000
0001
0100
0001
0000
,
1000
0100
0010
0000
0100
0010
0100
0000
0010
0001
1000
0000
0001
1000
0001
0000
,
0100
0010
0001
0000
0010
0001
0010
0000
0001
0010
0001
0000
0010
0001
0010
0000
,
0100
0010
1000
0000
0010
1000
0010
0000
1000
0010
0100
0000
0010
0100
0010
0000
,
0100
0001
1000
0000
0001
1000
0001
0000
1000
0001
1000
0000
0001
1000
0001
0000
,
0100
0010
1000
0000
0010
1000
0010
0000
1000
0001
0100
0000
0001
0100
0001
0000
,
0010
0100
1000
0000
0100
1000
0100
0000
1000
0100
1000
0000
0100
1000
0100
0000
,
1000
0100
1000
0000
0100
1000
0100
0000
1000
0010
0100
0000
0010
0100
0010
0000
,
1010
1001
1100
1001
,
0101
0000
1010
0000
0101
0000
1010
1000
,
1001
0011
1100
0011
,
0101
0000
0110
0000
0101
0000
1001
0001
,
0101
0011
0101
1001
,
0101
1100
0110
1100
,
0101
0000
1010
0000
0011
0000
1010
1000
,
0001
0010
0100
0010
0001
1000
0010
0100
0001
1000
0100
1000
0001
0100
0010
1000
,
0010
1010
0110
1010
,
0101
0000
1100
0000
0101
0000
1001
0001
,
0101
0011
1100
0011
,
0110
0000
0110
0000
1001
0000
1010
1000
,
1001
1001
0110
1010
,
0101
1100
0011
0110
,
1001
0000
1100
0000
0101
0000
0011
0001
,
1001
0110
1001
0011
,
1M00
0000
0100
0000
,
M000
0000
0000
0000
0000
0000
0000
0000
10M0
0000
0000
0100
0000
0000
0010
0000
,
0M01
0000
0010
0100
0000
0000
0000
0000
,
0M10
0000
0001
0100
000M
0000
0000
0000
,
1010
0000
0100
0000
,
0010
0000
0000
0000
0000
0000
0000
0000
1010
0000
0000
1000
0000
0000
0001
0000
,
0011
0000
0001
1000
0000
0000
0000
0000
,
1000
0010
0100
0010
1000
0001
0100
0001
1000
0100
0010
0100
1000
0001
0010
0001
,
1000
1001
0101
0101
,
1010
0000
1010
0000
0110
0000
0110
0100
,
0101
0101
1001
1001
,
0101
0000
1001
0000
0101
0000
1010
0010
,
0110
1010
0101
1010
,
0110
1010
1100
1010
,
0101
0000
1001
0000
1100
0000
1001
0001
,
1000
0001
0010
0001
1000
0100
0010
0001
1000
0010
0100
0010
1000
0001
0100
0010
,
1000
0001
1000
0000
0001
1000
0001
0000
1000
0001
1000
0000
0001
1000
0001
0000
,
1000
0010
1000
0000
0010
1000
0010
0000
0100
0010
0100
0000
0010
0100
0010
0000
,
0001
0010
0001
0000
0010
0001
0010
0000
0001
0010
0001
0000
0010
0001
0010
0000
,
1000
0001
1000
0000
0001
1000
0001
0000
0100
0001
0100
0000
0001
0100
0001
0000
,
1000
0100
1000
0000
0100
1000
0100
0000
1000
0100
1000
0000
0100
1000
0100
0000
,
0010
0001
0010
0000
0001
0010
0001
0000
0010
0100
0010
0000
0100
0010
0100
0000
,
1000
0001
1000
0000
0001
1000
0001
0000
1000
0001
1000
0000
0001
1000
0001
0000
,
1000
0010
0100
0001
1000
0100
0010
0100
1000
0001
0100
0010
1000
0001
0010
0001
,
1000
0010
0100
0000
0010
0100
0010
0000
0100
0010
0100
0000
0010
0100
0010
0000
,
0100
0001
0010
0000
0001
0010
0001
0000
0010
0001
1000
0000
0001
1000
0001
0000
,
1000
0100
0010
0000
0100
0010
0100
0000
0010
0100
0010
0000
0100
0010
0100
0000
,
0010
0100
1000
0000
0100
1000
0100
0000
1000
0001
0100
0000
0001
0100
0001
0000
,
0100
0001
1000
0000
0001
1000
0001
0000
1000
0001
1000
0000
0001
1000
0001
0000
,
1000
0001
0010
0000
0001
0010
0001
0000
0010
0100
1000
0000
0100
1000
0100
0000
,
1000
0001
0100
0000
0001
0100
0001
0000
0100
0001
0100
0000
0001
0100
0001
0000
,
0100
0010
1000
0010
0100
0001
0010
0001
1000
0100
0010
0100
1000
0001
0100
0001
,
0010
0011
0110
1001
,
1100
0000
1100
0000
0101
0000
1001
0001
,
0101
0101
1010
0110
,
1001
0000
1001
0000
0011
0000
1010
1000
,
1100
1100
1010
1100
,
0101
1001
0110
1001
,
1010
0000
1010
0000
0110
0000
1001
0001
,
1000
0010
0100
0010
1000
0001
0010
0100
1000
0001
0100
0001
0010
0100
1000
0001
,
0100
0110
0101
1010
,
1100
0000
0101
0000
1100
0000
0011
0001
,
0101
0110
1001
1010
,
1100
0000
0011
0000
0101
0000
0011
0010
,
0110
1001
1100
1001
,
0110
0011
0101
0011
,
1100
0000
0101
0000
1001
0000
0101
0001
,
1M1M
MM11
1M1M
MM11
,
1000
0001
0100
0001
0010
0001
0100
0001
,
1000
0001
0100
0001
0010
0001
0100
0001
,
1000
0100
0010
0100
1000
0001
0100
0001
,
1000
0100
0010
0100
1000
0001
0100
0001
,
1000
0100
0010
0100
0001
0100
0010
0100
,
1000
0100
0010
0100
0001
0100
0010
0100
,
1000
0001
0100
0010
0001
1000
0001
0010
,
0100
0001
0010
0001
1000
0100
0010
0001
0100
0010
1000
0010
0100
0001
0010
0001
,
1000
0100
0100
0001
1000
0010
0010
0001
,
1000
0100
0100
0001
1000
0010
0010
0001
,
1000
0100
0100
0010
1000
0010
0010
0100
,
1000
0100
0100
0010
1000
0010
0010
0100
,
1000
0100
0100
0001
0100
0100
0010
0010
,
1000
0100
0100
0001
0100
0100
0010
0010
,
1000
0010
0010
0100
0001
0001
0010
0010
,
1000
0100
0100
0001
0001
0010
0100
0100
,
1000
0001
0100
0000
0001
0100
0001
0000
0100
0001
0100
0000
0001
0100
0001
0000
,
1000
0100
0010
0000
0100
0010
0100
0000
0010
0001
1000
0000
0001
1000
0001
0000
,
0100
0010
0001
0000
0010
0001
0010
0000
0001
0010
0001
0000
0010
0001
0010
0000
,
0100
0010
1000
0000
0010
1000
0010
0000
1000
0010
0100
0000
0010
0100
0010
0000
,
0100
0001
1000
0000
0001
1000
0001
0000
1000
0001
1000
0000
0001
1000
0001
0000
,
0100
0010
1000
0000
0010
1000
0010
0000
1000
0001
0100
0000
0001
0100
0001
0000
,
0010
0100
1000
0000
0100
1000
0100
0000
1000
0100
1000
0000
0100
1000
0100
0000
,
1000
0100
1000
0000
0100
1000
0100
0000
1000
0010
0100
0000
0010
0100
0010
0000
,
1010
1001
1100
1001
,
0101
0000
1010
0000
0101
0000
1010
1000
,
1001
0011
1100
0011
,
0101
0000
0110
0000
0101
0000
1001
0001
,
0101
0011
0101
1001
,
0101
1100
0110
1100
,
0101
0000
1010
0000
0011
0000
1010
1000
,
0001
0010
0100
0010
0001
1000
0010
0100
0001
1000
0100
1000
0001
0100
0010
1000
,
0010
1010
0110
1010
,
0101
0000
1100
0000
0101
0000
1001
0001
,
0101
0011
1100
0011
,
0110
0000
0110
0000
1001
0000
1010
1000
,
1001
1001
0110
1010
,
0101
1100
0011
0110
,
1001
0000
1100
0000
0101
0000
0011
0001
,
1001
0110
1001
0011
,
1M00
0000
0100
0000
,
M000
0000
0000
0000
0000
0000
0000
0000
10M0
0000
0000
0100
0000
0000
0010
0000
,
0M01
0000
0010
0100
0000
0000
0000
0000
,
0M10
0000
0001
0100
000M
0000
0000
0000
,
1010
0000
0100
0000
,
0010
0000
0000
0000
0000
0000
0000
0000
1010
0000
0000
1000
0000
0000
0001
0000
,
0011
0000
0001
1000
0000
0000
0000
0000
,
1000
0010
0100
0010
1000
0001
0100
0001
1000
0100
0010
0100
1000
0001
0010
0001
,
1000
1001
0101
0101
,
1010
0000
1010
0000
0110
0000
0110
0100
,
0101
0101
1001
1001
,
0101
0000
1001
0000
0101
0000
1010
0010
,
0110
1010
0101
1010
,
0110
1010
1100
1010
,
0101
0000
1001
0000
1100
0000
1001
0001
,
1000
0001
0010
0001
1000
0100
0010
0001
1000
0010
0100
0010
1000
0001
0100
0010
,
1000
0001
1000
0000
0001
1000
0001
0000
1000
0001
1000
0000
0001
1000
0001
0000
,
1000
0010
1000
0000
0010
1000
0010
0000
0100
0010
0100
0000
0010
0100
0010
0000
,
0001
0010
0001
0000
0010
0001
0010
0000
0001
0010
0001
0000
0010
0001
0010
0000
,
1000
0001
1000
0000
0001
1000
0001
0000
0100
0001
0100
0000
0001
0100
0001
0000
,
1000
0100
1000
0000
0100
1000
0100
0000
1000
0100
1000
0000
0100
1000
0100
0000
,
0010
0001
0010
0000
0001
0010
0001
0000
0010
0100
0010
0000
0100
0010
0100
0000
,
1000
0001
1000
0000
0001
1000
0001
0000
1000
0001
1000
0000
0001
1000
0001
0000
,
1000
0010
0100
0001
1000
0100
0010
0100
1000
0001
0100
0010
1000
0001
0010
0001
,
1000
0010
0100
0000
0010
0100
0010
0000
0100
0010
0100
0000
0010
0100
0010
0000
,
0100
0001
0010
0000
0001
0010
0001
0000
0010
0001
1000
0000
0001
1000
0001
0000
,
1000
0100
0010
0000
0100
0010
0100
0000
0010
0100
0010
0000
0100
0010
0100
0000
,
0010
0100
1000
0000
0100
1000
0100
0000
1000
0001
0100
0000
0001
0100
0001
0000
,
0100
0001
1000
0000
0001
1000
0001
0000
1000
0001
1000
0000
0001
1000
0001
0000
,
1000
0001
0010
0000
0001
0010
0001
0000
0010
0100
1000
0000
0100
1000
0100
0000
,
1000
0001
0100
0000
0001
0100
0001
0000
0100
0001
0100
0000
0001
0100
0001
0000
,
0100
0010
1000
0010
0100
0001
0010
0001
1000
0100
0010
0100
1000
0001
0100
0001
,
0010
0011
0110
1001
,
1100
0000
1100
0000
0101
0000
1001
0001
,
0101
0101
1010
0110
,
1001
0000
1001
0000
0011
0000
1010
1000
,
1100
1100
1010
1100
,
0101
1001
0110
1001
,
1010
0000
1010
0000
0110
0000
1001
0001
,
1000
0010
0100
0010
1000
0001
0010
0100
1000
0001
0100
0001
0010
0100
1000
0001
,
0100
0110
0101
1010
,
1100
0000
0101
0000
1100
0000
0011
0001
,
0101
0110
1001
1010
,
1100
0000
0011
0000
0101
0000
0011
0010
,
0110
1001
1100
1001
,
0110
0011
0101
0011
,
1100
0000
0101
0000
1001
0000
0101
0001
,
1M1M
MM11
1M1M
MM11
,
1000
0001
0100
0001
0010
0001
0100
0001
,
1000
0001
0100
0001
0010
0001
0100
0001
,
1000
0100
0010
0100
1000
0001
0100
0001
,
1000
0100
0010
0100
1000
0001
0100
0001
,
1000
0100
0010
0100
0001
0100
0010
0100
,
1000
0100
0010
0100
0001
0100
0010
0100
,
1000
0001
0100
0010
0001
1000
0001
0010
,
0100
0001
0010
0001
1000
0100
0010
0001
0100
0010
1000
0010
0100
0001
0010
0001
,
1000
0100
0100
0001
1000
0010
0010
0001
,
1000
0100
0100
0001
1000
0010
0010
0001
,
1000
0100
0100
0010
1000
0010
0010
0100
,
1000
0100
0100
0010
1000
0010
0010
0100
,
1000
0100
0100
0001
0100
0100
0010
0010
,
1000
0100
0100
0001
0100
0100
0010
0010
,
1000
0010
0010
0100
0001
0001
0010
0010
,
1000
0100
0100
0001
0001
0010
0100
0100
,
1000
0001
0100
0000
0001
0100
0001
0000
0100
0001
0100
0000
0001
0100
0001
0000
,
1000
0100
0010
0000
0100
0010
0100
0000
0010
0001
1000
0000
0001
1000
0001
0000
,
0100
0010
0001
0000
0010
0001
0010
0000
0001
0010
0001
0000
0010
0001
0010
0000
,
0100
0010
1000
0000
0010
1000
0010
0000
1000
0010
0100
0000
0010
0100
0010
0000
,
0100
0001
1000
0000
0001
1000
0001
0000
1000
0001
1000
0000
0001
1000
0001
0000
,
0100
0010
1000
0000
0010
1000
0010
0000
1000
0001
0100
0000
0001
0100
0001
0000
,
0010
0100
1000
0000
0100
1000
0100
0000
1000
0100
1000
0000
0100
1000
0100
0000
,
1000
0100
1000
0000
0100
1000
0100
0000
1000
0010
0100
0000
0010
0100
0010
0000
,
1010
1001
1100
1001
,
0101
0000
1010
0000
0101
0000
1010
1000
,
1001
0011
1100
0011
,
0101
0000
0110
0000
0101
0000
1001
0001
,
0101
0011
0101
1001
,
0101
1100
0110
1100
,
0101
0000
1010
0000
0011
0000
1010
1000
,
0001
0010
0100
0010
0001
1000
0010
0100
0001
1000
0100
1000
0001
0100
0010
1000
,
0010
1010
0110
1010
,
0101
0000
1100
0000
0101
0000
1001
0001
,
0101
0011
1100
0011
,
0110
0000
0110
0000
1001
0000
1010
1000
,
1001
1001
0110
1010
,
0101
1100
0011
0110
,
1001
0000
1100
0000
0101
0000
0011
0001
,
1001
0110
1001
0011
,
1M00
0000
0100
0000
,
M000
0000
0000
0000
0000
0000
0000
0000
10M0
0000
0000
0100
0000
0000
0010
0000
,
0M01
0000
0010
0100
0000
0000
0000
0000
,
0M10
0000
0001
0100
000M
0000
0000
0000
,
1010
0000
0100
0000
,
0010
0000
0000
0000
0000
0000
0000
0000
1010
0000
0000
1000
0000
0000
0001
0000
,
0011
0000
0001
1000
0000
0000
0000
0000
,
1000
0010
0100
0010
1000
0001
0100
0001
1000
0100
0010
0100
1000
0001
0010
0001
,
1000
1001
0101
0101
,
1010
0000
1010
0000
0110
0000
0110
0100
,
0101
0101
1001
1001
,
0101
0000
1001
0000
0101
0000
1010
0010
,
0110
1010
0101
1010
,
0110
1010
1100
1010
,
0101
0000
1001
0000
1100
0000
1001
0001
,
1000
0001
0010
0001
1000
0100
0010
0001
1000
0010
0100
0010
1000
0001
0100
0010
,
1000
0001
1000
0000
0001
1000
0001
0000
1000
0001
1000
0000
0001
1000
0001
0000
,
1000
0010
1000
0000
0010
1000
0010
0000
0100
0010
0100
0000
0010
0100
0010
0000
,
0001
0010
0001
0000
0010
0001
0010
0000
0001
0010
0001
0000
0010
0001
0010
0000
,
1000
0001
1000
0000
0001
1000
0001
0000
0100
0001
0100
0000
0001
0100
0001
0000
,
1000
0100
1000
0000
0100
1000
0100
0000
1000
0100
1000
0000
0100
1000
0100
0000
,
0010
0001
0010
0000
0001
0010
0001
0000
0010
0100
0010
0000
0100
0010
0100
0000
,
1000
0001
1000
0000
0001
1000
0001
0000
1000
0001
1000
0000
0001
1000
0001
0000
,
1000
0010
0100
0001
1000
0100
0010
0100
1000
0001
0100
0010
1000
0001
0010
0001
,
1000
0010
0100
0000
0010
0100
0010
0000
0100
0010
0100
0000
0010
0100
0010
0000
,
0100
0001
0010
0000
0001
0010
0001
0000
0010
0001
1000
0000
0001
1000
0001
0000
,
1000
0100
0010
0000
0100
0010
0100
0000
0010
0100
0010
0000
0100
0010
0100
0000
,
0010
0100
1000
0000
0100
1000
0100
0000
1000
0001
0100
0000
0001
0100
0001
0000
,
0100
0001
1000
0000
0001
1000
0001
0000
1000
0001
1000
0000
0001
1000
0001
0000
,
1000
0001
0010
0000
0001
0010
0001
0000
0010
0100
1000
0000
0100
1000
0100
0000
,
1000
0001
0100
0000
0001
0100
0001
0000
0100
0001
0100
0000
0001
0100
0001
0000
,
0100
0010
1000
0010
0100
0001
0010
0001
1000
0100
0010
0100
1000
0001
0100
0001
,
0010
0011
0110
1001
,
1100
0000
1100
0000
0101
0000
1001
0001
,
0101
0101
1010
0110
,
1001
0000
1001
0000
0011
0000
1010
1000
,
1100
1100
1010
1100
,
0101
1001
0110
1001
,
1010
0000
1010
0000
0110
0000
1001
0001
,
1000
0010
0100
0010
1000
0001
0010
0100
1000
0001
0100
0001
0010
0100
1000
0001
,
0100
0110
0101
1010
,
1100
0000
0101
0000
1100
0000
0011
0001
,
0101
0110
1001
1010
,
1100
0000
0011
0000
0101
0000
0011
0010
,
0110
1001
1100
1001
,
0110
0011
0101
0011
,
1100
0000
0101
0000
1001
0000
0101
0001
,
1M1M
MM11
1M1M
MM11
,
1000
0001
0100
0001
0010
0001
0100
0001
,
1000
0001
0100
0001
0010
0001
0100
0001
,
1000
0100
0010
0100
1000
0001
0100
0001
,
1000
0100
0010
0100
1000
0001
0100
0001
,
1000
0100
0010
0100
0001
0100
0010
0100
,
1000
0100
0010
0100
0001
0100
0010
0100
,
1000
0001
0100
0010
0001
1000
0001
0010
,
0100
0001
0010
0001
1000
0100
0010
0001
0100
0010
1000
0010
0100
0001
0010
0001
,
1000
0100
0100
0001
1000
0010
0010
0001
,
1000
0100
0100
0001
1000
0010
0010
0001
,
1000
0100
0100
0010
1000
0010
0010
0100
,
1000
0100
0100
0010
1000
0010
0010
0100
,
1000
0100
0100
0001
0100
0100
0010
0010
,
1000
0100
0100
0001
0100
0100
0010
0010
,
1000
0010
0010
0100
0001
0001
0010
0010
,
1000
0100
0100
0001
0001
0010
0100
0100
,
1000
0001
0100
0000
0001
0100
0001
0000
0100
0001
0100
0000
0001
0100
0001
0000
,
1000
0100
0010
0000
0100
0010
0100
0000
0010
0001
1000
0000
0001
1000
0001
0000
,
0100
0010
0001
0000
0010
0001
0010
0000
0001
0010
0001
0000
0010
0001
0010
0000
,
0100
0010
1000
0000
0010
1000
0010
0000
1000
0010
0100
0000
0010
0100
0010
0000
,
0100
0001
1000
0000
0001
1000
0001
0000
1000
0001
1000
0000
0001
1000
0001
0000
,
0100
0010
1000
0000
0010
1000
0010
0000
1000
0001
0100
0000
0001
0100
0001
0000
,
0010
0100
1000
0000
0100
1000
0100
0000
1000
0100
1000
0000
0100
1000
0100
0000
,
1000
0100
1000
0000
0100
1000
0100
0000
1000
0010
0100
0000
0010
0100
0010
0000
,
1010
1001
1100
1001
,
0101
0000
1010
0000
0101
0000
1010
1000
,
1001
0011
1100
0011
,
0101
0000
0110
0000
0101
0000
1001
0001
,
0101
0011
0101
1001
,
0101
1100
0110
1100
,
0101
0000
1010
0000
0011
0000
1010
1000
,
0001
0010
0100
0010
0001
1000
0010
0100
0001
1000
0100
1000
0001
0100
0010
1000
,
0010
1010
0110
1010
,
0101
0000
1100
0000
0101
0000
1001
0001
,
0101
0011
1100
0011
,
0110
0000
0110
0000
1001
0000
1010
1000
,
1001
1001
0110
1010
,
0101
1100
0011
0110
,
1001
0000
1100
0000
0101
0000
0011
0001
,
1001
0110
1001
0011
,
1M00
0000
0100
0000
,
M000
0000
0000
0000
0000
0000
0000
0000
10M0
0000
0000
0100
0000
0000
0010
0000
,
0M01
0000
0010
0100
0000
0000
0000
0000
,
0M10
0000
0001
0100
000M
0000
0000
0000
,
1010
0000
0100
0000
,
0010
0000
0000
0000
0000
0000
0000
0000
1010
0000
0000
1000
0000
0000
0001
0000
,
0011
0000
0001
1000
0000
0000
0000
0000
,
1000
0010
0100
0010
1000
0001
0100
0001
1000
0100
0010
0100
1000
0001
0010
0001
,
1000
1001
0101
0101
,
1010
0000
1010
0000
0110
0000
0110
0100
,
0101
0101
1001
1001
,
0101
0000
1001
0000
0101
0000
1010
0010
,
0110
1010
0101
1010
,
0110
1010
1100
1010
,
0101
0000
1001
0000
1100
0000
1001
0001
,
1000
0001
0010
0001
1000
0100
0010
0001
1000
0010
0100
0010
1000
0001
0100
0010
,
1000
0001
1000
0000
0001
1000
0001
0000
1000
0001
1000
0000
0001
1000
0001
0000
,
1000
0010
1000
0000
0010
1000
0010
0000
0100
0010
0100
0000
0010
0100
0010
0000
,
0001
0010
0001
0000
0010
0001
0010
0000
0001
0010
0001
0000
0010
0001
0010
0000
,
1000
0001
1000
0000
0001
1000
0001
0000
0100
0001
0100
0000
0001
0100
0001
0000
,
1000
0100
1000
0000
0100
1000
0100
0000
1000
0100
1000
0000
0100
1000
0100
0000
,
0010
0001
0010
0000
0001
0010
0001
0000
0010
0100
0010
0000
0100
0010
0100
0000
,
1000
0001
1000
0000
0001
1000
0001
0000
1000
0001
1000
0000
0001
1000
0001
0000
,
1000
0010
0100
0001
1000
0100
0010
0100
1000
0001
0100
0010
1000
0001
0010
0001
,
1000
0010
0100
0000
0010
0100
0010
0000
0100
0010
0100
0000
0010
0100
0010
0000
,
0100
0001
0010
0000
0001
0010
0001
0000
0010
0001
1000
0000
0001
1000
0001
0000
,
1000
0100
0010
0000
0100
0010
0100
0000
0010
0100
0010
0000
0100
0010
0100
0000
,
0010
0100
1000
0000
0100
1000
0100
0000
1000
0001
0100
0000
0001
0100
0001
0000
,
0100
0001
1000
0000
0001
1000
0001
0000
1000
0001
1000
0000
0001
1000
0001
0000
,
1000
0001
0010
0000
0001
0010
0001
0000
0010
0100
1000
0000
0100
1000
0100
0000
,
1000
0001
0100
0000
0001
0100
0001
0000
0100
0001
0100
0000
0001
0100
0001
0000
,
0100
0010
1000
0010
0100
0001
0010
0001
1000
0100
0010
0100
1000
0001
0100
0001
,
0010
0011
0110
1001
,
1100
0000
1100
0000
0101
0000
1001
0001
,
0101
0101
1010
0110
,
1001
0000
1001
0000
0011
0000
1010
1000
,
1100
1100
1010
1100
,
0101
1001
0110
1001
,
1010
0000
1010
0000
0110
0000
1001
0001
,
1000
0010
0100
0010
1000
0001
0010
0100
1000
0001
0100
0001
0010
0100
1000
0001
,
0100
0110
0101
1010
,
1100
0000
0101
0000
1100
0000
0011
0001
,
0101
0110
1001
1010
,
1100
0000
0011
0000
0101
0000
0011
0010
,
0110
1001
1100
1001
,
0110
0011
0101
0011
,
1100
0000
0101
0000
1001
0000
0101
0001
,
1M1M
MM11
1M1M
MM11
,
1000
0001
0100
0001
0010
0001
0100
0001
,
1000
0001
0100
0001
0010
0001
0100
0001
,
1000
0100
0010
0100
1000
0001
0100
0001
,
1000
0100
0010
0100
1000
0001
0100
0001
,
1000
0100
0010
0100
0001
0100
0010
0100
,
1000
0100
0010
0100
0001
0100
0010
0100
,
1000
0001
0100
0010
0001
1000
0001
0010
,
0100
0001
0010
0001
1000
0100
0010
0001
0100
0010
1000
0010
0100
0001
0010
0001
,
1000
0100
0100
0001
1000
0010
0010
0001
,
1000
0100
0100
0001
1000
0010
0010
0001
,
1000
0100
0100
0010
1000
0010
0010
0100
,
1000
0100
0100
0010
1000
0010
0010
0100
,
1000
0100
0100
0001
0100
0100
0010
0010
,
1000
0100
0100
0001
0100
0100
0010
0010
,
1000
0010
0010
0100
0001
0001
0010
0010
,
1000
0100
0100
0001
0001
0010
0100
0100
,
1000
0001
0100
0000
0001
0100
0001
0000
0100
0001
0100
0000
0001
0100
0001
0000
,
1000
0100
0010
0000
0100
0010
0100
0000
0010
0001
1000
0000
0001
1000
0001
0000
,
0100
0010
0001
0000
0010
0001
0010
0000
0001
0010
0001
0000
0010
0001
0010
0000
,
0100
0010
1000
0000
0010
1000
0010
0000
1000
0010
0100
0000
0010
0100
0010
0000
,
0100
0001
1000
0000
0001
1000
0001
0000
1000
0001
1000
0000
0001
1000
0001
0000
,
0100
0010
1000
0000
0010
1000
0010
0000
1000
0001
0100
0000
0001
0100
0001
0000
,
0010
0100
1000
0000
0100
1000
0100
0000
1000
0100
1000
0000
0100
1000
0100
0000
,
1000
0100
1000
0000
0100
1000
0100
0000
1000
0010
0100
0000
0010
0100
0010
0000
,
1010
1001
1100
1001
,
0101
0000
1010
0000
0101
0000
1010
1000
,
1001
0011
1100
0011
,
0101
0000
0110
0000
0101
0000
1001
0001
,
0101
0011
0101
1001
,
0101
1100
0110
1100
,
0101
0000
1010
0000
0011
0000
1010
1000
,
0001
0010
0100
0010
0001
1000
0010
0100
0001
1000
0100
1000
0001
0100
0010
1000
,
0010
1010
0110
1010
,
0101
0000
1100
0000
0101
0000
1001
0001
,
0101
0011
1100
0011
,
0110
0000
0110
0000
1001
0000
1010
1000
,
1001
1001
0110
1010
,
0101
1100
0011
0110
,
1001
0000
1100
0000
0101
0000
0011
0001
,
1001
0110
1001
0011
,
1M00
0000
0100
0000
,
M000
0000
0000
0000
0000
0000
0000
0000
10M0
0000
0000
0100
0000
0000
0010
0000
,
0M01
0000
0010
0100
0000
0000
0000
0000
,
0M10
0000
0001
0100
000M
0000
0000
0000
,
1010
0000
0100
0000
,
0010
0000
0000
0000
0000
0000
0000
0000
1010
0000
0000
1000
0000
0000
0001
0000
,
0011
0000
0001
1000
0000
0000
0000
0000
,
1000
0010
0100
0010
1000
0001
0100
0001
1000
0100
0010
0100
1000
0001
0010
0001
,
1000
1001
0101
0101
,
1010
0000
1010
0000
0110
0000
0110
0100
,
0101
0101
1001
1001
,
0101
0000
1001
0000
0101
0000
1010
0010
,
0110
1010
0101
1010
,
0110
1010
1100
1010
,
0101
0000
1001
0000
1100
0000
1001
0001
,
1000
0001
0010
0001
1000
0100
0010
0001
1000
0010
0100
0010
1000
0001
0100
0010
,
1000
0001
1000
0000
0001
1000
0001
0000
1000
0001
1000
0000
0001
1000
0001
0000
,
1000
0010
1000
0000
0010
1000
0010
0000
0100
0010
0100
0000
0010
0100
0010
0000
,
0001
0010
0001
0000
0010
0001
0010
0000
0001
0010
0001
0000
0010
0001
0010
0000
,
1000
0001
1000
0000
0001
1000
0001
0000
0100
0001
0100
0000
0001
0100
0001
0000
,
1000
0100
1000
0000
0100
1000
0100
0000
1000
0100
1000
0000
0100
1000
0100
0000
,
0010
0001
0010
0000
0001
0010
0001
0000
0010
0100
0010
0000
0100
0010
0100
0000
,
1000
0001
1000
0000
0001
1000
0001
0000
1000
0001
1000
0000
0001
1000
0001
0000
,
1000
0010
0100
0001
1000
0100
0010
0100
1000
0001
0100
0010
1000
0001
0010
0001
,
1000
0010
0100
0000
0010
0100
0010
0000
0100
0010
0100
0000
0010
0100
0010
0000
,
0100
0001
0010
0000
0001
0010
0001
0000
0010
0001
1000
0000
0001
1000
0001
0000
,
1000
0100
0010
0000
0100
0010
0100
0000
0010
0100
0010
0000
0100
0010
0100
0000
,
0010
0100
1000
0000
0100
1000
0100
0000
1000
0001
0100
0000
0001
0100
0001
0000
,
0100
0001
1000
0000
0001
1000
0001
0000
1000
0001
1000
0000
0001
1000
0001
0000
,
1000
0001
0010
0000
0001
0010
0001
0000
0010
0100
1000
0000
0100
1000
0100
0000
,
1000
0001
0100
0000
0001
0100
0001
0000
0100
0001
0100
0000
0001
0100
0001
0000
,
0100
0010
1000
0010
0100
0001
0010
0001
1000
0100
0010
0100
1000
0001
0100
0001
,
0010
0011
0110
1001
,
1100
0000
1100
0000
0101
0000
1001
0001
,
0101
0101
1010
0110
,
1001
0000
1001
0000
0011
0000
1010
1000
,
1100
1100
1010
1100
,
0101
1001
0110
1001
,
1010
0000
1010
0000
0110
0000
1001
0001
,
1000
0010
0100
0010
1000
0001
0010
0100
1000
0001
0100
0001
0010
0100
1000
0001
,
0100
0110
0101
1010
,
1100
0000
0101
0000
1100
0000
0011
0001
,
0101
0110
1001
1010
,
1100
0000
0011
0000
0101
0000
0011
0010
,
0110
1001
1100
1001
,
0110
0011
0101
0011
,
1100
0000
0101
0000
1001
0000
0101
0001
,
1M1M
MM11
1M1M
MM11
,
1000
0001
0100
0001
0010
0001
0100
0001
,
1000
0001
0100
0001
0010
0001
0100
0001
,
1000
0100
0010
0100
1000
0001
0100
0001
,
1000
0100
0010
0100
1000
0001
0100
0001
,
1000
0100
0010
0100
0001
0100
0010
0100
,
1000
0100
0010
0100
0001
0100
0010
0100
,
1000
0001
0100
0010
0001
1000
0001
0010
,
0100
0001
0010
0001
1000
0100
0010
0001
0100
0010
1000
0010
0100
0001
0010
0001
,
1000
0100
0100
0001
1000
0010
0010
0001
,
1000
0100
0100
0001
1000
0010
0010
0001
,
1000
0100
0100
0010
1000
0010
0010
0100
,
1000
0100
0100
0010
1000
0010
0010
0100
,
1000
0100
0100
0001
0100
0100
0010
0010
,
1000
0100
0100
0001
0100
0100
0010
0010
,
1000
0010
0010
0100
0001
0001
0010
0010
,
1000
0100
0100
0001
0001
0010
0100
0100
,
1000
0001
0100
0000
0001
0100
0001
0000
0100
0001
0100
0000
0001
0100
0001
0000
,
1000
0100
0010
0000
0100
0010
0100
0000
0010
0001
1000
0000
0001
1000
0001
0000
,
0100
0010
0001
0000
0010
0001
0010
0000
0001
0010
0001
0000
0010
0001
0010
0000
,
0100
0010
1000
0000
0010
1000
0010
0000
1000
0010
0100
0000
0010
0100
0010
0000
,
0100
0001
1000
0000
0001
1000
0001
0000
1000
0001
1000
0000
0001
1000
0001
0000
,
0100
0010
1000
0000
0010
1000
0010
0000
1000
0001
0100
0000
0001
0100
0001
0000
,
0010
0100
1000
0000
0100
1000
0100
0000
1000
0100
1000
0000
0100
1000
0100
0000
,
1000
0100
1000
0000
0100
1000
0100
0000
1000
0010
0100
0000
0010
0100
0010
0000
,
1010
1001
1100
1001
,
0101
0000
1010
0000
0101
0000
1010
1000
,
1001
0011
1100
0011
,
0101
0000
0110
0000
0101
0000
1001
0001
,
0101
0011
0101
1001
,
0101
1100
0110
1100
,
0101
0000
1010
0000
0011
0000
1010
1000
,
0001
0010
0100
0010
0001
1000
0010
0100
0001
1000
0100
1000
0001
0100
0010
1000
,
0010
1010
0110
1010
,
0101
0000
1100
0000
0101
0000
1001
0001
,
0101
0011
1100
0011
,
0110
0000
0110
0000
1001
0000
1010
1000
,
1001
1001
0110
1010
,
0101
1100
0011
0110
,
1001
0000
1100
0000
0101
0000
0011
0001
,
1001
0110
1001
0011
,
1M00
0000
0100
0000
,
M000
0000
0000
0000
0000
0000
0000
0000
10M0
0000
0000
0100
0000
0000
0010
0000
,
0M01
0000
0010
0100
0000
0000
0000
0000
,
0M10
0000
0001
0100
000M
0000
0000
0000
,
1010
0000
0100
0000
,
0010
0000
0000
0000
0000
0000
0000
0000
1010
0000
0000
1000
0000
0000
0001
0000
,
0011
0000
0001
1000
0000
0000
0000
0000
,
1000
0010
0100
0010
1000
0001
0100
0001
1000
0100
0010
0100
1000
0001
0010
0001
,
1000
1001
0101
0101
,
1010
0000
1010
0000
0110
0000
0110
0100
,
0101
0101
1001
1001
,
0101
0000
1001
0000
0101
0000
1010
0010
,
0110
1010
0101
1010
,
0110
1010
1100
1010
,
0101
0000
1001
0000
1100
0000
1001
0001
,
1000
0001
0010
0001
1000
0100
0010
0001
1000
0010
0100
0010
1000
0001
0100
0010
,
1000
0001
1000
0000
0001
1000
0001
0000
1000
0001
1000
0000
0001
1000
0001
0000
,
1000
0010
1000
0000
0010
1000
0010
0000
0100
0010
0100
0000
0010
0100
0010
0000
,
0001
0010
0001
0000
0010
0001
0010
0000
0001
0010
0001
0000
0010
0001
0010
0000
,
1000
0001
1000
0000
0001
1000
0001
0000
0100
0001
0100
0000
0001
0100
0001
0000
,
1000
0100
1000
0000
0100
1000
0100
0000
1000
0100
1000
0000
0100
1000
0100
0000
,
0010
0001
0010
0000
0001
0010
0001
0000
0010
0100
0010
0000
0100
0010
0100
0000
,
1000
0001
1000
0000
0001
1000
0001
0000
1000
0001
1000
0000
0001
1000
0001
0000
,
1000
0010
0100
0001
1000
0100
0010
0100
1000
0001
0100
0010
1000
0001
0010
0001
,
1000
0010
0100
0000
0010
0100
0010
0000
0100
0010
0100
0000
0010
0100
0010
0000
,
0100
0001
0010
0000
0001
0010
0001
0000
0010
0001
1000
0000
0001
1000
0001
0000
,
1000
0100
0010
0000
0100
0010
0100
0000
0010
0100
0010
0000
0100
0010
0100
0000
,
0010
0100
1000
0000
0100
1000
0100
0000
1000
0001
0100
0000
0001
0100
0001
0000
,
0100
0001
1000
0000
0001
1000
0001
0000
1000
0001
1000
0000
0001
1000
0001
0000
,
1000
0001
0010
0000
0001
0010
0001
0000
0010
0100
1000
0000
0100
1000
0100
0000
,
1000
0001
0100
0000
0001
0100
0001
0000
0100
0001
0100
0000
0001
0100
0001
0000
,
0100
0010
1000
0010
0100
0001
0010
0001
1000
0100
0010
0100
1000
0001
0100
0001
,
0010
0011
0110
1001
,
1100
0000
1100
0000
0101
0000
1001
0001
,
0101
0101
1010
0110
,
1001
0000
1001
0000
0011
0000
1010
1000
,
1100
1100
1010
1100
,
0101
1001
0110
1001
,
1010
0000
1010
0000
0110
0000
1001
0001
,
1000
0010
0100
0010
1000
0001
0010
0100
1000
0001
0100
0001
0010
0100
1000
0001
,
0100
0110
0101
1010
,
1100
0000
0101
0000
1100
0000
0011
0001
,
0101
0110
1001
1010
,
1100
0000
0011
0000
0101
0000
0011
0010
,
0110
1001
1100
1001
,
0110
0011
0101
0011
,
1100
0000
0101
0000
1001
0000
0101
0001
,
1M1M
MM11
1M1M
MM11
,
1000
0001
0100
0001
0010
0001
0100
0001
,
1000
0001
0100
0001
0010
0001
0100
0001
,
1000
0100
0010
0100
1000
0001
0100
0001
,
1000
0100
0010
0100
1000
0001
0100
0001
,
1000
0100
0010
0100
0001
0100
0010
0100
,
1000
0100
0010
0100
0001
0100
0010
0100
,
1000
0001
0100
0010
0001
1000
0001
0010
,
0100
0001
0010
0001
1000
0100
0010
0001
0100
0010
1000
0010
0100
0001
0010
0001
,
1000
0100
0100
0001
1000
0010
0010
0001
,
1000
0100
0100
0001
1000
0010
0010
0001
,
1000
0100
0100
0010
1000
0010
0010
0100
,
1000
0100
0100
0010
1000
0010
0010
0100
,
1000
0100
0100
0001
0100
0100
0010
0010
,
1000
0100
0100
0001
0100
0100
0010
0010
,
1000
0010
0010
0100
0001
0001
0010
0010
,
1000
0100
0100
0001
0001
0010
0100
0100
,
1000
0001
0100
0000
0001
0100
0001
0000
0100
0001
0100
0000
0001
0100
0001
0000
,
1000
0100
0010
0000
0100
0010
0100
0000
0010
0001
1000
0000
0001
1000
0001
0000
,
0100
0010
0001
0000
0010
0001
0010
0000
0001
0010
0001
0000
0010
0001
0010
0000
,
0100
0010
1000
0000
0010
1000
0010
0000
1000
0010
0100
0000
0010
0100
0010
0000
,
0100
0001
1000
0000
0001
1000
0001
0000
1000
0001
1000
0000
0001
1000
0001
0000
,
0100
0010
1000
0000
0010
1000
0010
0000
1000
0001
0100
0000
0001
0100
0001
0000
,
0010
0100
1000
0000
0100
1000
0100
0000
1000
0100
1000
0000
0100
1000
0100
0000
,
1000
0100
1000
0000
0100
1000
0100
0000
1000
0010
0100
0000
0010
0100
0010
0000
,
1010
1001
1100
1001
,
0101
0000
1010
0000
0101
0000
1010
1000
,
1001
0011
1100
0011
,
0101
0000
0110
0000
0101
0000
1001
0001
,
0101
0011
0101
1001
,
0101
1100
0110
1100
,
0101
0000
1010
0000
0011
0000
1010
1000
,
0001
0010
0100
0010
0001
1000
0010
0100
0001
1000
0100
1000
0001
0100
0010
1000
,
0010
1010
0110
1010
,
0101
0000
1100
0000
0101
0000
1001
0001
,
0101
0011
1100
0011
,
0110
0000
0110
0000
1001
0000
1010
1000
,
1001
1001
0110
1010
,
0101
1100
0011
0110
,
1001
0000
1100
0000
0101
0000
0011
0001
,
1001
0110
1001
0011
,
1M00
0000
0100
0000
,
M000
0000
0000
0000
0000
0000
0000
0000
10M0
0000
0000
0100
0000
0000
0010
0000
,
0M01
0000
0010
0100
0000
0000
0000
0000
,
0M10
0000
0001
0100
000M
0000
0000
0000
,
1010
0000
0100
0000
,
0010
0000
0000
0000
0000
0000
0000
0000
1010
0000
0000
1000
0000
0000
0001
0000
,
0011
0000
0001
1000
0000
0000
0000
0000
,
1000
0010
0100
0010
1000
0001
0100
0001
1000
0100
0010
0100
1000
0001
0010
0001
,
1000
1001
0101
0101
,
1010
0000
1010
0000
0110
0000
0110
0100
,
0101
0101
1001
1001
,
0101
0000
1001
0000
0101
0000
1010
0010
,
0110
1010
0101
1010
,
0110
1010
1100
1010
,
0101
0000
1001
0000
1100
0000
1001
0001
,
1000
0001
0010
0001
1000
0100
0010
0001
1000
0010
0100
0010
1000
0001
0100
0010
,
1000
0001
1000
0000
0001
1000
0001
0000
1000
0001
1000
0000
0001
1000
0001
0000
,
1000
0010
1000
0000
0010
1000
0010
0000
0100
0010
0100
0000
0010
0100
0010
0000
,
0001
0010
0001
0000
0010
0001
0010
0000
0001
0010
0001
0000
0010
0001
0010
0000
,
1000
0001
1000
0000
0001
1000
0001
0000
0100
0001
0100
0000
0001
0100
0001
0000
,
1000
0100
1000
0000
0100
1000
0100
0000
1000
0100
1000
0000
0100
1000
0100
0000
,
0010
0001
0010
0000
0001
0010
0001
0000
0010
0100
0010
0000
0100
0010
0100
0000
,
1000
0001
1000
0000
0001
1000
0001
0000
1000
0001
1000
0000
0001
1000
0001
0000
,
1000
0010
0100
0001
1000
0100
0010
0100
1000
0001
0100
0010
1000
0001
0010
0001
,
1000
0010
0100
0000
0010
0100
0010
0000
0100
0010
0100
0000
0010
0100
0010
0000
,
0100
0001
0010
0000
0001
0010
0001
0000
0010
0001
1000
0000
0001
1000
0001
0000
,
1000
0100
0010
0000
0100
0010
0100
0000
0010
0100
0010
0000
0100
0010
0100
0000
,
0010
0100
1000
0000
0100
1000
0100
0000
1000
0001
0100
0000
0001
0100
0001
0000
,
0100
0001
1000
0000
0001
1000
0001
0000
1000
0001
1000
0000
0001
1000
0001
0000
,
1000
0001
0010
0000
0001
0010
0001
0000
0010
0100
1000
0000
0100
1000
0100
0000
,
1000
0001
0100
0000
0001
0100
0001
0000
0100
0001
0100
0000
0001
0100
0001
0000
,
0100
0010
1000
0010
0100
0001
0010
0001
1000
0100
0010
0100
1000
0001
0100
0001
,
0010
0011
0110
1001
,
1100
0000
1100
0000
0101
0000
1001
0001
,
0101
0101
1010
0110
,
1001
0000
1001
0000
0011
0000
1010
1000
,
1100
1100
1010
1100
,
0101
1001
0110
1001
,
1010
0000
1010
0000
0110
0000
1001
0001
,
1000
0010
0100
0010
1000
0001
0010
0100
1000
0001
0100
0001
0010
0100
1000
0001
,
0100
0110
0101
1010
,
1100
0000
0101
0000
1100
0000
0011
0001
,
0101
0110
1001
1010
,
1100
0000
0011
0000
0101
0000
0011
0010
,
0110
1001
1100
1001
,
0110
0011
0101
0011
,
1100
0000
0101
0000
1001
0000
0101
0001
,
1M1M
MM11
1M1M
MM11
,
1000
0001
0100
0001
0010
0001
0100
0001
,
1000
0001
0100
0001
0010
0001
0100
0001
,
1000
0100
0010
0100
1000
0001
0100
0001
,
1000
0100
0010
0100
1000
0001
0100
0001
,
1000
0100
0010
0100
0001
0100
0010
0100
,
1000
0100
0010
0100
0001
0100
0010
0100
,
1000
0001
0100
0010
0001
1000
0001
0010
,
0100
0001
0010
0001
1000
0100
0010
0001
0100
0010
1000
0010
0100
0001
0010
0001
,
1000
0100
0100
0001
1000
0010
0010
0001
,
1000
0100
0100
0001
1000
0010
0010
0001
,
1000
0100
0100
0010
1000
0010
0010
0100
,
1000
0100
0100
0010
1000
0010
0010
0100
,
1000
0100
0100
0001
0100
0100
0010
0010
,
1000
0100
0100
0001
0100
0100
0010
0010
,
1000
0010
0010
0100
0001
0001
0010
0010
,
1000
0100
0100
0001
0001
0010
0100
0100
,
1000
0001
0100
0000
0001
0100
0001
0000
0100
0001
0100
0000
0001
0100
0001
0000
,
1000
0100
0010
0000
0100
0010
0100
0000
0010
0001
1000
0000
0001
1000
0001
0000
,
0100
0010
0001
0000
0010
0001
0010
0000
0001
0010
0001
0000
0010
0001
0010
0000
,
0100
0010
1000
0000
0010
1000
0010
0000
1000
0010
0100
0000
0010
0100
0010
0000
,
0100
0001
1000
0000
0001
1000
0001
0000
1000
0001
1000
0000
0001
1000
0001
0000
,
0100
0010
1000
0000
0010
1000
0010
0000
1000
0001
0100
0000
0001
0100
0001
0000
,
0010
0100
1000
0000
0100
1000
0100
0000
1000
0100
1000
0000
0100
1000
0100
0000
,
1000
0100
1000
0000
0100
1000
0100
0000
1000
0010
0100
0000
0010
0100
0010
0000
,
1010
1001
1100
1001
,
0101
0000
1010
0000
0101
0000
1010
1000
,
1001
0011
1100
0011
,
0101
0000
0110
0000
0101
0000
1001
0001
,
0101
0011
0101
1001
,
0101
1100
0110
1100
,
0101
0000
1010
0000
0011
0000
1010
1000
,
0001
0010
0100
0010
0001
1000
0010
0100
0001
1000
0100
1000
0001
0100
0010
1000
,
0010
1010
0110
1010
,
0101
0000
1100
0000
0101
0000
1001
0001
,
0101
0011
1100
0011
,
0110
0000
0110
0000
1001
0000
1010
1000
,
1001
1001
0110
1010
,
0101
1100
0011
0110
,
1001
0000
1100
0000
0101
0000
0011
0001
,
1001
0110
1001
0011
,
1M00
0000
0100
0000
,
M000
0000
0000
0000
0000
0000
0000
0000
10M0
0000
0000
0100
0000
0000
0010
0000
,
0M01
0000
0010
0100
0000
0000
0000
0000
,
0M10
0000
0001
0100
000M
0000
0000
0000
,
1010
0000
0100
0000
,
0010
0000
0000
0000
0000
0000
0000
0000
1010
0000
0000
1000
0000
0000
0001
0000
,
0011
0000
0001
1000
0000
0000
0000
0000
,
1000
0010
0100
0010
1000
0001
0100
0001
1000
0100
0010
0100
1000
0001
0010
0001
,
1000
1001
0101
0101
,
1010
0000
1010
0000
0110
0000
0110
0100
,
0101
0101
1001
1001
,
0101
0000
1001
0000
0101
0000
1010
0010
,
0110
1010
0101
1010
,
0110
1010
1100
1010
,
0101
0000
1001
0000
1100
0000
1001
0001
,
1000
0001
0010
0001
1000
0100
0010
0001
1000
0010
0100
0010
1000
0001
0100
0010
,
1000
0001
1000
0000
0001
1000
0001
0000
1000
0001
1000
0000
0001
1000
0001
0000
,
1000
0010
1000
0000
0010
1000
0010
0000
0100
0010
0100
0000
0010
0100
0010
0000
,
0001
0010
0001
0000
0010
0001
0010
0000
0001
0010
0001
0000
0010
0001
0010
0000
,
1000
0001
1000
0000
0001
1000
0001
0000
0100
0001
0100
0000
0001
0100
0001
0000
,
1000
0100
1000
0000
0100
1000
0100
0000
1000
0100
1000
0000
0100
1000
0100
0000
,
0010
0001
0010
0000
0001
0010
0001
0000
0010
0100
0010
0000
0100
0010
0100
0000
,
1000
0001
1000
0000
0001
1000
0001
0000
1000
0001
1000
0000
0001
1000
0001
0000
,
1000
0010
0100
0001
1000
0100
0010
0100
1000
0001
0100
0010
1000
0001
0010
0001
,
1000
0010
0100
0000
0010
0100
0010
0000
0100
0010
0100
0000
0010
0100
0010
0000
,
0100
0001
0010
0000
0001
0010
0001
0000
0010
0001
1000
0000
0001
1000
0001
0000
,
1000
0100
0010
0000
0100
0010
0100
0000
0010
0100
0010
0000
0100
0010
0100
0000
,
0010
0100
1000
0000
0100
1000
0100
0000
1000
0001
0100
0000
0001
0100
0001
0000
,
0100
0001
1000
0000
0001
1000
0001
0000
1000
0001
1000
0000
0001
1000
0001
0000
,
1000
0001
0010
0000
0001
0010
0001
0000
0010
0100
1000
0000
0100
1000
0100
0000
,
1000
0001
0100
0000
0001
0100
0001
0000
0100
0001
0100
0000
0001
0100
0001
0000
,
0100
0010
1000
0010
0100
0001
0010
0001
1000
0100
0010
0100
1000
0001
0100
0001
,
0010
0011
0110
1001
,
1100
0000
1100
0000
0101
0000
1001
0001
,
0101
0101
1010
0110
,
1001
0000
1001
0000
0011
0000
1010
1000
,
1100
1100
1010
1100
,
0101
1001
0110
1001
,
1010
0000
1010
0000
0110
0000
1001
0001
,
1000
0010
0100
0010
1000
0001
0010
0100
1000
0001
0100
0001
0010
0100
1000
0001
,
0100
0110
0101
1010
,
1100
0000
0101
0000
1100
0000
0011
0001
,
0101
0110
1001
1010
,
1100
0000
0011
0000
0101
0000
0011
0010
,
0110
1001
1100
1001
,
0110
0011
0101
0011
,
1100
0000
0101
0000
1001
0000
0101
0001
,
1M1M
MM11
1M1M
MM11
,
1000
0001
0100
0001
0010
0001
0100
0001
,
1000
0001
0100
0001
0010
0001
0100
0001
,
1000
0100
0010
0100
1000
0001
0100
0001
,
1000
0100
0010
0100
1000
0001
0100
0001
,
1000
0100
0010
0100
0001
0100
0010
0100
,
1000
0100
0010
0100
0001
0100
0010
0100
,
1000
0001
0100
0010
0001
1000
0001
0010
,
0100
0001
0010
0001
1000
0100
0010
0001
0100
0010
1000
0010
0100
0001
0010
0001
,
1000
0100
0100
0001
1000
0010
0010
0001
,
1000
0100
0100
0001
1000
0010
0010
0001
,
1000
0100
0100
0010
1000
0010
0010
0100
,
1000
0100
0100
0010
1000
0010
0010
0100
,
1000
0100
0100
0001
0100
0100
0010
0010
,
1000
0100
0100
0001
0100
0100
0010
0010
,
1000
0010
0010
0100
0001
0001
0010
0010
,
1000
0100
0100
0001
0001
0010
0100
0100
,
1000
0001
0100
0000
0001
0100
0001
0000
0100
0001
0100
0000
0001
0100
0001
0000
,
1000
0100
0010
0000
0100
0010
0100
0000
0010
0001
1000
0000
0001
1000
0001
0000
,
0100
0010
0001
0000
0010
0001
0010
0000
0001
0010
0001
0000
0010
0001
0010
0000
,
0100
0010
1000
0000
0010
1000
0010
0000
1000
0010
0100
0000
0010
0100
0010
0000
,
0100
0001
1000
0000
0001
1000
0001
0000
1000
0001
1000
0000
0001
1000
0001
0000
,
0100
0010
1000
0000
0010
1000
0010
0000
1000
0001
0100
0000
0001
0100
0001
0000
,
0010
0100
1000
0000
0100
1000
0100
0000
1000
0100
1000
0000
0100
1000
0100
0000
,
1000
0100
1000
0000
0100
1000
0100
0000
1000
0010
0100
0000
0010
0100
0010
0000
,
1010
1001
1100
1001
,
0101
0000
1010
0000
0101
0000
1010
1000
,
1001
0011
1100
0011
,
0101
0000
0110
0000
0101
0000
1001
0001
,
0101
0011
0101
1001
,
0101
1100
0110
1100
,
0101
0000
1010
0000
0011
0000
1010
1000
,
0001
0010
0100
0010
0001
1000
0010
0100
0001
1000
0100
1000
0001
0100
0010
1000
,
0010
1010
0110
1010
,
0101
0000
1100
0000
0101
0000
1001
0001
,
0101
0011
1100
0011
,
0110
0000
0110
0000
1001
0000
1010
1000
,
1001
1001
0110
1010
,
0101
1100
0011
0110
,
1001
0000
1100
0000
0101
0000
0011
0001
,
1001
0110
1001
0011
,
1M00
0000
0100
0000
,
M000
0000
0000
0000
0000
0000
0000
0000
10M0
0000
0000
0100
0000
0000
0010
0000
,
0M01
0000
0010
0100
0000
0000
0000
0000
,
0M10
0000
0001
0100
000M
0000
0000
0000
,
M010
0000
0100
0000
,
000M
0000
0000
0000
0000
0000
0000
0000
M010
0000
0000
1000
0000
0000
0001
0000
,
0M10
0000
0001
1000
0000
0000
0000
0000
,
100M
0000
0001
0100
00M0
0000
0000
0000
,
M110
000M
0M00
00M0
M000
0M00
00M0
0000
0000
0000
0000
0000
0000
0000
0000
0000
;

//---------------dance-single - Geriatric Patrick----------------
#NOTES:
     dance-single:
     Geriatric Patrick:
     Hard:
     10:
     0.640,0.516,1.000,0.001,0.009:
0000
0000
0000
0000
,
0000
0000
0000
0000
,
0000
0000
0000
0000
,
0000
0000
0000
0000
,
0000
0000
0000
0000
,
0000
0000
0000
0000
,
0000
0000
0000
0000
,
0000
0000
0000
0000
,
00M1
0000
0M00
0000
,
0100
0000
0000
0000
0000
0000
0000
0000
M010
0000
0000
000M
0000
0000
0M00
0000
,
10M0
0000
0M00
000M
0000
0000
0000
0000
,
M001
0000
00M0
0M00
0010
0000
0000
0000
,
M100
0000
000M
0000
,
0010
0000
0000
0000
0000
0000
0000
0000
0M01
0000
0000
000M
0000
0000
M000
0000
,
01M0
0000
M000
000M
0000
0000
0000
0000
,
004M
0000
M430
0000
,
1300
1010
0110
1001
,
0101
0000
0011
0000
0101
0000
1010
0010
,
0100
1001
1100
0011
,
0101
0000
0110
0000
0101
0000
1001
1000
,
0100
0110
1100
1010
,
0110
1010
0101
0011
,
0101
0000
1010
0000
0101
0000
1001
1000
,
0400
0000
0340
0000
,
0130
0011
1100
1010
,
1100
0000
1001
0000
0101
0000
0011
0010
,
0100
1001
0101
1001
,
0110
0000
1010
0000
0110
0000
1001
0001
,
0010
0110
1100
1010
,
0101
1010
1001
0011
,
1100
0000
1010
0000
0110
0000
1010
1000
,
0004
0000
4003
0000
,
3100
0110
1001
0110
,
0101
0000
0011
0000
0101
0000
1100
1000
,
0001
1010
1001
0011
,
1100
0000
1010
0000
1100
0000
0101
0001
,
0010
1010
0011
1001
,
0101
1010
0101
0110
,
1001
0000
1010
0000
0101
0000
0110
0010
,
4000
0000
3004
0000
,
0013
0110
0011
1100
,
0011
0000
0101
0000
1001
0000
0110
0010
,
1000
1001
0011
0110
,
1001
0000
1100
0000
1001
0000
0101
0100
,
0010
1010
1100
0101
,
0011
0101
1100
0011
,
1100
0000
1010
0000
0110
0000
0101
0001
,
0040
0000
4030
0000
,
3010
1100
0011
1100
,
0110
0000
0101
0000
0011
0000
0110
0100
,
1000
0101
1010
0101
,
1100
0000
0110
0000
1001
0000
0110
0010
,
0001
1100
1001
1100
,
0011
1001
0011
0101
,
0110
0000
1001
0000
1010
0000
0101
0100
,
0010
1100
0110
1100
,
0001
1000
0100
1000
0001
0010
0100
0010
,
0001
1000
0100
1000
0001
0010
0100
0010
,
0001
0100
0010
0100
0001
1000
0100
1000
,
0001
0100
0010
0100
0001
1000
0100
1000
,
0001
0010
0100
0010
1000
0010
0100
0010
,
0001
0010
0100
0010
1000
0010
0100
0010
,
0001
0100
0010
1000
0100
0010
1000
0010
,
0400
0000
4300
0000
,
3001
0100
0010
1000
0001
0010
1000
0010
,
0001
0100
0010
1000
0001
0010
1000
0010
,
0001
0100
0010
1000
0100
0010
1000
0010
,
0001
0100
0010
1000
0100
0010
1000
0010
,
0001
0100
0010
0100
1000
0100
0010
0100
,
0001
0100
1000
0100
0010
0100
1000
0100
,
0001
0010
0100
1000
0010
0100
1000
0001
,
1000
0100
0010
1000
0100
0010
0001
0010
,
0100
1000
0010
1000
0100
0010
0001
0010
,
0100
1000
0010
1000
0100
0010
0001
0010
,
0100
1000
0001
1000
0100
0010
1000
0010
,
0100
1000
0001
1000
0100
0010
1000
0010
,
0100
1000
0010
0100
0001
0010
1000
0010
,
0100
1000
0010
0100
0001
0010
1000
0010
,
0100
1000
0010
0100
1000
0001
0010
0100
,
0001
0010
0100
0001
1000
0010
0100
1000
,
0010
0110
0101
1010
,
0101
0000
1001
0000
0110
0000
1001
0001
,
0010
1100
0110
1100
,
1010
0000
0110
0000
0101
0000
1010
1000
,
0001
0011
1001
1010
,
0101
0011
0101
1100
,
0101
0000
1010
0000
0110
0000
1010
1000
,
0004
0000
0043
0000
,
0130
0011
0101
1010
,
0110
0000
1001
0000
1100
0000
0011
0010
,
0100
1010
0110
0011
,
1100
0000
0101
0000
1010
0000
1001
0001
,
0100
0110
1010
1001
,
0101
0110
0011
1001
,
1100
0000
0101
0000
0011
0000
1010
0010
,
0100
0011
1100
0011
,
10M0
0000
0100
0000
,
0M00
0000
0000
0000
0000
0000
0000
0000
00M1
0000
0000
1000
0000
0000
0100
0000
,
001M
0000
0100
1000
0000
0000
0000
0000
,
M001
0000
0010
0100
00M0
0000
0000
0000
,
M100
0000
000M
0000
,
0010
0000
0000
0000
0000
0000
0000
0000
0M01
0000
0000
000M
0000
0000
M000
0000
,
01M0
0000
M000
000M
0000
0000
0000
0000
,
004M
0000
M430
0000
,
1300
1010
0110
1001
,
0101
0000
0011
0000
0101
0000
1010
0010
,
0100
1001
1100
0011
,
0101
0000
0110
0000
0101
0000
1001
1000
,
0100
0110
1100
1010
,
0110
1010
0101
0011
,
0101
0000
1010
0000
0101
0000
1001
1000
,
0400
0000
0340
0000
,
0130
0011
1100
1010
,
1100
0000
1001
0000
0101
0000
0011
0010
,
0100
1001
0101
1001
,
0110
0000
1010
0000
0110
0000
1001
0001
,
0010
0110
1100
1010
,
0101
1010
1001
0011
,
1100
0000
1010
0000
0110
0000
1010
1000
,
0004
0000
4003
0000
,
3100
0110
1001
0110
,
0101
0000
0011
0000
0101
0000
1100
1000
,
0001
1010
1001
0011
,
1100
0000
1010
0000
1100
0000
0101
0001
,
0010
1010
0011
1001
,
0101
1010
0101
0110
,
1001
0000
1010
0000
0101
0000
0110
0010
,
4000
0000
3004
0000
,
0013
0110
0011
1100
,
0011
0000
0101
0000
1001
0000
0110
0010
,
1000
1001
0011
0110
,
1001
0000
1100
0000
1001
0000
0101
0100
,
0010
1010
1100
0101
,
0011
0101
1100
0011
,
1100
0000
1010
0000
0110
0000
0101
0001
,
0040
0000
4030
0000
,
3010
1100
0011
1100
,
0110
0000
0101
0000
0011
0000
0110
0100
,
1000
0101
1010
0101
,
1100
0000
0110
0000
1001
0000
0110
0010
,
0001
1100
1001
1100
,
0011
1001
0011
0101
,
0110
0000
1001
0000
1010
0000
0101
0100
,
0010
1100
0110
1100
,
0001
1000
0100
1000
0001
0010
0100
0010
,
0001
1000
0100
1000
0001
0010
0100
0010
,
0001
0100
0010
0100
0001
1000
0100
1000
,
0001
0100
0010
0100
0001
1000
0100
1000
,
0001
0010
0100
0010
1000
0010
0100
0010
,
0001
0010
0100
0010
1000
0010
0100
0010
,
0001
0100
0010
1000
0100
0010
1000
0010
,
0400
0000
4300
0000
,
3001
0100
0010
1000
0001
0010
1000
0010
,
0001
0100
0010
1000
0001
0010
1000
0010
,
0001
0100
0010
1000
0100
0010
1000
0010
,
0001
0100
0010
1000
0100
0010
1000
0010
,
0001
0100
0010
0100
1000
0100
0010
0100
,
0001
0100
1000
0100
0010
0100
1000
0100
,
0001
0010
0100
1000
0010
0100
1000
0001
,
1000
0100
0010
1000
0100
0010
0001
0010
,
0100
1000
0010
1000
0100
0010
0001
0010
,
0100
1000
0010
1000
0100
0010
0001
0010
,
0100
1000
0001
1000
0100
0010
1000
0010
,
0100
1000
0001
1000
0100
0010
1000
0010
,
0100
1000
0010
0100
0001
0010
1000
0010
,
0100
1000
0010
0100
0001
0010
1000
0010
,
0100
1000
0010
0100
1000
0001
0010
0100
,
0001
0010
0100
0001
1000
0010
0100
1000
,
0010
0110
0101
1010
,
0101
0000
1001
0000
0110
0000
1001
0001
,
0010
1100
0110
1100
,
1010
0000
0110
0000
0101
0000
1010
1000
,
0001
0011
1001
1010
,
0101
0011
0101
1100
,
0101
0000
1010
0000
0110
0000
1010
1000
,
0004
0000
0043
0000
,
0130
0011
0101
1010
,
0110
0000
1001
0000
1100
0000
0011
0010
,
0100
1010
0110
0011
,
1100
0000
0101
0000
1010
0000
1001
0001
,
0100
0110
1010
1001
,
0101
0110
0011
1001
,
1100
0000
0101
0000
0011
0000
1010
0010
,
0100
0011
1100
0011
,
10M0
0000
0100
0000
,
0M00
0000
0000
0000
0000
0000
0000
0000
00M1
0000
0000
1000
0000
0000
0100
0000
,
001M
0000
0100
1000
0000
0000
0000
0000
,
M001
0000
0010
0100
00M0
0000
0000
0000
,
M100
0000
000M
0000
,
0010
0000
0000
0000
0000
0000
0000
0000
0M01
0000
0000
000M
0000
0000
M000
0000
,
01M0
0000
M000
000M
0000
0000
0000
0000
,
004M
0000
M430
0000
,
1300
1010
0110
1001
,
0101
0000
0011
0000
0101
0000
1010
0010
,
0100
1001
1100
0011
,
0101
0000
0110
0000
0101
0000
1001
1000
,
0100
0110
1100
1010
,
0110
1010
0101
0011
,
0101
0000
1010
0000
0101
0000
1001
1000
,
0400
0000
0340
0000
,
0130
0011
1100
1010
,
1100
0000
1001
0000
0101
0000
0011
0010
,
0100
1001
0101
1001
,
0110
0000
1010
0000
0110
0000
1001
0001
,
0010
0110
1100
1010
,
0101
1010
1001
0011
,
1100
0000
1010
0000
0110
0000
1010
1000
,
0004
0000
4003
0000
,
3100
0110
1001
0110
,
0101
0000
0011
0000
0101
0000
1100
1000
,
0001
1010
1001
0011
,
1100
0000
1010
0000
1100
0000
0101
0001
,
0010
1010
0011
1001
,
0101
1010
0101
0110
,
1001
0000
1010
0000
0101
0000
0110
0010
,
4000
0000
3004
0000
,
0013
0110
0011
1100
,
0011
0000
0101
0000
1001
0000
0110
0010
,
1000
1001
0011
0110
,
1001
0000
1100
0000
1001
0000
0101
0100
,
0010
1010
1100
0101
,
0011
0101
1100
0011
,
1100
0000
1010
0000
0110
0000
0101
0001
,
0040
0000
4030
0000
,
3010
1100
0011
1100
,
0110
0000
0101
0000
0011
0000
0110
0100
,
1000
0101
1010
0101
,
1100
0000
0110
0000
1001
0000
0110
0010
,
0001
1100
1001
1100
,
0011
1001
0011
0101
,
0110
0000
1001
0000
1010
0000
0101
0100
,
0010
1100
0110
1100
,
0001
1000
0100
1000
0001
0010
0100
0010
,
0001
1000
0100
1000
0001
0010
0100
0010
,
0001
0100
0010
0100
0001
1000
0100
1000
,
0001
0100
0010
0100
0001
1000
0100
1000
,
0001
0010
0100
0010
1000
0010
0100
0010
,
0001
0010
0100
0010
1000
0010
0100
0010
,
0001
0100
0010
1000
0100
0010
1000
0010
,
0400
0000
4300
0000
,
3001
0100
0010
1000
0001
0010
1000
0010
,
0001
0100
0010
1000
0001
0010
1000
0010
,
0001
0100
0010
1000
0100
0010
1000
0010
,
0001
0100
0010
1000
0100
0010
1000
0010
,
0001
0100
0010
0100
1000
0100
0010
0100
,
0001
0100
1000
0100
0010
0100
1000
0100
,
0001
0010
0100
1000
0010
0100
1000
0001
,
1000
0100
0010
1000
0100
0010
0001
0010
,
0100
1000
0010
1000
0100
0010
0001
0010
,
0100
1000
0010
1000
0100
0010
0001
0010
,
0100
1000
0001
1000
0100
0010
1000
0010
,
0100
1000
0001
1000
0100
0010
1000
0010
,
0100
1000
0010
0100
0001
0010
1000
0010
,
0100
1000
0010
0100
0001
0010
1000
0010
,
0100
1000
0010
0100
1000
0001
0010
0100
,
0001
0010
0100
0001
1000
0010
0100
1000
,
0010
0110
0101
1010
,
0101
0000
1001
0000
0110
0000
1001
0001
,
0010
1100
0110
1100
,
1010
0000
0110
0000
0101
0000
1010
1000
,
0001
0011
1001
1010
,
0101
0011
0101
1100
,
0101
0000
1010
0000
0110
0000
1010
1000
,
0004
0000
0043
0000
,
0130
0011
0101
1010
,
0110
0000
1001
0000
1100
0000
0011
0010
,
0100
1010
0110
0011
,
1100
0000
0101
0000
1010
0000
1001
0001
,
0100
0110
1010
1001
,
0101
0110
0011
1001
,
1100
0000
0101
0000
0011
0000
1010
0010
,
0100
0011
1100
0011
,
10M0
0000
0100
0000
,
0M00
0000
0000
0000
0000
0000
0000
0000
00M1
0000
0000
1000
0000
0000
0100
0000
,
001M
0000
0100
1000
0000
0000
0000
0000
,
M001
0000
0010
0100
00M0
0000
0000
0000
,
M100
0000
000M
0000
,
0010
0000
0000
0000
0000
0000
0000
0000
0M01
0000
0000
000M
0000
0000
M000
0000
,
01M0
0000
M000
000M
0000
0000
0000
0000
,
004M
0000
M430
0000
,
1300
1010
0110
1001
,
0101
0000
0011
0000
0101
0000
1010
0010
,
0100
1001
1100
0011
,
0101
0000
0110
0000
0101
0000
1001
1000
,
0100
0110
1100
1010
,
0110
1010
0101
0011
,
0101
0000
1010
0000
0101
0000
1001
1000
,
0400
0000
0340
0000
,
0130
0011
1100
1010
,
1100
0000
1001
0000
0101
0000
0011
0010
,
0100
1001
0101
1001
,
0110
0000
1010
0000
0110
0000
1001
0001
,
0010
0110
1100
1010
,
0101
1010
1001
0011
,
1100
0000
1010
0000
0110
0000
1010
1000
,
0004
0000
4003
0000
,
3100
0110
1001
0110
,
0101
0000
0011
0000
0101
0000
1100
1000
,
0001
1010
1001
0011
,
1100
0000
1010
0000
1100
0000
0101
0001
,
0010
1010
0011
1001
,
0101
1010
0101
0110
,
1001
0000
1010
0000
0101
0000
0110
0010
,
4000
0000
3004
0000
,
0013
0110
0011
1100
,
0011
0000
0101
0000
1001
0000
0110
0010
,
1000
1001
0011
0110
,
1001
0000
1100
0000
1001
0000
0101
0100
,
0010
1010
1100
0101
,
0011
0101
1100
0011
,
1100
0000
1010
0000
0110
0000
0101
0001
,
0040
0000
4030
0000
,
3010
1100
0011
1100
,
0110
0000
0101
0000
0011
0000
0110
0100
,
1000
0101
1010
0101
,
1100
0000
0110
0000
1001
0000
0110
0010
,
0001
1100
1001
1100
,
0011
1001
0011
0101
,
0110
0000
1001
0000
1010
0000
0101
0100
,
0010
1100
0110
1100
,
0001
1000
0100
1000
0001
0010
0100
0010
,
0001
1000
0100
1000
0001
0010
0100
0010
,
0001
0100
0010
0100
0001
1000
0100
1000
,
0001
0100
0010
0100
0001
1000
0100
1000
,
0001
0010
0100
0010
1000
0010
0100
0010
,
0001
0010
0100
0010
1000
0010
0100
0010
,
0001
0100
0010
1000
0100
0010
1000
0010
,
0400
0000
4300
0000
,
3001
0100
0010
1000
0001
0010
1000
0010
,
0001
0100
0010
1000
0001
0010
1000
0010
,
0001
0100
0010
1000
0100
0010
1000
0010
,
0001
0100
0010
1000
0100
0010
1000
0010
,
0001
0100
0010
0100
1000
0100
0010
0100
,
0001
0100
1000
0100
0010
0100
1000
0100
,
0001
0010
0100
1000
0010
0100
1000
0001
,
1000
0100
0010
1000
0100
0010
0001
0010
,
0100
1000
0010
1000
0100
0010
0001
0010
,
0100
1000
0010
1000
0100
0010
0001
0010
,
0100
1000
0001
1000
0100
0010
1000
0010
,
0100
1000
0001
1000
0100
0010
1000
0010
,
0100
1000
0010
0100
0001
0010
1000
0010
,
0100
1000
0010
0100
0001
0010
1000
0010
,
0100
1000
0010
0100
1000
0001
0010
0100
,
0001
0010
0100
0001
1000
0010
0100
1000
,
0010
0110
0101
1010
,
0101
0000
1001
0000
0110
0000
1001
0001
,
0010
1100
0110
1100
,
1010
0000
0110
0000
0101
0000
1010
1000
,
0001
0011
1001
1010
,
0101
0011
0101
1100
,
0101
0000
1010
0000
0110
0000
1010
1000
,
0004
0000
0043
0000
,
0130
0011
0101
1010
,
0110
0000
1001
0000
1100
0000
0011
0010
,
0100
1010
0110
0011
,
1100
0000
0101
0000
1010
0000
1001
0001
,
0100
0110
1010
1001
,
0101
0110
0011
1001
,
1100
0000
0101
0000
0011
0000
1010
0010
,
0100
0011
1100
0011
,
10M0
0000
0100
0000
,
0M00
0000
0000
0000
0000
0000
0000
0000
00M1
0000
0000
1000
0000
0000
0100
0000
,
001M
0000
0100
1000
0000
0000
0000
0000
,
M001
0000
0010
0100
00M0
0000
0000
0000
,
M100
0000
000M
0000
,
0010
0000
0000
0000
0000
0000
0000
0000
0M01
0000
0000
000M
0000
0000
M000
0000
,
01M0
0000
M000
000M
0000
0000
0000
0000
,
004M
0000
M430
0000
,
1300
1010
0110
1001
,
0101
0000
0011
0000
0101
0000
1010
0010
,
0100
1001
1100
0011
,
0101
0000
0110
0000
0101
0000
1001
1000
,
0100
0110
1100
1010
,
0110
1010
0101
0011
,
0101
0000
1010
0000
0101
0000
1001
1000
,
0400
0000
0340
0000
,
0130
0011
1100
1010
,
1100
0000
1001
0000
0101
0000
0011
0010
,
0100
1001
0101
1001
,
0110
0000
1010
0000
0110
0000
1001
0001
,
0010
0110
1100
1010
,
0101
1010
1001
0011
,
1100
0000
1010
0000
0110
0000
1010
1000
,
0004
0000
4003
0000
,
3100
0110
1001
0110
,
0101
0000
0011
0000
0101
0000
1100
1000
,
0001
1010
1001
0011
,
1100
0000
1010
0000
1100
0000
0101
0001
,
0010
1010
0011
1001
,
0101
1010
0101
0110
,
1001
0000
1010
0000
0101
0000
0110
0010
,
4000
0000
3004
0000
,
0013
0110
0011
1100
,
0011
0000
0101
0000
1001
0000
0110
0010
,
1000
1001
0011
0110
,
1001
0000
1100
0000
1001
0000
0101
0100
,
0010
1010
1100
0101
,
0011
0101
1100
0011
,
1100
0000
1010
0000
0110
0000
0101
0001
,
0040
0000
4030
0000
,
3010
1100
0011
1100
,
0110
0000
0101
0000
0011
0000
0110
0100
,
1000
0101
1010
0101
,
1100
0000
0110
0000
1001
0000
0110
0010
,
0001
1100
1001
1100
,
0011
1001
0011
0101
,
0110
0000
1001
0000
1010
0000
0101
0100
,
0010
1100
0110
1100
,
0001
1000
0100
1000
0001
0010
0100
0010
,
0001
1000
0100
1000
0001
0010
0100
0010
,
0001
0100
0010
0100
0001
1000
0100
1000
,
0001
0100
0010
0100
0001
1000
0100
1000
,
0001
0010
0100
0010
1000
0010
0100
0010
,
0001
0010
0100
0010
1000
0010
0100
0010
,
0001
0100
0010
1000
0100
0010
1000
0010
,
0400
0000
4300
0000
,
3001
0100
0010
1000
0001
0010
1000
0010
,
0001
0100
0010
1000
0001
0010
1000
0010
,
0001
0100
0010
1000
0100
0010
1000
0010
,
0001
0100
0010
1000
0100
0010
1000
0010
,
0001
0100
0010
0100
1000
0100
0010
0100
,
0001
0100
1000
0100
0010
0100
1000
0100
,
0001
0010
0100
1000
0010
0100
1000
0001
,
1000
0100
0010
1000
0100
0010
0001
0010
,
0100
1000
0010
1000
0100
0010
0001
0010
,
0100
1000
0010
1000
0100
0010
0001
0010
,
0100
1000
0001
1000
0100
0010
1000
0010
,
0100
1000
0001
1000
0100
0010
1000
0010
,
0100
1000
0010
0100
0001
0010
1000
0010
,
0100
1000
0010
0100
0001
0010
1000
0010
,
0100
1000
0010
0100
1000
0001
0010
0100
,
0001
0010
0100
0001
1000
0010
0100
1000
,
0010
0110
0101
1010
,
0101
0000
1001
0000
0110
0000
1001
0001
,
0010
1100
0110
1100
,
1010
0000
0110
0000
0101
0000
1010
1000
,
0001
0011
1001
1010
,
0101
0011
0101
1100
,
0101
0000
1010
0000
0110
0000
1010
1000
,
0004
0000
0043
0000
,
0130
0011
0101
1010
,
0110
0000
1001
0000
1100
0000
0011
0010
,
0100
1010
0110
0011
,
1100
0000
0101
0000
1010
0000
1001
0001
,
0100
0110
1010
1001
,
0101
0110
0011
1001
,
1100
0000
0101
0000
0011
0000
1010
0010
,
0100
0011
1100
0011
,
10M0
0000
0100
0000
,
0M00
0000
0000
0000
0000
0000
0000
0000
00M1
0000
0000
1000
0000
0000
0100
0000
,
001M
0000
0100
1000
0000
0000
0000
0000
,
M001
0000
0010
0100
00M0
0000
0000
0000
,
M100
0000
000M
0000
,
0010
0000
0000
0000
0000
0000
0000
0000
0M01
0000
0000
000M
0000
0000
M000
0000
,
01M0
0000
M000
000M
0000
0000
0000
0000
,
004M
0000
M430
0000
,
1300
1010
0110
1001
,
0101
0000
0011
0000
0101
0000
1010
0010
,
0100
1001
1100
0011
,
0101
0000
0110
0000
0101
0000
1001
1000
,
0100
0110
1100
1010
,
0110
1010
0101
0011
,
0101
0000
1010
0000
0101
0000
1001
1000
,
0400
0000
0340
0000
,
0130
0011
1100
1010
,
1100
0000
1001
0000
0101
0000
0011
0010
,
0100
1001
0101
1001
,
0110
0000
1010
0000
0110
0000
1001
0001
,
0010
0110
1100
1010
,
0101
1010
1001
0011
,
1100
0000
1010
0000
0110
0000
1010
1000
,
0004
0000
4003
0000
,
3100
0110
1001
0110
,
0101
0000
0011
0000
0101
0000
1100
1000
,
0001
1010
1001
0011
,
1100
0000
1010
0000
1100
0000
0101
0001
,
0010
1010
0011
1001
,
0101
1010
0101
0110
,
1001
0000
1010
0000
0101
0000
0110
0010
,
4000
0000
3004
0000
,
0013
0110
0011
1100
,
0011
0000
0101
0000
1001
0000
0110
0010
,
1000
1001
0011
0110
,
1001
0000
1100
0000
1001
0000
0101
0100
,
0010
1010
1100
0101
,
0011
0101
1100
0011
,
1100
0000
1010
0000
0110
0000
0101
0001
,
0040
0000
4030
0000
,
3010
1100
0011
1100
,
0110
0000
0101
0000
0011
0000
0110
0100
,
1000
0101
1010
0101
,
1100
0000
0110
0000
1001
0000
0110
0010
,
0001
1100
1001
1100
,
0011
1001
0011
0101
,
0110
0000
1001
0000
1010
0000
0101
0100
,
0010
1100
0110
1100
,
0001
1000
0100
1000
0001
0010
0100
0010
,
0001
1000
0100
1000
0001
0010
0100
0010
,
0001
0100
0010
0100
0001
1000
0100
1000
,
0001
0100
0010
0100
0001
1000
0100
1000
,
0001
0010
0100
0010
1000
0010
0100
0010
,
0001
0010
0100
0010
1000
0010
0100
0010
,
0001
0100
0010
1000
0100
0010
1000
0010
,
0400
0000
4300
0000
,
3001
0100
0010
1000
0001
0010
1000
0010
,
0001
0100
0010
1000
0001
0010
1000
0010
,
0001
0100
0010
1000
0100
0010
1000
0010
,
0001
0100
0010
1000
0100
0010
1000
0010
,
0001
0100
0010
0100
1000
0100
0010
0100
,
0001
0100
1000
0100
0010
0100
1000
0100
,
0001
0010
0100
1000
0010
0100
1000
0001
,
1000
0100
0010
1000
0100
0010
0001
0010
,
0100
1000
0010
1000
0100
0010
0001
0010
,
0100
1000
0010
1000
0100
0010
0001
0010
,
0100
1000
0001
1000
0100
0010
1000
0010
,
0100
1000
0001
1000
0100
0010
1000
0010
,
0100
1000
0010
0100
0001
0010
1000
0010
,
0100
1000
0010
0100
0001
0010
1000
0010
,
0100
1000
0010
0100
1000
0001
0010
0100
,
0001
0010
0100
0001
1000
0010
0100
1000
,
0010
0110
0101
1010
,
0101
0000
1001
0000
0110
0000
1001
0001
,
0010
1100
0110
1100
,
1010
0000
0110
0000
0101
0000
1010
1000
,
0001
0011
1001
1010
,
0101
0011
0101
1100
,
0101
0000
1010
0000
0110
0000
1010
1000
,
0004
0000
0043
0000
,
0130
0011
0101
1010
,
0110
0000
1001
0000
1100
0000
0011
0010
,
0100
1010
0110
0011
,
1100
0000
0101
0000
1010
0000
1001
0001
,
0100
0110
1010
1001
,
0101
0110
0011
1001
,
1100
0000
0101
0000
0011
0000
1010
0010
,
0100
0011
1100
0011
,
10M0
0000
0100
0000
,
0M00
0000
0000
0000
0000
0000
0000
0000
00M1
0000
0000
1000
0000
0000
0100
0000
,
001M
0000
0100
1000
0000
0000
0000
0000
,
M001
0000
0010
0100
00M0
0000
0000
0000
,
M100
0000
000M
0000
,
0010
0000
0000
0000
0000
0000
0000
0000
0M01
0000
0000
000M
0000
0000
M000
0000
,
01M0
0000
M000
000M
0000
0000
0000
0000
,
004M
0000
M430
0000
,
1300
1010
0110
1001
,
0101
0000
0011
0000
0101
0000
1010
0010
,
0100
1001
1100
0011
,
0101
0000
0110
0000
0101
0000
1001
1000
,
0100
0110
1100
1010
,
0110
1010
0101
0011
,
0101
0000
1010
0000
0101
0000
1001
1000
,
0400
0000
0340
0000
,
0130
0011
1100
1010
,
1100
0000
1001
0000
0101
0000
0011
0010
,
0100
1001
0101
1001
,
0110
0000
1010
0000
0110
0000
1001
0001
,
0010
0110
1100
1010
,
0101
1010
1001
0011
,
1100
0000
1010
0000
0110
0000
1010
1000
,
0004
0000
4003
0000
,
3100
0110
1001
0110
,
0101
0000
0011
0000
0101
0000
1100
1000
,
0001
1010
1001
0011
,
1100
0000
1010
0000
1100
0000
0101
0001
,
0010
1010
0011
1001
,
0101
1010
0101
0110
,
1001
0000
1010
0000
0101
0000
0110
0010
,
4000
0000
3004
0000
,
0013
0110
0011
1100
,
0011
0000
0101
0000
1001
0000
0110
0010
,
1000
1001
0011
0110
,
1001
0000
1100
0000
1001
0000
0101
0100
,
0010
1010
1100
0101
,
0011
0101
1100
0011
,
1100
0000
1010
0000
0110
0000
0101
0001
,
0040
0000
4030
0000
,
3010
1100
0011
1100
,
0110
0000
0101
0000
0011
0000
0110
0100
,
1000
0101
1010
0101
,
1100
0000
0110
0000
1001
0000
0110
0010
,
0001
1100
1001
1100
,
0011
1001
0011
0101
,
0110
0000
1001
0000
1010
0000
0101
0100
,
0010
1100
0110
1100
,
0001
1000
0100
1000
0001
0010
0100
0010
,
0001
1000
0100
1000
0001
0010
0100
0010
,
0001
0100
0010
0100
0001
1000
0100
1000
,
0001
0100
0010
0100
0001
1000
0100
1000
,
0001
0010
0100
0010
1000
0010
0100
0010
,
0001
0010
0100
0010
1000
0010
0100
0010
,
0001
0100
0010
1000
0100
0010
1000
0010
,
0400
0000
4300
0000
,
3001
0100
0010
1000
0001
0010
1000
0010
,
0001
0100
0010
1000
0001
0010
1000
0010
,
0001
0100
0010
1000
0100
0010
1000
0010
,
0001
0100
0010
1000
0100
0010
1000
0010
,
0001
0100
0010
0100
1000
0100
0010
0100
,
0001
0100
1000
0100
0010
0100
1000
0100
,
0001
0010
0100
1000
0010
0100
1000
0001
,
1000
0100
0010
1000
0100
0010
0001
0010
,
0100
1000
0010
1000
0100
0010
0001
0010
,
0100
1000
0010
1000
0100
0010
0001
0010
,
0100
1000
0001
1000
0100
0010
1000
0010
,
0100
1000
0001
1000
0100
0010
1000
0010
,
0100
1000
0010
0100
0001
0010
1000
0010
,
0100
1000
0010
0100
0001
0010
1000
0010
,
0100
1000
0010
0100
1000
0001
0010
0100
,
0001
0010
0100
0001
1000
0010
0100
1000
,
0010
0110
0101
1010
,
0101
0000
1001
0000
0110
0000
1001
0001
,
0010
1100
0110
1100
,
1010
0000
0110
0000
0101
0000
1010
1000
,
0001
0011
1001
1010
,
0101
0011
0101
1100
,
0101
0000
1010
0000
0110
0000
1010
1000
,
0004
0000
0043
0000
,
0130
0011
0101
1010
,
0110
0000
1001
0000
1100
0000
0011
0010
,
0100
1010
0110
0011
,
1100
0000
0101
0000
1010
0000
1001
0001
,
0100
0110
1010
1001
,
0101
0110
0011
1001
,
1100
0000
0101
0000
0011
0000
1010
0010
,
0100
0011
1100
0011
,
10M0
0000
0100
0000
,
0M00
0000
0000
0000
0000
0000
0000
0000
00M1
0000
0000
1000
0000
0000
0100
0000
,
001M
0000
0100
1000
0000
0000
0000
0000
,
M001
0000
0010
0100
00M0
0000
0000
0000
,
M100
0000
000M
0000
,
0010
0000
0000
0000
0000
0000
0000
0000
0M01
0000
0000
000M
0000
0000
M000
0000
,
01M0
0000
M000
000M
0000
0000
0000
0000
,
004M
0000
M430
0000
,
1300
1010
0110
1001
,
0101
0000
0011
0000
0101
0000
1010
0010
,
0100
1001
1100
0011
,
0101
0000
0110
0000
0101
0000
1001
1000
,
0100
0110
1100
1010
,
0110
1010
0101
0011
,
0101
0000
1010
0000
0101
0000
1001
1000
,
0400
0000
0340
0000
,
0130
0011
1100
1010
,
1100
0000
1001
0000
0101
0000
0011
0010
,
0100
1001
0101
1001
,
0110
0000
1010
0000
0110
0000
1001
0001
,
0010
0110
1100
1010
,
0101
1010
1001
0011
,
1100
0000
1010
0000
0110
0000
1010
1000
,
0004
0000
4003
0000
,
3100
0110
1001
0110
,
0101
0000
0011
0000
0101
0000
1100
1000
,
0001
1010
1001
0011
,
1100
0000
1010
0000
1100
0000
0101
0001
,
0010
1010
0011
1001
,
0101
1010
0101
0110
,
1001
0000
1010
0000
0101
0000
0110
0010
,
4000
0000
3004
0000
,
0013
0110
0011
1100
,
0011
0000
0101
0000
1001
0000
0110
0010
,
1000
1001
0011
0110
,
1001
0000
1100
0000
1001
0000
0101
0100
,
0010
1010
1100
0101
,
0011
0101
1100
0011
,
1100
0000
1010
0000
0110
0000
0101
0001
,
0040
0000
4030
0000
,
3010
1100
0011
1100
,
0110
0000
0101
0000
0011
0000
0110
0100
,
1000
0101
1010
0101
,
1100
0000
0110
0000
1001
0000
0110
0010
,
0001
1100
1001
1100
,
0011
1001
0011
0101
,
0110
0000
1001
0000
1010
0000
0101
0100
,
0010
1100
0110
1100
,
0001
1000
0100
1000
0001
0010
0100
0010
,
0001
1000
0100
1000
0001
0010
0100
0010
,
0001
0100
0010
0100
0001
1000
0100
1000
,
0001
0100
0010
0100
0001
1000
0100
1000
,
0001
0010
0100
0010
1000
0010
0100
0010
,
0001
0010
0100
0010
1000
0010
0100
0010
,
0001
0100
0010
1000
0100
0010
1000
0010
,
0400
0000
4300
0000
,
3001
0100
0010
1000
0001
0010
1000
0010
,
0001
0100
0010
1000
0001
0010
1000
0010
,
0001
0100
0010
1000
0100
0010
1000
0010
,
0001
0100
0010
1000
0100
0010
1000
0010
,
0001
0100
0010
0100
1000
0100
0010
0100
,
0001
0100
1000
0100
0010
0100
1000
0100
,
0001
0010
0100
1000
0010
0100
1000
0001
,
1000
0100
0010
1000
0100
0010
0001
0010
,
0100
1000
0010
1000
0100
0010
0001
0010
,
0100
1000
0010
1000
0100
0010
0001
0010
,
0100
1000
0001
1000
0100
0010
1000
0010
,
0100
1000
0001
1000
0100
0010
1000
0010
,
0100
1000
0010
0100
0001
0010
1000
0010
,
0100
1000
0010
0100
0001
0010
1000
0010
,
0100
1000
0010
0100
1000
0001
0010
0100
,
0001
0010
0100
0001
1000
0010
0100
1000
,
0010
0110
0101
1010
,
0101
0000
1001
0000
0110
0000
1001
0001
,
0010
1100
0110
1100
,
1010
0000
0110
0000
0101
0000
1010
1000
,
0001
0011
1001
1010
,
0101
0011
0101
1100
,
0101
0000
1010
0000
0110
0000
1010
1000
,
0004
0000
0043
0000
,
0130
0011
0101
1010
,
0110
0000
1001
0000
1100
0000
0011
0010
,
0100
1010
0110
0011
,
1100
0000
0101
0000
1010
0000
1001
0001
,
0100
0110
1010
1001
,
0101
0110
0011
1001
,
1100
0000
0101
0000
0011
0000
1010
0010
,
0100
0011
1100
0011
,
10M0
0000
0100
0000
,
0M00
0000
0000
0000
0000
0000
0000
0000
00M1
0000
0000
1000
0000
0000
0100
0000
,
001M
0000
0100
1000
0000
0000
0000
0000
,
M001
0000
0010
0100
00M0
0000
0000
0000
,
M100
0000
000M
0000
,
0010
0000
0000
0000
0000
0000
0000
0000
0M01
0000
0000
000M
0000
0000
M000
0000
,
01M0
0000
M000
000M
0000
0000
0000
0000
,
004M
0000
M430
0000
,
1300
1010
0110
1001
,
0101
0000
0011
0000
0101
0000
1010
0010
,
0100
1001
1100
0011
,
0101
0000
0110
0000
0101
0000
1001
1000
,
0100
0110
1100
1010
,
0110
1010
0101
0011
,
0101
0000
1010
0000
0101
0000
1001
1000
,
0400
0000
0340
0000
,
0130
0011
1100
1010
,
1100
0000
1001
0000
0101
0000
0011
0010
,
0100
1001
0101
1001
,
0110
0000
1010
0000
0110
0000
1001
0001
,
0010
0110
1100
1010
,
0101
1010
1001
0011
,
1100
0000
1010
0000
0110
0000
1010
1000
,
0004
0000
4003
0000
,
3100
0110
1001
0110
,
0101
0000
0011
0000
0101
0000
1100
1000
,
0001
1010
1001
0011
,
1100
0000
1010
0000
1100
0000
0101
0001
,
0010
1010
0011
1001
,
0101
1010
0101
0110
,
1001
0000
1010
0000
0101
0000
0110
0010
,
4000
0000
3004
0000
,
0013
0110
0011
1100
,
0011
0000
0101
0000
1001
0000
0110
0010
,
1000
1001
0011
0110
,
1001
0000
1100
0000
1001
0000
0101
0100
,
0010
1010
1100
0101
,
0011
0101
1100
0011
,
1100
0000
1010
0000
0110
0000
0101
0001
,
0040
0000
4030
0000
,
3010
1100
0011
1100
,
0110
0000
0101
0000
0011
0000
0110
0100
,
1000
0101
1010
0101
,
1100
0000
0110
0000
1001
0000
0110
0010
,
0001
1100
1001
1100
,
0011
1001
0011
0101
,
0110
0000
1001
0000
1010
0000
0101
0100
,
0010
1100
0110
1100
,
0001
1000
0100
1000
0001
0010
0100
0010
,
0001
1000
0100
1000
0001
0010
0100
0010
,
0001
0100
0010
0100
0001
1000
0100
1000
,
0001
0100
0010
0100
0001
1000
0100
1000
,
0001
0010
0100
0010
1000
0010
0100
0010
,
0001
0010
0100
0010
1000
0010
0100
0010
,
0001
0100
0010
1000
0100
0010
1000
0010
,
0400
0000
4300
0000
,
3001
0100
0010
1000
0001
0010
1000
0010
,
0001
0100
0010
1000
0001
0010
1000
0010
,
0001
0100
0010
1000
0100
0010
1000
0010
,
0001
0100
0010
1000
0100
0010
1000
0010
,
0001
0100
0010
0100
1000
0100
0010
0100
,
0001
0100
1000
0100
0010
0100
1000
0100
,
0001
0010
0100
1000
0010
0100
1000
0001
,
1000
0100
0010
1000
0100
0010
0001
0010
,
0100
1000
0010
1000
0100
0010
0001
0010
,
0100
1000
0010
1000
0100
0010
0001
0010
,
0100
1000
0001
1000
0100
0010
1000
0010
,
0100
1000
0001
1000
0100
0010
1000
0010
,
0100
1000
0010
0100
0001
0010
1000
0010
,
0100
1000
0010
0100
0001
0010
1000
0010
,
0100
1000
0010
0100
1000
0001
0010
0100
,
0001
0010
0100
0001
1000
0010
0100
1000
,
0010
0110
0101
1010
,
0101
0000
1001
0000
0110
0000
1001
0001
,
0010
1100
0110
1100
,
1010
0000
0110
0000
0101
0000
1010
1000
,
0001
0011
1001
1010
,
0101
0011
0101
1100
,
0101
0000
1010
0000
0110
0000
1010
1000
,
0004
0000
0043
0000
,
0130
0011
0101
1010
,
0110
0000
1001
0000
1100
0000
0011
0010
,
0100
1010
0110
0011
,
1100
0000
0101
0000
1010
0000
1001
0001
,
0100
0110
1010
1001
,
0101
0110
0011
1001
,
1100
0000
0101
0000
0011
0000
1010
0010
,
0100
0011
1100
0011
,
10M0
0000
0100
0000
,
0M00
0000
0000
0000
0000
0000
0000
0000
00M1
0000
0000
1000
0000
0000
0100
0000
,
001M
0000
0100
1000
0000
0000
0000
0000
,
M001
0000
0010
0100
00M0
0000
0000
0000
,
M100
0000
000M
0000
,
0010
0000
0000
0000
0000
0000
0000
0000
0M01
0000
0000
000M
0000
0000
M000
0000
,
01M0
0000
M000
000M
0000
0000
0000
0000
,
004M
0000
M430
0000
,
1300
1010
0110
1001
,
0101
0000
0011
0000
0101
0000
1010
0010
,
0100
1001
1100
0011
,
0101
0000
0110
0000
0101
0000
1001
1000
,
0100
0110
1100
1010
,
0110
1010
0101
0011
,
0101
0000
1010
0000
0101
0000
1001
1000
,
0400
0000
0340
0000
,
0130
0011
1100
1010
,
1100
0000
1001
0000
0101
0000
0011
0010
,
0100
1001
0101
1001
,
0110
0000
1010
0000
0110
0000
1001
0001
,
0010
0110
1100
1010
,
0101
1010
1001
0011
,
1100
0000
1010
0000
0110
0000
1010
1000
,
0004
0000
4003
0000
,
3100
0110
1001
0110
,
0101
0000
0011
0000
0101
0000
1100
1000
,
0001
1010
1001
0011
,
1100
0000
1010
0000
1100
0000
0101
0001
,
0010
1010
0011
1001
,
0101
1010
0101
0110
,
1001
0000
1010
0000
0101
0000
0110
0010
,
4000
0000
3004
0000
,
0013
0110
0011
1100
,
0011
0000
0101
0000
1001
0000
0110
0010
,
1000
1001
0011
0110
,
1001
0000
1100
0000
1001
0000
0101
0100
,
0010
1010
1100
0101
,
0011
0101
1100
0011
,
1100
0000
1010
0000
0110
0000
0101
0001
,
0040
0000
4030
0000
,
3010
1100
0011
1100
,
0110
0000
0101
0000
0011
0000
0110
0100
,
1000
0101
1010
0101
,
1100
0000
0110
0000
1001
0000
0110
0010
,
0001
1100
1001
1100
,
0011
1001
0011
0101
,
0110
0000
1001
0000
1010
0000
0101
0100
,
0010
1100
0110
1100
,
0001
1000
0100
1000
0001
0010
0100
0010
,
0001
1000
0100
1000
0001
0010
0100
0010
,
0001
0100
0010
0100
0001
1000
0100
1000
,
0001
0100
0010
0100
0001
1000
0100
1000
,
0001
0010
0100
0010
1000
0010
0100
0010
,
0001
0010
0100
0010
1000
0010
0100
0010
,
0001
0100
0010
1000
0100
0010
1000
0010
,
0400
0000
4300
0000
,
3001
0100
0010
1000
0001
0010
1000
0010
,
0001
0100
0010
1000
0001
0010
1000
0010
,
0001
0100
0010
1000
0100
0010
1000
0010
,
0001
0100
0010
1000
0100
0010
1000
0010
,
0001
0100
0010
0100
1000
0100
0010
0100
,
0001
0100
1000
0100
0010
0100
1000
0100
,
0001
0010
0100
1000
0010
0100
1000
0001
,
1000
0100
0010
1000
0100
0010
0001
0010
,
0100
1000
0010
1000
0100
0010
0001
0010
,
0100
1000
0010
1000
0100
0010
0001
0010
,
0100
1000
0001
1000
0100
0010
1000
0010
,
0100
1000
0001
1000
0100
0010
1000
0010
,
0100
1000
0010
0100
0001
0010
1000
0010
,
0100
1000
0010
0100
0001
0010
1000
0010
,
0100
1000
0010
0100
1000
0001
0010
0100
,
0001
0010
0100
0001
1000
0010
0100
1000
,
0010
0110
0101
1010
,
0101
0000
1001
0000
0110
0000
1001
0001
,
0010
1100
0110
1100
,
1010
0000
0110
0000
0101
0000
1010
1000
,
0001
0011
1001
1010
,
0101
0011
0101
1100
,
0101
0000
1010
0000
0110
0000
1010
1000
,
0004
0000
0043
0000
,
0130
0011
0101
1010
,
0110
0000
1001
0000
1100
0000
0011
0010
,
0100
1010
0110
0011
,
1100
0000
0101
0000
1010
0000
1001
0001
,
0100
0110
1010
1001
,
0101
0110
0011
1001
,
1100
0000
0101
0000
0011
0000
1010
0010
,
0100
0011
1100
0011
,
10M0
0000
0100
0000
,
0M00
0000
0000
0000
0000
0000
0000
0000
00M1
0000
0000
1000
0000
0000
0100
0000
,
001M
0000
0100
1000
0000
0000
0000
0000
,
M001
0000
0010
0100
00M0
0000
0000
0000
,
M100
0000
000M
0000
,
0010
0000
0000
0000
0000
0000
0000
0000
0M01
0000
0000
000M
0000
0000
M000
0000
,
01M0
0000
M000
000M
0000
0000
0000
0000
,
004M
0000
M430
0000
,
1300
1010
0110
1001
,
0101
0000
0011
0000
0101
0000
1010
0010
,
0100
1001
1100
0011
,
0101
0000
0110
0000
0101
0000
1001
1000
,
0100
0110
1100
1010
,
0110
1010
0101
0011
,
0101
0000
1010
0000
0101
0000
1001
1000
,
0400
0000
0340
0000
,
0130
0011
1100
1010
,
1100
0000
1001
0000
0101
0000
0011
0010
,
0100
1001
0101
1001
,
0110
0000
1010
0000
0110
0000
1001
0001
,
0010
0110
1100
1010
,
0101
1010
1001
0011
,
1100
0000
1010
0000
0110
0000
1010
1000
,
0004
0000
4003
0000
,
3100
0110
1001
0110
,
0101
0000
0011
0000
0101
0000
1100
1000
,
0001
1010
1001
0011
,
1100
0000
1010
0000
1100
0000
0101
0001
,
0010
1010
0011
1001
,
0101
1010
0101
0110
,
1001
0000
1010
0000
0101
0000
0110
0010
,
4000
0000
3004
0000
,
0013
0110
0011
1100
,
0011
0000
0101
0000
1001
0000
0110
0010
,
1000
1001
0011
0110
,
1001
0000
1100
0000
1001
0000
0101
0100
,
0010
1010
1100
0101
,
0011
0101
1100
0011
,
1100
0000
1010
0000
0110
0000
0101
0001
,
0040
0000
4030
0000
,
3010
1100
0011
1100
,
0110
0000
0101
0000
0011
0000
0110
0100
,
1000
0101
1010
0101
,
1100
0000
0110
0000
1001
0000
0110
0010
,
0001
1100
1001
1100
,
0011
1001
0011
0101
,
0110
0000
1001
0000
1010
0000
0101
0100
,
0010
1100
0110
1100
,
0001
1000
0100
1000
0001
0010
0100
0010
,
0001
1000
0100
1000
0001
0010
0100
0010
,
0001
0100
0010
0100
0001
1000
0100
1000
,
0001
0100
0010
0100
0001
1000
0100
1000
,
0001
0010
0100
0010
1000
0010
0100
0010
,
0001
0010
0100
0010
1000
0010
0100
0010
,
0001
0100
0010
1000
0100
0010
1000
0010
,
0400
0000
4300
0000
,
3001
0100
0010
1000
0001
0010
1000
0010
,
0001
0100
0010
1000
0001
0010
1000
0010
,
0001
0100
0010
1000
0100
0010
1000
0010
,
0001
0100
0010
1000
0100
0010
1000
0010
,
0001
0100
0010
0100
1000
0100
0010
0100
,
0001
0100
1000
0100
0010
0100
1000
0100
,
0001
0010
0100
1000
0010
0100
1000
0001
,
1000
0100
0010
1000
0100
0010
0001
0010
,
0100
1000
0010
1000
0100
0010
0001
0010
,
0100
1000
0010
1000
0100
0010
0001
0010
,
0100
1000
0001
1000
0100
0010
1000
0010
,
0100
1000
0001
1000
0100
0010
1000
0010
,
0100
1000
0010
0100
0001
0010
1000
0010
,
0100
1000
0010
0100
0001
0010
1000
0010
,
0100
1000
0010
0100
1000
0001
0010
0100
,
0001
0010
0100
0001
1000
0010
0100
1000
,
0010
0110
0101
1010
,
0101
0000
1001
0000
0110
0000
1001
0001
,
0010
1100
0110
1100
,
1010
0000
0110
0000
0101
0000
1010
1000
,
0001
0011
1001
1010
,
0101
0011
0101
1100
,
0101
0000
1010
0000
0110
0000
1010
1000
,
0004
0000
0043
0000
,
0130
0011
0101
1010
,
0110
0000
1001
0000
1100
0000
0011
0010
,
0100
1010
0110
0011
,
1100
0000
0101
0000
1010
0000
1001
0001
,
0100
0110
1010
1001
,
0101
0110
0011
1001
,
1100
0000
0101
0000
0011
0000
1010
0010
,
0100
0011
1100
0011
,
10M0
0000
0100
0000
,
0M00
0000
0000
0000
0000
0000
0000
0000
00M1
0000
0000
1000
0000
0000
0100
0000
,
001M
0000
0100
1000
0000
0000
0000
0000
,
M001
0000
0010
0100
00M0
0000
0000
0000
,
M100
0000
000M
0000
,
0010
0000
0000
0000
0000
0000
0000
0000
0M01
0000
0000
000M
0000
0000
M000
0000
,
01M0
0000
M000
000M
0000
0000
0000
0000
,
004M
0000
M430
0000
,
1300
1010
0110
1001
,
0101
0000
0011
0000
0101
0000
1010
0010
,
0100
1001
1100
0011
,
0101
0000
0110
0000
0101
0000
1001
1000
,
0100
0110
1100
1010
,
0110
1010
0101
0011
,
0101
0000
1010
0000
0101
0000
1001
1000
,
0400
0000
0340
0000
,
0130
0011
1100
1010
,
1100
0000
1001
0000
0101
0000
0011
0010
,
0100
1001
0101
1001
,
0110
0000
1010
0000
0110
0000
1001
0001
,
0010
0110
1100
1010
,
0101
1010
1001
0011
,
1100
0000
1010
0000
0110
0000
1010
1000
,
0004
0000
4003
0000
,
3100
0110
1001
0110
,
0101
0000
0011
0000
0101
0000
1100
1000
,
0001
1010
1001
0011
,
1100
0000
1010
0000
1100
0000
0101
0001
,
0010
1010
0011
1001
,
0101
1010
0101
0110
,
1001
0000
1010
0000
0101
0000
0110
0010
,
4000
0000
3004
0000
,
0013
0110
0011
1100
,
0011
0000
0101
0000
1001
0000
0110
0010
,
1000
1001
0011
0110
,
1001
0000
1100
0000
1001
0000
0101
0100
,
0010
1010
1100
0101
,
0011
0101
1100
0011
,
1100
0000
1010
0000
0110
0000
0101
0001
,
0040
0000
4030
0000
,
3010
1100
0011
1100
,
0110
0000
0101
0000
0011
0000
0110
0100
,
1000
0101
1010
0101
,
1100
0000
0110
0000
1001
0000
0110
0010
,
0001
1100
1001
1100
,
0011
1001
0011
0101
,
0110
0000
1001
0000
1010
0000
0101
0100
,
0010
1100
0110
1100
,
0001
1000
0100
1000
0001
0010
0100
0010
,
0001
1000
0100
1000
0001
0010
0100
0010
,
0001
0100
0010
0100
0001
1000
0100
1000
,
0001
0100
0010
0100
0001
1000
0100
1000
,
0001
0010
0100
0010
1000
0010
0100
0010
,
0001
0010
0100
0010
1000
0010
0100
0010
,
0001
0100
0010
1000
0100
0010
1000
0010
,
0400
0000
4300
0000
,
3001
0100
0010
1000
0001
0010
1000
0010
,
0001
0100
0010
1000
0001
0010
1000
0010
,
0001
0100
0010
1000
0100
0010
1000
0010
,
0001
0100
0010
1000
0100
0010
1000
0010
,
0001
0100
0010
0100
1000
0100
0010
0100
,
0001
0100
1000
0100
0010
0100
1000
0100
,
0001
0010
0100
1000
0010
0100
1000
0001
,
1000
0100
0010
1000
0100
0010
0001
0010
,
0100
1000
0010
1000
0100
0010
0001
0010
,
0100
1000
0010
1000
0100
0010
0001
0010
,
0100
1000
0001
1000
0100
0010
1000
0010
,
0100
1000
0001
1000
0100
0010
1000
0010
,
0100
1000
0010
0100
0001
0010
1000
0010
,
0100
1000
0010
0100
0001
0010
1000
0010
,
0100
1000
0010
0100
1000
0001
0010
0100
,
0001
0010
0100
0001
1000
0010
0100
1000
,
0010
0110
0101
1010
,
0101
0000
1001
0000
0110
0000
1001
0001
,
0010
1100
0110
1100
,
1010
0000
0110
0000
0101
0000
1010
1000
,
0001
0011
1001
1010
,
0101
0011
0101
1100
,
0101
0000
1010
0000
0110
0000
1010
1000
,
0004
0000
0043
0000
,
0130
0011
0101
1010
,
0110
0000
1001
0000
1100
0000
0011
0010
,
0100
1010
0110
0011
,
1100
0000
0101
0000
1010
0000
1001
0001
,
0100
0110
1010
1001
,
0101
0110
0011
1001
,
1100
0000
0101
0000
0011
0000
1010
0010
,
0100
0011
1100
0011
,
10M0
0000
0100
0000
,
0M00
0000
0000
0000
0000
0000
0000
0000
00M1
0000
0000
1000
0000
0000
0100
0000
,
001M
0000
0100
1000
0000
0000
0000
0000
,
M001
0000
0010
0100
00M0
0000
0000
0000
,
M100
0000
000M
0000
,
0010
0000
0000
0000
0000
0000
0000
0000
0M01
0000
0000
000M
0000
0000
M000
0000
,
01M0
0000
M000
000M
0000
0000
0000
0000
,
004M
0000
M430
0000
,
1300
1010
0110
1001
,
0101
0000
0011
0000
0101
0000
1010
0010
,
0100
1001
1100
0011
,
0101
0000
0110
0000
0101
0000
1001
1000
,
0100
0110
1100
1010
,
0110
1010
0101
0011
,
0101
0000
1010
0000
0101
0000
1001
1000
,
0400
0000
0340
0000
,
0130
0011
1100
1010
,
1100
0000
1001
0000
0101
0000
0011
0010
,
0100
1001
0101
1001
,
0110
0000
1010
0000
0110
0000
1001
0001
,
0010
0110
1100
1010
,
0101
1010
1001
0011
,
1100
0000
1010
0000
0110
0000
1010
1000
,
0004
0000
4003
0000
,
3100
0110
1001
0110
,
0101
0000
0011
0000
0101
0000
1100
1000
,
0001
1010
1001
0011
,
1100
0000
1010
0000
1100
0000
0101
0001
,
0010
1010
0011
1001
,
0101
1010
0101
0110
,
1001
0000
1010
0000
0101
0000
0110
0010
,
4000
0000
3004
0000
,
0013
0110
0011
1100
,
0011
0000
0101
0000
1001
0000
0110
0010
,
1000
1001
0011
0110
,
1001
0000
1100
0000
1001
0000
0101
0100
,
0010
1010
1100
0101
,
0011
0101
1100
0011
,
1100
0000
1010
0000
0110
0000
0101
0001
,
0040
0000
4030
0000
,
3010
1100
0011
1100
,
0110
0000
0101
0000
0011
0000
0110
0100
,
1000
0101
1010
0101
,
1100
0000
0110
0000
1001
0000
0110
0010
,
0001
1100
1001
1100
,
0011
1001
0011
0101
,
0110
0000
1001
0000
1010
0000
0101
0100
,
0010
1100
0110
1100
,
0001
1000
0100
1000
0001
0010
0100
0010
,
0001
1000
0100
1000
0001
0010
0100
0010
,
0001
0100
0010
0100
0001
1000
0100
1000
,
0001
0100
0010
0100
0001
1000
0100
1000
,
0001
0010
0100
0010
1000
0010
0100
0010
,
0001
0010
0100
0010
1000
0010
0100
0010
,
0001
0100
0010
1000
0100
0010
1000
0010
,
0400
0000
4300
0000
,
3001
0100
0010
1000
0001
0010
1000
0010
,
0001
0100
0010
1000
0001
0010
1000
0010
,
0001
0100
0010
1000
0100
0010
1000
0010
,
0001
0100
0010
1000
0100
0010
1000
0010
,
0001
0100
0010
0100
1000
0100
0010
0100
,
0001
0100
1000
0100
0010
0100
1000
0100
,
0001
0010
0100
1000
0010
0100
1000
0001
,
1000
0100
0010
1000
0100
0010
0001
0010
,
0100
1000
0010
1000
0100
0010
0001
0010
,
0100
1000
0010
1000
0100
0010
0001
0010
,
0100
1000
0001
1000
0100
0010
1000
0010
,
0100
1000
0001
1000
0100
0010
1000
0010
,
0100
1000
0010
0100
0001
0010
1000
0010
,
0100
1000
0010
0100
0001
0010
1000
0010
,
0100
1000
0010
0100
1000
0001
0010
0100
,
0001
0010
0100
0001
1000
0010
0100
1000
,
0010
0110
0101
1010
,
0101
0000
1001
0000
0110
0000
1001
0001
,
0010
1100
0110
1100
,
1010
0000
0110
0000
0101
0000
1010
1000
,
0001
0011
1001
1010
,
0101
0011
0101
1100
,
0101
0000
1010
0000
0110
0000
1010
1000
,
0004
0000
0043
0000
,
0130
0011
0101
1010
,
0110
0000
1001
0000
1100
0000
0011
0010
,
0100
1010
0110
0011
,
1100
0000
0101
0000
1010
0000
1001
0001
,
0100
0110
1010
1001
,
0101
0110
0011
1001
,
1100
0000
0101
0000
0011
0000
1010
0010
,
0100
0011
1100
0011
,
10M0
0000
0100
0000
,
0M00
0000
0000
0000
0000
0000
0000
0000
00M1
0000
0000
1000
0000
0000
0100
0000
,
001M
0000
0100
1000
0000
0000
0000
0000
,
M001
0000
0010
0100
00M0
0000
0000
0000
,
0M01
0000
1000
0000
,
00M0
0000
0000
0000
0000
0000
0000
0000
M100
0000
0000
1000
0000
0000
0001
0000
,
0M10
0000
0001
1000
0000
0000
0000
0000
,
M001
0000
1000
0100
00M0
0000
0000
0000
,
M020
0M00
000M
0M00
M000
000M
0M00
0000
0000
0000
0000
0000
0000
0000
0000
0000
,
0000
0000
0000
0000
,
0030
0000
0000
0000
;

//---------------dance-single - Geriatric Patrick----------------
#NOTES:
     dance-single:
     Geriatric Patrick:
     Medium:
     8:
     0.446,0.516,0.231,0.000,0.009:
0000
0000
0000
0000
,
0000
0000
0000
0000
,
0000
0000
0000
0000
,
0000
0000
0000
0000
,
0000
0000
0000
0000
,
0000
0000
0000
0000
,
0000
0000
0000
0000
,
0000
0000
0000
0000
,
0010
0000
0100
0000
,
0000
0000
0000
0000
0000
0000
0000
0000
1000
0000
0000
0001
0000
0000
0100
0000
,
0010
0000
0100
0001
0000
0000
0000
0000
,
1000
0000
0010
0100
0000
0000
0000
0000
,
1000
0000
0001
0000
,
0000
0000
0000
0000
0000
0000
0000
0000
0100
0000
0000
0001
0000
0000
1000
0000
,
0010
0000
1000
0001
0000
0000
0000
0000
,
4000
0000
3040
0000
,
0130
0001
0010
0001
,
1000
0000
0001
0000
0010
0000
0001
0001
,
0100
0001
0010
0100
,
1000
0000
0100
0000
0010
0000
0100
1000
,
0001
0100
0010
0100
,
1000
0100
0010
0100
,
0001
0000
1000
0000
0001
0000
1000
1000
,
0040
0000
0430
0000
,
0301
000M
0001
000M
0001
000M
0001
0000
,
0010
00M0
0010
0000
0100
0M00
0100
0000
,
0001
000M
0001
000M
0001
000M
0001
0000
,
1000
M000
1000
0000
0001
000M
0001
0000
,
0100
0M00
0100
0M00
0100
0M00
0100
0000
,
0010
00M0
0010
0000
0100
0M00
0100
0000
,
0001
000M
0001
000M
0001
000M
0001
0000
,
4000
0000
3004
0000
,
0103
0M00
0100
0M00
0100
0M00
0100
0000
,
0010
00M0
0010
0000
1000
M000
1000
0000
,
0001
000M
0001
000M
0001
000M
0001
0000
,
0010
00M0
0010
0000
0100
0M00
0100
0000
,
1000
M000
1000
M000
1000
M000
1000
0000
,
0010
00M0
0010
0000
0100
0M00
0100
0000
,
1000
M000
1000
M000
1000
M000
1000
0000
,
0040
0000
4030
0000
,
3100
1000
0010
1000
,
0001
0000
1000
0000
0010
0000
1000
1000
,
0100
1000
0010
0100
,
0001
0000
0100
0000
0010
0000
0100
0001
,
1000
0100
0010
0100
,
0001
0100
0010
0100
,
1000
0000
0001
0000
1000
0000
0001
0001
,
0040
0000
0430
0000
,
1300
0010
0100
0001
,
1000
0000
0001
0000
0100
0000
0010
0010
,
0100
0001
0010
0001
,
1000
0000
0100
0000
1000
0000
0001
0010
,
0100
1000
0010
1000
,
0001
0010
1000
0010
,
0001
0000
0100
0000
0010
0000
0100
0100
,
0001
1100
0001
1100
,
0001
1000
0100
1000
0010
1000
0100
1000
,
0001
1000
0100
1000
0010
1000
0100
1000
,
0001
0100
0010
0100
0001
1000
0100
1000
,
0001
0100
0010
0100
0001
1000
0100
1000
,
0001
0010
0100
1000
0001
0100
0010
0100
,
0001
0010
0100
1000
0001
0100
0010
0100
,
0001
1000
0100
0010
0001
0100
0010
0010
,
0400
0000
0304
0000
,
1003
0001
0100
0001
0010
0001
0100
0001
,
1000
0001
0100
0001
0010
0001
0100
0001
,
1000
0100
0010
0100
1000
0001
0100
0001
,
1000
0100
0010
0100
1000
0001
0100
0001
,
1000
0010
0100
0001
1000
0100
0010
0100
,
1000
0010
0100
0001
1000
0100
0010
0100
,
1000
0001
0100
0010
1000
0100
0010
0010
,
0100
1000
0010
0100
0001
0100
0010
1000
,
0100
0M00
0100
0M00
0100
0M00
0100
0000
,
0010
00M0
0010
0000
0100
0M00
0100
0000
,
0001
000M
0001
000M
0001
000M
0001
0000
,
0100
0M00
0100
0000
1000
M000
1000
0000
,
0100
0M00
0100
0M00
0100
0M00
0100
0000
,
0010
00M0
0010
0000
0100
0M00
0100
0000
,
0001
000M
0001
000M
0001
000M
0001
000M
,
0001
000M
0001
0000
0010
00M0
0010
0000
,
0100
0110
1000
1010
,
0001
0000
1001
0000
0010
0000
0011
0001
,
0100
0101
1000
1100
,
0001
0000
0011
0000
1000
0000
0011
0001
,
1000
1010
0001
0110
,
1000
1100
0001
0110
,
0001
0000
1010
0000
0100
0000
1001
0001
,
0400
0000
0340
0000
,
0130
0101
1000
1010
,
0001
0000
0101
0000
1000
0000
1100
0100
,
0010
0011
1000
1001
,
0010
0000
0110
0000
0001
0000
0101
0001
,
1000
1001
0100
1010
,
0010
0110
0100
1001
,
0100
0000
0011
0000
1000
0000
0011
0001
,
0100
0011
0100
0011
,
10M0
0000
0M00
0000
,
0001
0000
0000
0000
0000
0000
0000
0000
M010
0000
0000
0M00
0000
0000
00M0
0000
,
010M
0000
00M0
0M00
0000
0000
0000
0000
,
01M0
0000
000M
0M00
0001
0000
0000
0000
,
1000
0000
0001
0000
,
0000
0000
0000
0000
0000
0000
0000
0000
0100
0000
0000
0001
0000
0000
1000
0000
,
0010
0000
1000
0001
0000
0000
0000
0000
,
4000
0000
3040
0000
,
0130
0001
0010
0001
,
1000
0000
0001
0000
0010
0000
0001
0001
,
0100
0001
0010
0100
,
1000
0000
0100
0000
0010
0000
0100
1000
,
0001
0100
0010
0100
,
1000
0100
0010
0100
,
0001
0000
1000
0000
0001
0000
1000
1000
,
0040
0000
0430
0000
,
0301
000M
0001
000M
0001
000M
0001
0000
,
0010
00M0
0010
0000
0100
0M00
0100
0000
,
0001
000M
0001
000M
0001
000M
0001
0000
,
1000
M000
1000
0000
0001
000M
0001
0000
,
0100
0M00
0100
0M00
0100
0M00
0100
0000
,
0010
00M0
0010
0000
0100
0M00
0100
0000
,
0001
000M
0001
000M
0001
000M
0001
0000
,
4000
0000
3004
0000
,
0103
0M00
0100
0M00
0100
0M00
0100
0000
,
0010
00M0
0010
0000
1000
M000
1000
0000
,
0001
000M
0001
000M
0001
000M
0001
0000
,
0010
00M0
0010
0000
0100
0M00
0100
0000
,
1000
M000
1000
M000
1000
M000
1000
0000
,
0010
00M0
0010
0000
0100
0M00
0100
0000
,
1000
M000
1000
M000
1000
M000
1000
0000
,
0040
0000
4030
0000
,
3100
1000
0010
1000
,
0001
0000
1000
0000
0010
0000
1000
1000
,
0100
1000
0010
0100
,
0001
0000
0100
0000
0010
0000
0100
0001
,
1000
0100
0010
0100
,
0001
0100
0010
0100
,
1000
0000
0001
0000
1000
0000
0001
0001
,
0040
0000
0430
0000
,
1300
0010
0100
0001
,
1000
0000
0001
0000
0100
0000
0010
0010
,
0100
0001
0010
0001
,
1000
0000
0100
0000
1000
0000
0001
0010
,
0100
1000
0010
1000
,
0001
0010
1000
0010
,
0001
0000
0100
0000
0010
0000
0100
0100
,
0001
1100
0001
1100
,
0001
1000
0100
1000
0010
1000
0100
1000
,
0001
1000
0100
1000
0010
1000
0100
1000
,
0001
0100
0010
0100
0001
1000
0100
1000
,
0001
0100
0010
0100
0001
1000
0100
1000
,
0001
0010
0100
1000
0001
0100
0010
0100
,
0001
0010
0100
1000
0001
0100
0010
0100
,
0001
1000
0100
0010
0001
0100
0010
0010
,
0400
0000
0304
0000
,
1003
0001
0100
0001
0010
0001
0100
0001
,
1000
0001
0100
0001
0010
0001
0100
0001
,
1000
0100
0010
0100
1000
0001
0100
0001
,
1000
0100
0010
0100
1000
0001
0100
0001
,
1000
0010
0100
0001
1000
0100
0010
0100
,
1000
0010
0100
0001
1000
0100
0010
0100
,
1000
0001
0100
0010
1000
0100
0010
0010
,
0100
1000
0010
0100
0001
0100
0010
1000
,
0100
0M00
0100
0M00
0100
0M00
0100
0000
,
0010
00M0
0010
0000
0100
0M00
0100
0000
,
0001
000M
0001
000M
0001
000M
0001
0000
,
0100
0M00
0100
0000
1000
M000
1000
0000
,
0100
0M00
0100
0M00
0100
0M00
0100
0000
,
0010
00M0
0010
0000
0100
0M00
0100
0000
,
0001
000M
0001
000M
0001
000M
0001
000M
,
0001
000M
0001
0000
0010
00M0
0010
0000
,
0100
0110
1000
1010
,
0001
0000
1001
0000
0010
0000
0011
0001
,
0100
0101
1000
1100
,
0001
0000
0011
0000
1000
0000
0011
0001
,
1000
1010
0001
0110
,
1000
1100
0001
0110
,
0001
0000
1010
0000
0100
0000
1001
0001
,
0400
0000
0340
0000
,
0130
0101
1000
1010
,
0001
0000
0101
0000
1000
0000
1100
0100
,
0010
0011
1000
1001
,
0010
0000
0110
0000
0001
0000
0101
0001
,
1000
1001
0100
1010
,
0010
0110
0100
1001
,
0100
0000
0011
0000
1000
0000
0011
0001
,
0100
0011
0100
0011
,
10M0
0000
0M00
0000
,
0001
0000
0000
0000
0000
0000
0000
0000
M010
0000
0000
0M00
0000
0000
00M0
0000
,
010M
0000
00M0
0M00
0000
0000
0000
0000
,
01M0
0000
000M
0M00
0001
0000
0000
0000
,
1000
0000
0001
0000
,
0000
0000
0000
0000
0000
0000
0000
0000
0100
0000
0000
0001
0000
0000
1000
0000
,
0010
0000
1000
0001
0000
0000
0000
0000
,
4000
0000
3040
0000
,
0130
0001
0010
0001
,
1000
0000
0001
0000
0010
0000
0001
0001
,
0100
0001
0010
0100
,
1000
0000
0100
0000
0010
0000
0100
1000
,
0001
0100
0010
0100
,
1000
0100
0010
0100
,
0001
0000
1000
0000
0001
0000
1000
1000
,
0040
0000
0430
0000
,
0301
000M
0001
000M
0001
000M
0001
0000
,
0010
00M0
0010
0000
0100
0M00
0100
0000
,
0001
000M
0001
000M
0001
000M
0001
0000
,
1000
M000
1000
0000
0001
000M
0001
0000
,
0100
0M00
0100
0M00
0100
0M00
0100
0000
,
0010
00M0
0010
0000
0100
0M00
0100
0000
,
0001
000M
0001
000M
0001
000M
0001
0000
,
4000
0000
3004
0000
,
0103
0M00
0100
0M00
0100
0M00
0100
0000
,
0010
00M0
0010
0000
1000
M000
1000
0000
,
0001
000M
0001
000M
0001
000M
0001
0000
,
0010
00M0
0010
0000
0100
0M00
0100
0000
,
1000
M000
1000
M000
1000
M000
1000
0000
,
0010
00M0
0010
0000
0100
0M00
0100
0000
,
1000
M000
1000
M000
1000
M000
1000
0000
,
0040
0000
4030
0000
,
3100
1000
0010
1000
,
0001
0000
1000
0000
0010
0000
1000
1000
,
0100
1000
0010
0100
,
0001
0000
0100
0000
0010
0000
0100
0001
,
1000
0100
0010
0100
,
0001
0100
0010
0100
,
1000
0000
0001
0000
1000
0000
0001
0001
,
0040
0000
0430
0000
,
1300
0010
0100
0001
,
1000
0000
0001
0000
0100
0000
0010
0010
,
0100
0001
0010
0001
,
1000
0000
0100
0000
1000
0000
0001
0010
,
0100
1000
0010
1000
,
0001
0010
1000
0010
,
0001
0000
0100
0000
0010
0000
0100
0100
,
0001
1100
0001
1100
,
0001
1000
0100
1000
0010
1000
0100
1000
,
0001
1000
0100
1000
0010
1000
0100
1000
,
0001
0100
0010
0100
0001
1000
0100
1000
,
0001
0100
0010
0100
0001
1000
0100
1000
,
0001
0010
0100
1000
0001
0100
0010
0100
,
0001
0010
0100
1000
0001
0100
0010
0100
,
0001
1000
0100
0010
0001
0100
0010
0010
,
0400
0000
0304
0000
,
1003
0001
0100
0001
0010
0001
0100
0001
,
1000
0001
0100
0001
0010
0001
0100
0001
,
1000
0100
0010
0100
1000
0001
0100
0001
,
1000
0100
0010
0100
1000
0001
0100
0001
,
1000
0010
0100
0001
1000
0100
0010
0100
,
1000
0010
0100
0001
1000
0100
0010
0100
,
1000
0001
0100
0010
1000
0100
0010
0010
,
0100
1000
0010
0100
0001
0100
0010
1000
,
0100
0M00
0100
0M00
0100
0M00
0100
0000
,
0010
00M0
0010
0000
0100
0M00
0100
0000
,
0001
000M
0001
000M
0001
000M
0001
0000
,
0100
0M00
0100
0000
1000
M000
1000
0000
,
0100
0M00
0100
0M00
0100
0M00
0100
0000
,
0010
00M0
0010
0000
0100
0M00
0100
0000
,
0001
000M
0001
000M
0001
000M
0001
000M
,
0001
000M
0001
0000
0010
00M0
0010
0000
,
0100
0110
1000
1010
,
0001
0000
1001
0000
0010
0000
0011
0001
,
0100
0101
1000
1100
,
0001
0000
0011
0000
1000
0000
0011
0001
,
1000
1010
0001
0110
,
1000
1100
0001
0110
,
0001
0000
1010
0000
0100
0000
1001
0001
,
0400
0000
0340
0000
,
0130
0101
1000
1010
,
0001
0000
0101
0000
1000
0000
1100
0100
,
0010
0011
1000
1001
,
0010
0000
0110
0000
0001
0000
0101
0001
,
1000
1001
0100
1010
,
0010
0110
0100
1001
,
0100
0000
0011
0000
1000
0000
0011
0001
,
0100
0011
0100
0011
,
10M0
0000
0M00
0000
,
0001
0000
0000
0000
0000
0000
0000
0000
M010
0000
0000
0M00
0000
0000
00M0
0000
,
010M
0000
00M0
0M00
0000
0000
0000
0000
,
01M0
0000
000M
0M00
0001
0000
0000
0000
,
1000
0000
0001
0000
,
0000
0000
0000
0000
0000
0000
0000
0000
0100
0000
0000
0001
0000
0000
1000
0000
,
0010
0000
1000
0001
0000
0000
0000
0000
,
4000
0000
3040
0000
,
0130
0001
0010
0001
,
1000
0000
0001
0000
0010
0000
0001
0001
,
0100
0001
0010
0100
,
1000
0000
0100
0000
0010
0000
0100
1000
,
0001
0100
0010
0100
,
1000
0100
0010
0100
,
0001
0000
1000
0000
0001
0000
1000
1000
,
0040
0000
0430
0000
,
0301
000M
0001
000M
0001
000M
0001
0000
,
0010
00M0
0010
0000
0100
0M00
0100
0000
,
0001
000M
0001
000M
0001
000M
0001
0000
,
1000
M000
1000
0000
0001
000M
0001
0000
,
0100
0M00
0100
0M00
0100
0M00
0100
0000
,
0010
00M0
0010
0000
0100
0M00
0100
0000
,
0001
000M
0001
000M
0001
000M
0001
0000
,
4000
0000
3004
0000
,
0103
0M00
0100
0M00
0100
0M00
0100
0000
,
0010
00M0
0010
0000
1000
M000
1000
0000
,
0001
000M
0001
000M
0001
000M
0001
0000
,
0010
00M0
0010
0000
0100
0M00
0100
0000
,
1000
M000
1000
M000
1000
M000
1000
0000
,
0010
00M0
0010
0000
0100
0M00
0100
0000
,
1000
M000
1000
M000
1000
M000
1000
0000
,
0040
0000
4030
0000
,
3100
1000
0010
1000
,
0001
0000
1000
0000
0010
0000
1000
1000
,
0100
1000
0010
0100
,
0001
0000
0100
0000
0010
0000
0100
0001
,
1000
0100
0010
0100
,
0001
0100
0010
0100
,
1000
0000
0001
0000
1000
0000
0001
0001
,
0040
0000
0430
0000
,
1300
0010
0100
0001
,
1000
0000
0001
0000
0100
0000
0010
0010
,
0100
0001
0010
0001
,
1000
0000
0100
0000
1000
0000
0001
0010
,
0100
1000
0010
1000
,
0001
0010
1000
0010
,
0001
0000
0100
0000
0010
0000
0100
0100
,
0001
1100
0001
1100
,
0001
1000
0100
1000
0010
1000
0100
1000
,
0001
1000
0100
1000
0010
1000
0100
1000
,
0001
0100
0010
0100
0001
1000
0100
1000
,
0001
0100
0010
0100
0001
1000
0100
1000
,
0001
0010
0100
1000
0001
0100
0010
0100
,
0001
0010
0100
1000
0001
0100
0010
0100
,
0001
1000
0100
0010
0001
0100
0010
0010
,
0400
0000
0304
0000
,
1003
0001
0100
0001
0010
0001
0100
0001
,
1000
0001
0100
0001
0010
0001
0100
0001
,
1000
0100
0010
0100
1000
0001
0100
0001
,
1000
0100
0010
0100
1000
0001
0100
0001
,
1000
0010
0100
0001
1000
0100
0010
0100
,
1000
0010
0100
0001
1000
0100
0010
0100
,
1000
0001
0100
0010
1000
0100
0010
0010
,
0100
1000
0010
0100
0001
0100
0010
1000
,
0100
0M00
0100
0M00
0100
0M00
0100
0000
,
0010
00M0
0010
0000
0100
0M00
0100
0000
,
0001
000M
0001
000M
0001
000M
0001
0000
,
0100
0M00
0100
0000
1000
M000
1000
0000
,
0100
0M00
0100
0M00
0100
0M00
0100
0000
,
0010
00M0
0010
0000
0100
0M00
0100
0000
,
0001
000M
0001
000M
0001
000M
0001
000M
,
0001
000M
0001
0000
0010
00M0
0010
0000
,
0100
0110
1000
1010
,
0001
0000
1001
0000
0010
0000
0011
0001
,
0100
0101
1000
1100
,
0001
0000
0011
0000
1000
0000
0011
0001
,
1000
1010
0001
0110
,
1000
1100
0001
0110
,
0001
0000
1010
0000
0100
0000
1001
0001
,
0400
0000
0340
0000
,
0130
0101
1000
1010
,
0001
0000
0101
0000
1000
0000
1100
0100
,
0010
0011
1000
1001
,
0010
0000
0110
0000
0001
0000
0101
0001
,
1000
1001
0100
1010
,
0010
0110
0100
1001
,
0100
0000
0011
0000
1000
0000
0011
0001
,
0100
0011
0100
0011
,
10M0
0000
0M00
0000
,
0001
0000
0000
0000
0000
0000
0000
0000
M010
0000
0000
0M00
0000
0000
00M0
0000
,
010M
0000
00M0
0M00
0000
0000
0000
0000
,
01M0
0000
000M
0M00
0001
0000
0000
0000
,
1000
0000
0001
0000
,
0000
0000
0000
0000
0000
0000
0000
0000
0100
0000
0000
0001
0000
0000
1000
0000
,
0010
0000
1000
0001
0000
0000
0000
0000
,
4000
0000
3040
0000
,
0130
0001
0010
0001
,
1000
0000
0001
0000
0010
0000
0001
0001
,
0100
0001
0010
0100
,
1000
0000
0100
0000
0010
0000
0100
1000
,
0001
0100
0010
0100
,
1000
0100
0010
0100
,
0001
0000
1000
0000
0001
0000
1000
1000
,
0040
0000
0430
0000
,
0301
000M
0001
000M
0001
000M
0001
0000
,
0010
00M0
0010
0000
0100
0M00
0100
0000
,
0001
000M
0001
000M
0001
000M
0001
0000
,
1000
M000
1000
0000
0001
000M
0001
0000
,
0100
0M00
0100
0M00
0100
0M00
0100
0000
,
0010
00M0
0010
0000
0100
0M00
0100
0000
,
0001
000M
0001
000M
0001
000M
0001
0000
,
4000
0000
3004
0000
,
0103
0M00
0100
0M00
0100
0M00
0100
0000
,
0010
00M0
0010
0000
1000
M000
1000
0000
,
0001
000M
0001
000M
0001
000M
0001
0000
,
0010
00M0
0010
0000
0100
0M00
0100
0000
,
1000
M000
1000
M000
1000
M000
1000
0000
,
0010
00M0
0010
0000
0100
0M00
0100
0000
,
1000
M000
1000
M000
1000
M000
1000
0000
,
0040
0000
4030
0000
,
3100
1000
0010
1000
,
0001
0000
1000
0000
0010
0000
1000
1000
,
0100
1000
0010
0100
,
0001
0000
0100
0000
0010
0000
0100
0001
,
1000
0100
0010
0100
,
0001
0100
0010
0100
,
1000
0000
0001
0000
1000
0000
0001
0001
,
0040
0000
0430
0000
,
1300
0010
0100
0001
,
1000
0000
0001
0000
0100
0000
0010
0010
,
0100
0001
0010
0001
,
1000
0000
0100
0000
1000
0000
0001
0010
,
0100
1000
0010
1000
,
0001
0010
1000
0010
,
0001
0000
0100
0000
0010
0000
0100
0100
,
0001
1100
0001
1100
,
0001
1000
0100
1000
0010
1000
0100
1000
,
0001
1000
0100
1000
0010
1000
0100
1000
,
0001
0100
0010
0100
0001
1000
0100
1000
,
0001
0100
0010
0100
0001
1000
0100
1000
,
0001
0010
0100
1000
0001
0100
0010
0100
,
0001
0010
0100
1000
0001
0100
0010
0100
,
0001
1000
0100
0010
0001
0100
0010
0010
,
0400
0000
0304
0000
,
1003
0001
0100
0001
0010
0001
0100
0001
,
1000
0001
0100
0001
0010
0001
0100
0001
,
1000
0100
0010
0100
1000
0001
0100
0001
,
1000
0100
0010
0100
1000
0001
0100
0001
,
1000
0010
0100
0001
1000
0100
0010
0100
,
1000
0010
0100
0001
1000
0100
0010
0100
,
1000
0001
0100
0010
1000
0100
0010
0010
,
0100
1000
0010
0100
0001
0100
0010
1000
,
0100
0M00
0100
0M00
0100
0M00
0100
0000
,
0010
00M0
0010
0000
0100
0M00
0100
0000
,
0001
000M
0001
000M
0001
000M
0001
0000
,
0100
0M00
0100
0000
1000
M000
1000
0000
,
0100
0M00
0100
0M00
0100
0M00
0100
0000
,
0010
00M0
0010
0000
0100
0M00
0100
0000
,
0001
000M
0001
000M
0001
000M
0001
000M
,
0001
000M
0001
0000
0010
00M0
0010
0000
,
0100
0110
1000
1010
,
0001
0000
1001
0000
0010
0000
0011
0001
,
0100
0101
1000
1100
,
0001
0000
0011
0000
1000
0000
0011
0001
,
1000
1010
0001
0110
,
1000
1100
0001
0110
,
0001
0000
1010
0000
0100
0000
1001
0001
,
0400
0000
0340
0000
,
0130
0101
1000
1010
,
0001
0000
0101
0000
1000
0000
1100
0100
,
0010
0011
1000
1001
,
0010
0000
0110
0000
0001
0000
0101
0001
,
1000
1001
0100
1010
,
0010
0110
0100
1001
,
0100
0000
0011
0000
1000
0000
0011
0001
,
0100
0011
0100
0011
,
10M0
0000
0M00
0000
,
0001
0000
0000
0000
0000
0000
0000
0000
M010
0000
0000
0M00
0000
0000
00M0
0000
,
010M
0000
00M0
0M00
0000
0000
0000
0000
,
01M0
0000
000M
0M00
0001
0000
0000
0000
,
1000
0000
0001
0000
,
0000
0000
0000
0000
0000
0000
0000
0000
0100
0000
0000
0001
0000
0000
1000
0000
,
0010
0000
1000
0001
0000
0000
0000
0000
,
4000
0000
3040
0000
,
0130
0001
0010
0001
,
1000
0000
0001
0000
0010
0000
0001
0001
,
0100
0001
0010
0100
,
1000
0000
0100
0000
0010
0000
0100
1000
,
0001
0100
0010
0100
,
1000
0100
0010
0100
,
0001
0000
1000
0000
0001
0000
1000
1000
,
0040
0000
0430
0000
,
0301
000M
0001
000M
0001
000M
0001
0000
,
0010
00M0
0010
0000
0100
0M00
0100
0000
,
0001
000M
0001
000M
0001
000M
0001
0000
,
1000
M000
1000
0000
0001
000M
0001
0000
,
0100
0M00
0100
0M00
0100
0M00
0100
0000
,
0010
00M0
0010
0000
0100
0M00
0100
0000
,
0001
000M
0001
000M
0001
000M
0001
0000
,
4000
0000
3004
0000
,
0103
0M00
0100
0M00
0100
0M00
0100
0000
,
0010
00M0
0010
0000
1000
M000
1000
0000
,
0001
000M
0001
000M
0001
000M
0001
0000
,
0010
00M0
0010
0000
0100
0M00
0100
0000
,
1000
M000
1000
M000
1000
M000
1000
0000
,
0010
00M0
0010
0000
0100
0M00
0100
0000
,
1000
M000
1000
M000
1000
M000
1000
0000
,
0040
0000
4030
0000
,
3100
1000
0010
1000
,
0001
0000
1000
0000
0010
0000
1000
1000
,
0100
1000
0010
0100
,
0001
0000
0100
0000
0010
0000
0100
0001
,
1000
0100
0010
0100
,
0001
0100
0010
0100
,
1000
0000
0001
0000
1000
0000
0001
0001
,
0040
0000
0430
0000
,
1300
0010
0100
0001
,
1000
0000
0001
0000
0100
0000
0010
0010
,
0100
0001
0010
0001
,
1000
0000
0100
0000
1000
0000
0001
0010
,
0100
1000
0010
1000
,
0001
0010
1000
0010
,
0001
0000
0100
0000
0010
0000
0100
0100
,
0001
1100
0001
1100
,
0001
1000
0100
1000
0010
1000
0100
1000
,
0001
1000
0100
1000
0010
1000
0100
1000
,
0001
0100
0010
0100
0001
1000
0100
1000
,
0001
0100
0010
0100
0001
1000
0100
1000
,
0001
0010
0100
1000
0001
0100
0010
0100
,
0001
0010
0100
1000
0001
0100
0010
0100
,
0001
1000
0100
0010
0001
0100
0010
0010
,
0400
0000
0304
0000
,
1003
0001
0100
0001
0010
0001
0100
0001
,
1000
0001
0100
0001
0010
0001
0100
0001
,
1000
0100
0010
0100
1000
0001
0100
0001
,
1000
0100
0010
0100
1000
0001
0100
0001
,
1000
0010
0100
0001
1000
0100
0010
0100
,
1000
0010
0100
0001
1000
0100
0010
0100
,
1000
0001
0100
0010
1000
0100
0010
0010
,
0100
1000
0010
0100
0001
0100
0010
1000
,
0100
0M00
0100
0M00
0100
0M00
0100
0000
,
0010
00M0
0010
0000
0100
0M00
0100
0000
,
0001
000M
0001
000M
0001
000M
0001
0000
,
0100
0M00
0100
0000
1000
M000
1000
0000
,
0100
0M00
0100
0M00
0100
0M00
0100
0000
,
0010
00M0
0010
0000
0100
0M00
0100
0000
,
0001
000M
0001
000M
0001
000M
0001
000M
,
0001
000M
0001
0000
0010
00M0
0010
0000
,
0100
0110
1000
1010
,
0001
0000
1001
0000
0010
0000
0011
0001
,
0100
0101
1000
1100
,
0001
0000
0011
0000
1000
0000
0011
0001
,
1000
1010
0001
0110
,
1000
1100
0001
0110
,
0001
0000
1010
0000
0100
0000
1001
0001
,
0400
0000
0340
0000
,
0130
0101
1000
1010
,
0001
0000
0101
0000
1000
0000
1100
0100
,
0010
0011
1000
1001
,
0010
0000
0110
0000
0001
0000
0101
0001
,
1000
1001
0100
1010
,
0010
0110
0100
1001
,
0100
0000
0011
0000
1000
0000
0011
0001
,
0100
0011
0100
0011
,
10M0
0000
0M00
0000
,
0001
0000
0000
0000
0000
0000
0000
0000
M010
0000
0000
0M00
0000
0000
00M0
0000
,
010M
0000
00M0
0M00
0000
0000
0000
0000
,
01M0
0000
000M
0M00
0001
0000
0000
0000
,
1000
0000
0001
0000
,
0000
0000
0000
0000
0000
0000
0000
0000
0100
0000
0000
0001
0000
0000
1000
0000
,
0010
0000
1000
0001
0000
0000
0000
0000
,
4000
0000
3040
0000
,
0130
0001
0010
0001
,
1000
0000
0001
0000
0010
0000
0001
0001
,
0100
0001
0010
0100
,
1000
0000
0100
0000
0010
0000
0100
1000
,
0001
0100
0010
0100
,
1000
0100
0010
0100
,
0001
0000
1000
0000
0001
0000
1000
1000
,
0040
0000
0430
0000
,
0301
000M
0001
000M
0001
000M
0001
0000
,
0010
00M0
0010
0000
0100
0M00
0100
0000
,
0001
000M
0001
000M
0001
000M
0001
0000
,
1000
M000
1000
0000
0001
000M
0001
0000
,
0100
0M00
0100
0M00
0100
0M00
0100
0000
,
0010
00M0
0010
0000
0100
0M00
0100
0000
,
0001
000M
0001
000M
0001
000M
0001
0000
,
4000
0000
3004
0000
,
0103
0M00
0100
0M00
0100
0M00
0100
0000
,
0010
00M0
0010
0000
1000
M000
1000
0000
,
0001
000M
0001
000M
0001
000M
0001
0000
,
0010
00M0
0010
0000
0100
0M00
0100
0000
,
1000
M000
1000
M000
1000
M000
1000
0000
,
0010
00M0
0010
0000
0100
0M00
0100
0000
,
1000
M000
1000
M000
1000
M000
1000
0000
,
0040
0000
4030
0000
,
3100
1000
0010
1000
,
0001
0000
1000
0000
0010
0000
1000
1000
,
0100
1000
0010
0100
,
0001
0000
0100
0000
0010
0000
0100
0001
,
1000
0100
0010
0100
,
0001
0100
0010
0100
,
1000
0000
0001
0000
1000
0000
0001
0001
,
0040
0000
0430
0000
,
1300
0010
0100
0001
,
1000
0000
0001
0000
0100
0000
0010
0010
,
0100
0001
0010
0001
,
1000
0000
0100
0000
1000
0000
0001
0010
,
0100
1000
0010
1000
,
0001
0010
1000
0010
,
0001
0000
0100
0000
0010
0000
0100
0100
,
0001
1100
0001
1100
,
0001
1000
0100
1000
0010
1000
0100
1000
,
0001
1000
0100
1000
0010
1000
0100
1000
,
0001
0100
0010
0100
0001
1000
0100
1000
,
0001
0100
0010
0100
0001
1000
0100
1000
,
0001
0010
0100
1000
0001
0100
0010
0100
,
0001
0010
0100
1000
0001
0100
0010
0100
,
0001
1000
0100
0010
0001
0100
0010
0010
,
0400
0000
0304
0000
,
1003
0001
0100
0001
0010
0001
0100
0001
,
1000
0001
0100
0001
0010
0001
0100
0001
,
1000
0100
0010
0100
1000
0001
0100
0001
,
1000
0100
0010
0100
1000
0001
0100
0001
,
1000
0010
0100
0001
1000
0100
0010
0100
,
1000
0010
0100
0001
1000
0100
0010
0100
,
1000
0001
0100
0010
1000
0100
0010
0010
,
0100
1000
0010
0100
0001
0100
0010
1000
,
0100
0M00
0100
0M00
0100
0M00
0100
0000
,
0010
00M0
0010
0000
0100
0M00
0100
0000
,
0001
000M
0001
000M
0001
000M
0001
0000
,
0100
0M00
0100
0000
1000
M000
1000
0000
,
0100
0M00
0100
0M00
0100
0M00
0100
0000
,
0010
00M0
0010
0000
0100
0M00
0100
0000
,
0001
000M
0001
000M
0001
000M
0001
000M
,
0001
000M
0001
0000
0010
00M0
0010
0000
,
0100
0110
1000
1010
,
0001
0000
1001
0000
0010
0000
0011
0001
,
0100
0101
1000
1100
,
0001
0000
0011
0000
1000
0000
0011
0001
,
1000
1010
0001
0110
,
1000
1100
0001
0110
,
0001
0000
1010
0000
0100
0000
1001
0001
,
0400
0000
0340
0000
,
0130
0101
1000
1010
,
0001
0000
0101
0000
1000
0000
1100
0100
,
0010
0011
1000
1001
,
0010
0000
0110
0000
0001
0000
0101
0001
,
1000
1001
0100
1010
,
0010
0110
0100
1001
,
0100
0000
0011
0000
1000
0000
0011
0001
,
0100
0011
0100
0011
,
10M0
0000
0M00
0000
,
0001
0000
0000
0000
0000
0000
0000
0000
M010
0000
0000
0M00
0000
0000
00M0
0000
,
010M
0000
00M0
0M00
0000
0000
0000
0000
,
01M0
0000
000M
0M00
0001
0000
0000
0000
,
1000
0000
0001
0000
,
0000
0000
0000
0000
0000
0000
0000
0000
0100
0000
0000
0001
0000
0000
1000
0000
,
0010
0000
1000
0001
0000
0000
0000
0000
,
4000
0000
3040
0000
,
0130
0001
0010
0001
,
1000
0000
0001
0000
0010
0000
0001
0001
,
0100
0001
0010
0100
,
1000
0000
0100
0000
0010
0000
0100
1000
,
0001
0100
0010
0100
,
1000
0100
0010
0100
,
0001
0000
1000
0000
0001
0000
1000
1000
,
0040
0000
0430
0000
,
0301
000M
0001
000M
0001
000M
0001
0000
,
0010
00M0
0010
0000
0100
0M00
0100
0000
,
0001
000M
0001
000M
0001
000M
0001
0000
,
1000
M000
1000
0000
0001
000M
0001
0000
,
0100
0M00
0100
0M00
0100
0M00
0100
0000
,
0010
00M0
0010
0000
0100
0M00
0100
0000
,
0001
000M
0001
000M
0001
000M
0001
0000
,
4000
0000
3004
0000
,
0103
0M00
0100
0M00
0100
0M00
0100
0000
,
0010
00M0
0010
0000
1000
M000
1000
0000
,
0001
000M
0001
000M
0001
000M
0001
0000
,
0010
00M0
0010
0000
0100
0M00
0100
0000
,
1000
M000
1000
M000
1000
M000
1000
0000
,
0010
00M0
0010
0000
0100
0M00
0100
0000
,
1000
M000
1000
M000
1000
M000
1000
0000
,
0040
0000
4030
0000
,
3100
1000
0010
1000
,
0001
0000
1000
0000
0010
0000
1000
1000
,
0100
1000
0010
0100
,
0001
0000
0100
0000
0010
0000
0100
0001
,
1000
0100
0010
0100
,
0001
0100
0010
0100
,
1000
0000
0001
0000
1000
0000
0001
0001
,
0040
0000
0430
0000
,
1300
0010
0100
0001
,
1000
0000
0001
0000
0100
0000
0010
0010
,
0100
0001
0010
0001
,
1000
0000
0100
0000
1000
0000
0001
0010
,
0100
1000
0010
1000
,
0001
0010
1000
0010
,
0001
0000
0100
0000
0010
0000
0100
0100
,
0001
1100
0001
1100
,
0001
1000
0100
1000
0010
1000
0100
1000
,
0001
1000
0100
1000
0010
1000
0100
1000
,
0001
0100
0010
0100
0001
1000
0100
1000
,
0001
0100
0010
0100
0001
1000
0100
1000
,
0001
0010
0100
1000
0001
0100
0010
0100
,
0001
0010
0100
1000
0001
0100
0010
0100
,
0001
1000
0100
0010
0001
0100
0010
0010
,
0400
0000
0304
0000
,
1003
0001
0100
0001
0010
0001
0100
0001
,
1000
0001
0100
0001
0010
0001
0100
0001
,
1000
0100
0010
0100
1000
0001
0100
0001
,
1000
0100
0010
0100
1000
0001
0100
0001
,
1000
0010
0100
0001
1000
0100
0010
0100
,
1000
0010
0100
0001
1000
0100
0010
0100
,
1000
0001
0100
0010
1000
0100
0010
0010
,
0100
1000
0010
0100
0001
0100
0010
1000
,
0100
0M00
0100
0M00
0100
0M00
0100
0000
,
0010
00M0
0010
0000
0100
0M00
0100
0000
,
0001
000M
0001
000M
0001
000M
0001
0000
,
0100
0M00
0100
0000
1000
M000
1000
0000
,
0100
0M00
0100
0M00
0100
0M00
0100
0000
,
0010
00M0
0010
0000
0100
0M00
0100
0000
,
0001
000M
0001
000M
0001
000M
0001
000M
,
0001
000M
0001
0000
0010
00M0
0010
0000
,
0100
0110
1000
1010
,
0001
0000
1001
0000
0010
0000
0011
0001
,
0100
0101
1000
1100
,
0001
0000
0011
0000
1000
0000
0011
0001
,
1000
1010
0001
0110
,
1000
1100
0001
0110
,
0001
0000
1010
0000
0100
0000
1001
0001
,
0400
0000
0340
0000
,
0130
0101
1000
1010
,
0001
0000
0101
0000
1000
0000
1100
0100
,
0010
0011
1000
1001
,
0010
0000
0110
0000
0001
0000
0101
0001
,
1000
1001
0100
1010
,
0010
0110
0100
1001
,
0100
0000
0011
0000
1000
0000
0011
0001
,
0100
0011
0100
0011
,
10M0
0000
0M00
0000
,
0001
0000
0000
0000
0000
0000
0000
0000
M010
0000
0000
0M00
0000
0000
00M0
0000
,
010M
0000
00M0
0M00
0000
0000
0000
0000
,
01M0
0000
000M
0M00
0001
0000
0000
0000
,
1000
0000
0001
0000
,
0000
0000
0000
0000
0000
0000
0000
0000
0100
0000
0000
0001
0000
0000
1000
0000
,
0010
0000
1000
0001
0000
0000
0000
0000
,
4000
0000
3040
0000
,
0130
0001
0010
0001
,
1000
0000
0001
0000
0010
0000
0001
0001
,
0100
0001
0010
0100
,
1000
0000
0100
0000
0010
0000
0100
1000
,
0001
0100
0010
0100
,
1000
0100
0010
0100
,
0001
0000
1000
0000
0001
0000
1000
1000
,
0040
0000
0430
0000
,
0301
000M
0001
000M
0001
000M
0001
0000
,
0010
00M0
0010
0000
0100
0M00
0100
0000
,
0001
000M
0001
000M
0001
000M
0001
0000
,
1000
M000
1000
0000
0001
000M
0001
0000
,
0100
0M00
0100
0M00
0100
0M00
0100
0000
,
0010
00M0
0010
0000
0100
0M00
0100
0000
,
0001
000M
0001
000M
0001
000M
0001
0000
,
4000
0000
3004
0000
,
0103
0M00
0100
0M00
0100
0M00
0100
0000
,
0010
00M0
0010
0000
1000
M000
1000
0000
,
0001
000M
0001
000M
0001
000M
0001
0000
,
0010
00M0
0010
0000
0100
0M00
0100
0000
,
1000
M000
1000
M000
1000
M000
1000
0000
,
0010
00M0
0010
0000
0100
0M00
0100
0000
,
1000
M000
1000
M000
1000
M000
1000
0000
,
0040
0000
4030
0000
,
3100
1000
0010
1000
,
0001
0000
1000
0000
0010
0000
1000
1000
,
0100
1000
0010
0100
,
0001
0000
0100
0000
0010
0000
0100
0001
,
1000
0100
0010
0100
,
0001
0100
0010
0100
,
1000
0000
0001
0000
1000
0000
0001
0001
,
0040
0000
0430
0000
,
1300
0010
0100
0001
,
1000
0000
0001
0000
0100
0000
0010
0010
,
0100
0001
0010
0001
,
1000
0000
0100
0000
1000
0000
0001
0010
,
0100
1000
0010
1000
,
0001
0010
1000
0010
,
0001
0000
0100
0000
0010
0000
0100
0100
,
0001
1100
0001
1100
,
0001
1000
0100
1000
0010
1000
0100
1000
,
0001
1000
0100
1000
0010
1000
0100
1000
,
0001
0100
0010
0100
0001
1000
0100
1000
,
0001
0100
0010
0100
0001
1000
0100
1000
,
0001
0010
0100
1000
0001
0100
0010
0100
,
0001
0010
0100
1000
0001
0100
0010
0100
,
0001
1000
0100
0010
0001
0100
0010
0010
,
0400
0000
0304
0000
,
1003
0001
0100
0001
0010
0001
0100
0001
,
1000
0001
0100
0001
0010
0001
0100
0001
,
1000
0100
0010
0100
1000
0001
0100
0001
,
1000
0100
0010
0100
1000
0001
0100
0001
,
1000
0010
0100
0001
1000
0100
0010
0100
,
1000
0010
0100
0001
1000
0100
0010
0100
,
1000
0001
0100
0010
1000
0100
0010
0010
,
0100
1000
0010
0100
0001
0100
0010
1000
,
0100
0M00
0100
0M00
0100
0M00
0100
0000
,
0010
00M0
0010
0000
0100
0M00
0100
0000
,
0001
000M
0001
000M
0001
000M
0001
0000
,
0100
0M00
0100
0000
1000
M000
1000
0000
,
0100
0M00
0100
0M00
0100
0M00
0100
0000
,
0010
00M0
0010
0000
0100
0M00
0100
0000
,
0001
000M
0001
000M
0001
000M
0001
000M
,
0001
000M
0001
0000
0010
00M0
0010
0000
,
0100
0110
1000
1010
,
0001
0000
1001
0000
0010
0000
0011
0001
,
0100
0101
1000
1100
,
0001
0000
0011
0000
1000
0000
0011
0001
,
1000
1010
0001
0110
,
1000
1100
0001
0110
,
0001
0000
1010
0000
0100
0000
1001
0001
,
0400
0000
0340
0000
,
0130
0101
1000
1010
,
0001
0000
0101
0000
1000
0000
1100
0100
,
0010
0011
1000
1001
,
0010
0000
0110
0000
0001
0000
0101
0001
,
1000
1001
0100
1010
,
0010
0110
0100
1001
,
0100
0000
0011
0000
1000
0000
0011
0001
,
0100
0011
0100
0011
,
10M0
0000
0M00
0000
,
0001
0000
0000
0000
0000
0000
0000
0000
M010
0000
0000
0M00
0000
0000
00M0
0000
,
010M
0000
00M0
0M00
0000
0000
0000
0000
,
01M0
0000
000M
0M00
0001
0000
0000
0000
,
1000
0000
0001
0000
,
0000
0000
0000
0000
0000
0000
0000
0000
0100
0000
0000
0001
0000
0000
1000
0000
,
0010
0000
1000
0001
0000
0000
0000
0000
,
4000
0000
3040
0000
,
0130
0001
0010
0001
,
1000
0000
0001
0000
0010
0000
0001
0001
,
0100
0001
0010
0100
,
1000
0000
0100
0000
0010
0000
0100
1000
,
0001
0100
0010
0100
,
1000
0100
0010
0100
,
0001
0000
1000
0000
0001
0000
1000
1000
,
0040
0000
0430
0000
,
0301
000M
0001
000M
0001
000M
0001
0000
,
0010
00M0
0010
0000
0100
0M00
0100
0000
,
0001
000M
0001
000M
0001
000M
0001
0000
,
1000
M000
1000
0000
0001
000M
0001
0000
,
0100
0M00
0100
0M00
0100
0M00
0100
0000
,
0010
00M0
0010
0000
0100
0M00
0100
0000
,
0001
000M
0001
000M
0001
000M
0001
0000
,
4000
0000
3004
0000
,
0103
0M00
0100
0M00
0100
0M00
0100
0000
,
0010
00M0
0010
0000
1000
M000
1000
0000
,
0001
000M
0001
000M
0001
000M
0001
0000
,
0010
00M0
0010
0000
0100
0M00
0100
0000
,
1000
M000
1000
M000
1000
M000
1000
0000
,
0010
00M0
0010
0000
0100
0M00
0100
0000
,
1000
M000
1000
M000
1000
M000
1000
0000
,
0040
0000
4030
0000
,
3100
1000
0010
1000
,
0001
0000
1000
0000
0010
0000
1000
1000
,
0100
1000
0010
0100
,
0001
0000
0100
0000
0010
0000
0100
0001
,
1000
0100
0010
0100
,
0001
0100
0010
0100
,
1000
0000
0001
0000
1000
0000
0001
0001
,
0040
0000
0430
0000
,
1300
0010
0100
0001
,
1000
0000
0001
0000
0100
0000
0010
0010
,
0100
0001
0010
0001
,
1000
0000
0100
0000
1000
0000
0001
0010
,
0100
1000
0010
1000
,
0001
0010
1000
0010
,
0001
0000
0100
0000
0010
0000
0100
0100
,
0001
1100
0001
1100
,
0001
1000
0100
1000
0010
1000
0100
1000
,
0001
1000
0100
1000
0010
1000
0100
1000
,
0001
0100
0010
0100
0001
1000
0100
1000
,
0001
0100
0010
0100
0001
1000
0100
1000
,
0001
0010
0100
1000
0001
0100
0010
0100
,
0001
0010
0100
1000
0001
0100
0010
0100
,
0001
1000
0100
0010
0001
0100
0010
0010
,
0400
0000
0304
0000
,
1003
0001
0100
0001
0010
0001
0100
0001
,
1000
0001
0100
0001
0010
0001
0100
0001
,
1000
0100
0010
0100
1000
0001
0100
0001
,
1000
0100
0010
0100
1000
0001
0100
0001
,
1000
0010
0100
0001
1000
0100
0010
0100
,
1000
0010
0100
0001
1000
0100
0010
0100
,
1000
0001
0100
0010
1000
0100
0010
0010
,
0100
1000
0010
0100
0001
0100
0010
1000
,
0100
0M00
0100
0M00
0100
0M00
0100
0000
,
0010
00M0
0010
0000
0100
0M00
0100
0000
,
0001
000M
0001
000M
0001
000M
0001
0000
,
0100
0M00
0100
0000
1000
M000
1000
0000
,
0100
0M00
0100
0M00
0100
0M00
0100
0000
,
0010
00M0
0010
0000
0100
0M00
0100
0000
,
0001
000M
0001
000M
0001
000M
0001
000M
,
0001
000M
0001
0000
0010
00M0
0010
0000
,
0100
0110
1000
1010
,
0001
0000
1001
0000
0010
0000
0011
0001
,
0100
0101
1000
1100
,
0001
0000
0011
0000
1000
0000
0011
0001
,
1000
1010
0001
0110
,
1000
1100
0001
0110
,
0001
0000
1010
0000
0100
0000
1001
0001
,
0400
0000
0340
0000
,
0130
0101
1000
1010
,
0001
0000
0101
0000
1000
0000
1100
0100
,
0010
0011
1000
1001
,
0010
0000
0110
0000
0001
0000
0101
0001
,
1000
1001
0100
1010
,
0010
0110
0100
1001
,
0100
0000
0011
0000
1000
0000
0011
0001
,
0100
0011
0100
0011
,
10M0
0000
0M00
0000
,
0001
0000
0000
0000
0000
0000
0000
0000
M010
0000
0000
0M00
0000
0000
00M0
0000
,
010M
0000
00M0
0M00
0000
0000
0000
0000
,
01M0
0000
000M
0M00
0001
0000
0000
0000
,
1000
0000
0001
0000
,
0000
0000
0000
0000
0000
0000
0000
0000
0100
0000
0000
0001
0000
0000
1000
0000
,
0010
0000
1000
0001
0000
0000
0000
0000
,
4000
0000
3040
0000
,
0130
0001
0010
0001
,
1000
0000
0001
0000
0010
0000
0001
0001
,
0100
0001
0010
0100
,
1000
0000
0100
0000
0010
0000
0100
1000
,
0001
0100
0010
0100
,
1000
0100
0010
0100
,
0001
0000
1000
0000
0001
0000
1000
1000
,
0040
0000
0430
0000
,
0301
000M
0001
000M
0001
000M
0001
0000
,
0010
00M0
0010
0000
0100
0M00
0100
0000
,
0001
000M
0001
000M
0001
000M
0001
0000
,
1000
M000
1000
0000
0001
000M
0001
0000
,
0100
0M00
0100
0M00
0100
0M00
0100
0000
,
0010
00M0
0010
0000
0100
0M00
0100
0000
,
0001
000M
0001
000M
0001
000M
0001
0000
,
4000
0000
3004
0000
,
0103
0M00
0100
0M00
0100
0M00
0100
0000
,
0010
00M0
0010
0000
1000
M000
1000
0000
,
0001
000M
0001
000M
0001
000M
0001
0000
,
0010
00M0
0010
0000
0100
0M00
0100
0000
,
1000
M000
1000
M000
1000
M000
1000
0000
,
0010
00M0
0010
0000
0100
0M00
0100
0000
,
1000
M000
1000
M000
1000
M000
1000
0000
,
0040
0000
4030
0000
,
3100
1000
0010
1000
,
0001
0000
1000
0000
0010
0000
1000
1000
,
0100
1000
0010
0100
,
0001
0000
0100
0000
0010
0000
0100
0001
,
1000
0100
0010
0100
,
0001
0100
0010
0100
,
1000
0000
0001
0000
1000
0000
0001
0001
,
0040
0000
0430
0000
,
1300
0010
0100
0001
,
1000
0000
0001
0000
0100
0000
0010
0010
,
0100
0001
0010
0001
,
1000
0000
0100
0000
1000
0000
0001
0010
,
0100
1000
0010
1000
,
0001
0010
1000
0010
,
0001
0000
0100
0000
0010
0000
0100
0100
,
0001
1100
0001
1100
,
0001
1000
0100
1000
0010
1000
0100
1000
,
0001
1000
0100
1000
0010
1000
0100
1000
,
0001
0100
0010
0100
0001
1000
0100
1000
,
0001
0100
0010
0100
0001
1000
0100
1000
,
0001
0010
0100
1000
0001
0100
0010
0100
,
0001
0010
0100
1000
0001
0100
0010
0100
,
0001
1000
0100
0010
0001
0100
0010
0010
,
0400
0000
0304
0000
,
1003
0001
0100
0001
0010
0001
0100
0001
,
1000
0001
0100
0001
0010
0001
0100
0001
,
1000
0100
0010
0100
1000
0001
0100
0001
,
1000
0100
0010
0100
1000
0001
0100
0001
,
1000
0010
0100
0001
1000
0100
0010
0100
,
1000
0010
0100
0001
1000
0100
0010
0100
,
1000
0001
0100
0010
1000
0100
0010
0010
,
0100
1000
0010
0100
0001
0100
0010
1000
,
0100
0M00
0100
0M00
0100
0M00
0100
0000
,
0010
00M0
0010
0000
0100
0M00
0100
0000
,
0001
000M
0001
000M
0001
000M
0001
0000
,
0100
0M00
0100
0000
1000
M000
1000
0000
,
0100
0M00
0100
0M00
0100
0M00
0100
0000
,
0010
00M0
0010
0000
0100
0M00
0100
0000
,
0001
000M
0001
000M
0001
000M
0001
000M
,
0001
000M
0001
0000
0010
00M0
0010
0000
,
0100
0110
1000
1010
,
0001
0000
1001
0000
0010
0000
0011
0001
,
0100
0101
1000
1100
,
0001
0000
0011
0000
1000
0000
0011
0001
,
1000
1010
0001
0110
,
1000
1100
0001
0110
,
0001
0000
1010
0000
0100
0000
1001
0001
,
0400
0000
0340
0000
,
0130
0101
1000
1010
,
0001
0000
0101
0000
1000
0000
1100
0100
,
0010
0011
1000
1001
,
0010
0000
0110
0000
0001
0000
0101
0001
,
1000
1001
0100
1010
,
0010
0110
0100
1001
,
0100
0000
0011
0000
1000
0000
0011
0001
,
0100
0011
0100
0011
,
10M0
0000
0M00
0000
,
0001
0000
0000
0000
0000
0000
0000
0000
M010
0000
0000
0M00
0000
0000
00M0
0000
,
010M
0000
00M0
0M00
0000
0000
0000
0000
,
01M0
0000
000M
0M00
0001
0000
0000
0000
,
1000
0000
0001
0000
,
0000
0000
0000
0000
0000
0000
0000
0000
0100
0000
0000
0001
0000
0000
1000
0000
,
0010
0000
1000
0001
0000
0000
0000
0000
,
4000
0000
3040
0000
,
0130
0001
0010
0001
,
1000
0000
0001
0000
0010
0000
0001
0001
,
0100
0001
0010
0100
,
1000
0000
0100
0000
0010
0000
0100
1000
,
0001
0100
0010
0100
,
1000
0100
0010
0100
,
0001
0000
1000
0000
0001
0000
1000
1000
,
0040
0000
0430
0000
,
0301
000M
0001
000M
0001
000M
0001
0000
,
0010
00M0
0010
0000
0100
0M00
0100
0000
,
0001
000M
0001
000M
0001
000M
0001
0000
,
1000
M000
1000
0000
0001
000M
0001
0000
,
0100
0M00
0100
0M00
0100
0M00
0100
0000
,
0010
00M0
0010
0000
0100
0M00
0100
0000
,
0001
000M
0001
000M
0001
000M
0001
0000
,
4000
0000
3004
0000
,
0103
0M00
0100
0M00
0100
0M00
0100
0000
,
0010
00M0
0010
0000
1000
M000
1000
0000
,
0001
000M
0001
000M
0001
000M
0001
0000
,
0010
00M0
0010
0000
0100
0M00
0100
0000
,
1000
M000
1000
M000
1000
M000
1000
0000
,
0010
00M0
0010
0000
0100
0M00
0100
0000
,
1000
M000
1000
M000
1000
M000
1000
0000
,
0040
0000
4030
0000
,
3100
1000
0010
1000
,
0001
0000
1000
0000
0010
0000
1000
1000
,
0100
1000
0010
0100
,
0001
0000
0100
0000
0010
0000
0100
0001
,
1000
0100
0010
0100
,
0001
0100
0010
0100
,
1000
0000
0001
0000
1000
0000
0001
0001
,
0040
0000
0430
0000
,
1300
0010
0100
0001
,
1000
0000
0001
0000
0100
0000
0010
0010
,
0100
0001
0010
0001
,
1000
0000
0100
0000
1000
0000
0001
0010
,
0100
1000
0010
1000
,
0001
0010
1000
0010
,
0001
0000
0100
0000
0010
0000
0100
0100
,
0001
1100
0001
1100
,
0001
1000
0100
1000
0010
1000
0100
1000
,
0001
1000
0100
1000
0010
1000
0100
1000
,
0001
0100
0010
0100
0001
1000
0100
1000
,
0001
0100
0010
0100
0001
1000
0100
1000
,
0001
0010
0100
1000
0001
0100
0010
0100
,
0001
0010
0100
1000
0001
0100
0010
0100
,
0001
1000
0100
0010
0001
0100
0010
0010
,
0400
0000
0304
0000
,
1003
0001
0100
0001
0010
0001
0100
0001
,
1000
0001
0100
0001
0010
0001
0100
0001
,
1000
0100
0010
0100
1000
0001
0100
0001
,
1000
0100
0010
0100
1000
0001
0100
0001
,
1000
0010
0100
0001
1000
0100
0010
0100
,
1000
0010
0100
0001
1000
0100
0010
0100
,
1000
0001
0100
0010
1000
0100
0010
0010
,
0100
1000
0010
0100
0001
0100
0010
1000
,
0100
0M00
0100
0M00
0100
0M00
0100
0000
,
0010
00M0
0010
0000
0100
0M00
0100
0000
,
0001
000M
0001
000M
0001
000M
0001
0000
,
0100
0M00
0100
0000
1000
M000
1000
0000
,
0100
0M00
0100
0M00
0100
0M00
0100
0000
,
0010
00M0
0010
0000
0100
0M00
0100
0000
,
0001
000M
0001
000M
0001
000M
0001
000M
,
0001
000M
0001
0000
0010
00M0
0010
0000
,
0100
0110
1000
1010
,
0001
0000
1001
0000
0010
0000
0011
0001
,
0100
0101
1000
1100
,
0001
0000
0011
0000
1000
0000
0011
0001
,
1000
1010
0001
0110
,
1000
1100
0001
0110
,
0001
0000
1010
0000
0100
0000
1001
0001
,
0400
0000
0340
0000
,
0130
0101
1000
1010
,
0001
0000
0101
0000
1000
0000
1100
0100
,
0010
0011
1000
1001
,
0010
0000
0110
0000
0001
0000
0101
0001
,
1000
1001
0100
1010
,
0010
0110
0100
1001
,
0100
0000
0011
0000
1000
0000
0011
0001
,
0100
0011
0100
0011
,
10M0
0000
0M00
0000
,
0001
0000
0000
0000
0000
0000
0000
0000
M010
0000
0000
0M00
0000
0000
00M0
0000
,
010M
0000
00M0
0M00
0000
0000
0000
0000
,
01M0
0000
000M
0M00
0001
0000
0000
0000
,
1000
0000
0001
0000
,
0000
0000
0000
0000
0000
0000
0000
0000
0100
0000
0000
0001
0000
0000
1000
0000
,
0010
0000
1000
0001
0000
0000
0000
0000
,
4000
0000
3040
0000
,
0130
0001
0010
0001
,
1000
0000
0001
0000
0010
0000
0001
0001
,
0100
0001
0010
0100
,
1000
0000
0100
0000
0010
0000
0100
1000
,
0001
0100
0010
0100
,
1000
0100
0010
0100
,
0001
0000
1000
0000
0001
0000
1000
1000
,
0040
0000
0430
0000
,
0301
000M
0001
000M
0001
000M
0001
0000
,
0010
00M0
0010
0000
0100
0M00
0100
0000
,
0001
000M
0001
000M
0001
000M
0001
0000
,
1000
M000
1000
0000
0001
000M
0001
0000
,
0100
0M00
0100
0M00
0100
0M00
0100
0000
,
0010
00M0
0010
0000
0100
0M00
0100
0000
,
0001
000M
0001
000M
0001
000M
0001
0000
,
4000
0000
3004
0000
,
0103
0M00
0100
0M00
0100
0M00
0100
0000
,
0010
00M0
0010
0000
1000
M000
1000
0000
,
0001
000M
0001
000M
0001
000M
0001
0000
,
0010
00M0
0010
0000
0100
0M00
0100
0000
,
1000
M000
1000
M000
1000
M000
1000
0000
,
0010
00M0
0010
0000
0100
0M00
0100
0000
,
1000
M000
1000
M000
1000
M000
1000
0000
,
0040
0000
4030
0000
,
3100
1000
0010
1000
,
0001
0000
1000
0000
0010
0000
1000
1000
,
0100
1000
0010
0100
,
0001
0000
0100
0000
0010
0000
0100
0001
,
1000
0100
0010
0100
,
0001
0100
0010
0100
,
1000
0000
0001
0000
1000
0000
0001
0001
,
0040
0000
0430
0000
,
1300
0010
0100
0001
,
1000
0000
0001
0000
0100
0000
0010
0010
,
0100
0001
0010
0001
,
1000
0000
0100
0000
1000
0000
0001
0010
,
0100
1000
0010
1000
,
0001
0010
1000
0010
,
0001
0000
0100
0000
0010
0000
0100
0100
,
0001
1100
0001
1100
,
0001
1000
0100
1000
0010
1000
0100
1000
,
0001
1000
0100
1000
0010
1000
0100
1000
,
0001
0100
0010
0100
0001
1000
0100
1000
,
0001
0100
0010
0100
0001
1000
0100
1000
,
0001
0010
0100
1000
0001
0100
0010
0100
,
0001
0010
0100
1000
0001
0100
0010
0100
,
0001
1000
0100
0010
0001
0100
0010
0010
,
0400
0000
0304
0000
,
1003
0001
0100
0001
0010
0001
0100
0001
,
1000
0001
0100
0001
0010
0001
0100
0001
,
1000
0100
0010
0100
1000
0001
0100
0001
,
1000
0100
0010
0100
1000
0001
0100
0001
,
1000
0010
0100
0001
1000
0100
0010
0100
,
1000
0010
0100
0001
1000
0100
0010
0100
,
1000
0001
0100
0010
1000
0100
0010
0010
,
0100
1000
0010
0100
0001
0100
0010
1000
,
0100
0M00
0100
0M00
0100
0M00
0100
0000
,
0010
00M0
0010
0000
0100
0M00
0100
0000
,
0001
000M
0001
000M
0001
000M
0001
0000
,
0100
0M00
0100
0000
1000
M000
1000
0000
,
0100
0M00
0100
0M00
0100
0M00
0100
0000
,
0010
00M0
0010
0000
0100
0M00
0100
0000
,
0001
000M
0001
000M
0001
000M
0001
000M
,
0001
000M
0001
0000
0010
00M0
0010
0000
,
0100
0110
1000
1010
,
0001
0000
1001
0000
0010
0000
0011
0001
,
0100
0101
1000
1100
,
0001
0000
0011
0000
1000
0000
0011
0001
,
1000
1010
0001
0110
,
1000
1100
0001
0110
,
0001
0000
1010
0000
0100
0000
1001
0001
,
0400
0000
0340
0000
,
0130
0101
1000
1010
,
0001
0000
0101
0000
1000
0000
1100
0100
,
0010
0011
1000
1001
,
0010
0000
0110
0000
0001
0000
0101
0001
,
1000
1001
0100
1010
,
0010
0110
0100
1001
,
0100
0000
0011
0000
1000
0000
0011
0001
,
0100
0011
0100
0011
,
10M0
0000
0M00
0000
,
0001
0000
0000
0000
0000
0000
0000
0000
M010
0000
0000
0M00
0000
0000
00M0
0000
,
010M
0000
00M0
0M00
0000
0000
0000
0000
,
01M0
0000
000M
0M00
0001
0000
0000
0000
,
10M0
0000
0M00
0000
,
0001
0000
0000
0000
0000
0000
0000
0000
001M
0000
0000
M000
0000
0000
000M
0000
,
01M0
0000
000M
M000
0000
0000
0000
0000
,
M001
0000
000M
0M00
0010
0000
0000
0000
,
M000
0M00
00M0
000M
0M00
00M0
M000
0000
0000
0000
0000
0000
0000
0000
0000
0000
;

//---------------dance-single - Geriatric Patrick----------------
#NOTES:
     dance-single:
     Geriatric Patrick:
     Easy:
     6:
     0.332,0.258,0.007,0.051,0.000:
0000
0000
0000
0000
,
0000
0000
0000
0000
,
0000
0000
0000
0000
,
0000
0000
0000
0000
,
0000
0000
0000
0000
,
0000
0000
0000
0000
,
0000
0000
0000
0000
,
0000
0000
0000
0000
,
1000
0000
0000
0000
,
0001
0000
0010
0000
,
0100
0000
0000
0000
,
0001
0000
1000
0000
,
0010
0000
0000
0000
,
0001
0000
0010
0000
,
0100
0000
0000
0000
,
0002
0000
0000
0000
,
1003
0010
0100
0010
,
1000
0010
0100
0100
,
0010
1000
0001
1000
,
0010
1000
0001
0001
,
0010
0001
0100
0001
,
0010
0001
0100
0001
,
0010
0100
1000
1000
,
0200
0000
0000
0000
,
1300
0001
0100
0001
,
0010
0010
0100
0100
,
0010
0001
1000
0010
,
0100
0100
0010
0010
,
0100
0001
0010
0001
,
1000
1000
0100
0100
,
1000
0001
0100
0001
,
2000
0000
0000
0000
,
3100
0010
0100
1000
,
0001
0001
0100
0100
,
0001
0010
0001
1000
,
0010
0010
0100
0100
,
0001
1000
0001
0100
,
0010
0010
0100
0100
,
0001
1000
0100
0010
,
0002
0000
0000
0000
,
0103
0010
1000
0001
,
0010
0100
1000
0001
,
1000
0100
0010
0001
,
0100
0010
1000
0100
,
1000
0001
0100
0010
,
1000
0001
0010
0100
,
1000
0010
0100
0001
,
0200
0000
0000
0000
,
0310
0100
0001
0010
,
0100
1000
0010
0100
,
0010
1000
0001
0010
,
0100
1000
0001
0100
,
0001
0010
0100
1000
,
0010
0100
0001
0010
,
0100
1000
0001
0100
,
M001
M001
M001
M001
,
1000
0100
0010
0100
,
1000
0100
0010
0100
,
1000
0001
0010
0001
,
1000
0001
0010
0001
,
0100
0010
1000
0010
,
0100
0010
1000
0010
,
0100
0001
0010
0100
,
0020
0000
0000
0000
,
0031
0100
0010
0100
,
0001
0100
0010
0100
,
0001
1000
0010
1000
,
0001
1000
0010
1000
,
0100
0010
0001
0010
,
0100
0010
1000
0010
,
0100
1000
0010
0001
,
0010
1000
0100
0010
,
0100
0100
0100
0100
,
0010
0001
0100
0001
,
1000
1000
1000
1000
,
0100
0010
0100
1000
,
0001
0001
0001
0001
,
0010
0100
0001
0100
,
1000
1000
1000
1000
,
1000
1000
1000
0001
,
1000
0100
0010
0001
,
0100
0010
1000
0100
,
1000
0001
0100
0010
,
1000
0001
0010
0100
,
0010
0001
0100
0010
,
1000
0100
0010
0001
,
1000
0010
0100
0001
,
0200
0000
0000
0000
,
0301
0010
0100
1000
,
0010
0100
0001
0010
,
0001
1000
0010
0100
,
0001
1000
0100
0010
,
0100
1000
0010
0100
,
0001
0010
0100
1000
,
0010
0100
0001
0010
,
0001
1000
0001
1000
,
1001
0000
0000
0000
,
0100
0000
0010
0000
,
1000
0000
0000
0000
,
0001
0000
0100
0000
,
0010
0000
0000
0000
,
0001
0000
0010
0000
,
0100
0000
0000
0000
,
0002
0000
0000
0000
,
1003
0010
0100
0010
,
1000
0010
0100
0100
,
0010
1000
0001
1000
,
0010
1000
0001
0001
,
0010
0001
0100
0001
,
0010
0001
0100
0001
,
0010
0100
1000
1000
,
0200
0000
0000
0000
,
1300
0001
0100
0001
,
0010
0010
0100
0100
,
0010
0001
1000
0010
,
0100
0100
0010
0010
,
0100
0001
0010
0001
,
1000
1000
0100
0100
,
1000
0001
0100
0001
,
2000
0000
0000
0000
,
3100
0010
0100
1000
,
0001
0001
0100
0100
,
0001
0010
0001
1000
,
0010
0010
0100
0100
,
0001
1000
0001
0100
,
0010
0010
0100
0100
,
0001
1000
0100
0010
,
0002
0000
0000
0000
,
0103
0010
1000
0001
,
0010
0100
1000
0001
,
1000
0100
0010
0001
,
0100
0010
1000
0100
,
1000
0001
0100
0010
,
1000
0001
0010
0100
,
1000
0010
0100
0001
,
0200
0000
0000
0000
,
0310
0100
0001
0010
,
0100
1000
0010
0100
,
0010
1000
0001
0010
,
0100
1000
0001
0100
,
0001
0010
0100
1000
,
0010
0100
0001
0010
,
0100
1000
0001
0100
,
M001
M001
M001
M001
,
1000
0100
0010
0100
,
1000
0100
0010
0100
,
1000
0001
0010
0001
,
1000
0001
0010
0001
,
0100
0010
1000
0010
,
0100
0010
1000
0010
,
0100
0001
0010
0100
,
0020
0000
0000
0000
,
0031
0100
0010
0100
,
0001
0100
0010
0100
,
0001
1000
0010
1000
,
0001
1000
0010
1000
,
0100
0010
0001
0010
,
0100
0010
1000
0010
,
0100
1000
0010
0001
,
0010
1000
0100
0010
,
0100
0100
0100
0100
,
0010
0001
0100
0001
,
1000
1000
1000
1000
,
0100
0010
0100
1000
,
0001
0001
0001
0001
,
0010
0100
0001
0100
,
1000
1000
1000
1000
,
1000
1000
1000
0001
,
1000
0100
0010
0001
,
0100
0010
1000
0100
,
1000
0001
0100
0010
,
1000
0001
0010
0100
,
0010
0001
0100
0010
,
1000
0100
0010
0001
,
1000
0010
0100
0001
,
0200
0000
0000
0000
,
0301
0010
0100
1000
,
0010
0100
0001
0010
,
0001
1000
0010
0100
,
0001
1000
0100
0010
,
0100
1000
0010
0100
,
0001
0010
0100
1000
,
0010
0100
0001
0010
,
0001
1000
0001
1000
,
1001
0000
0000
0000
,
0100
0000
0010
0000
,
1000
0000
0000
0000
,
0001
0000
0100
0000
,
0010
0000
0000
0000
,
0001
0000
0010
0000
,
0100
0000
0000
0000
,
0002
0000
0000
0000
,
1003
0010
0100
0010
,
1000
0010
0100
0100
,
0010
1000
0001
1000
,
0010
1000
0001
0001
,
0010
0001
0100
0001
,
0010
0001
0100
0001
,
0010
0100
1000
1000
,
0200
0000
0000
0000
,
1300
0001
0100
0001
,
0010
0010
0100
0100
,
0010
0001
1000
0010
,
0100
0100
0010
0010
,
0100
0001
0010
0001
,
1000
1000
0100
0100
,
1000
0001
0100
0001
,
2000
0000
0000
0000
,
3100
0010
0100
1000
,
0001
0001
0100
0100
,
0001
0010
0001
1000
,
0010
0010
0100
0100
,
0001
1000
0001
0100
,
0010
0010
0100
0100
,
0001
1000
0100
0010
,
0002
0000
0000
0000
,
0103
0010
1000
0001
,
0010
0100
1000
0001
,
1000
0100
0010
0001
,
0100
0010
1000
0100
,
1000
0001
0100
0010
,
1000
0001
0010
0100
,
1000
0010
0100
0001
,
0200
0000
0000
0000
,
0310
0100
0001
0010
,
0100
1000
0010
0100
,
0010
1000
0001
0010
,
0100
1000
0001
0100
,
0001
0010
0100
1000
,
0010
0100
0001
0010
,
0100
1000
0001
0100
,
M001
M001
M001
M001
,
1000
0100
0010
0100
,
1000
0100
0010
0100
,
1000
0001
0010
0001
,
1000
0001
0010
0001
,
0100
0010
1000
0010
,
0100
0010
1000
0010
,
0100
0001
0010
0100
,
0020
0000
0000
0000
,
0031
0100
0010
0100
,
0001
0100
0010
0100
,
0001
1000
0010
1000
,
0001
1000
0010
1000
,
0100
0010
0001
0010
,
0100
0010
1000
0010
,
0100
1000
0010
0001
,
0010
1000
0100
0010
,
0100
0100
0100
0100
,
0010
0001
0100
0001
,
1000
1000
1000
1000
,
0100
0010
0100
1000
,
0001
0001
0001
0001
,
0010
0100
0001
0100
,
1000
1000
1000
1000
,
1000
1000
1000
0001
,
1000
0100
0010
0001
,
0100
0010
1000
0100
,
1000
0001
0100
0010
,
1000
0001
0010
0100
,
0010
0001
0100
0010
,
1000
0100
0010
0001
,
1000
0010
0100
0001
,
0200
0000
0000
0000
,
0301
0010
0100
1000
,
0010
0100
0001
0010
,
0001
1000
0010
0100
,
0001
1000
0100
0010
,
0100
1000
0010
0100
,
0001
0010
0100
1000
,
0010
0100
0001
0010
,
0001
1000
0001
1000
,
1001
0000
0000
0000
,
0100
0000
0010
0000
,
1000
0000
0000
0000
,
0001
0000
0100
0000
,
0010
0000
0000
0000
,
0001
0000
0010
0000
,
0100
0000
0000
0000
,
0002
0000
0000
0000
,
1003
0010
0100
0010
,
1000
0010
0100
0100
,
0010
1000
0001
1000
,
0010
1000
0001
0001
,
0010
0001
0100
0001
,
0010
0001
0100
0001
,
0010
0100
1000
1000
,
0200
0000
0000
0000
,
1300
0001
0100
0001
,
0010
0010
0100
0100
,
0010
0001
1000
0010
,
0100
0100
0010
0010
,
0100
0001
0010
0001
,
1000
1000
0100
0100
,
1000
0001
0100
0001
,
2000
0000
0000
0000
,
3100
0010
0100
1000
,
0001
0001
0100
0100
,
0001
0010
0001
1000
,
0010
0010
0100
0100
,
0001
1000
0001
0100
,
0010
0010
0100
0100
,
0001
1000
0100
0010
,
0002
0000
0000
0000
,
0103
0010
1000
0001
,
0010
0100
1000
0001
,
1000
0100
0010
0001
,
0100
0010
1000
0100
,
1000
0001
0100
0010
,
1000
0001
0010
0100
,
1000
0010
0100
0001
,
0200
0000
0000
0000
,
0310
0100
0001
0010
,
0100
1000
0010
0100
,
0010
1000
0001
0010
,
0100
1000
0001
0100
,
0001
0010
0100
1000
,
0010
0100
0001
0010
,
0100
1000
0001
0100
,
M001
M001
M001
M001
,
1000
0100
0010
0100
,
1000
0100
0010
0100
,
1000
0001
0010
0001
,
1000
0001
0010
0001
,
0100
0010
1000
0010
,
0100
0010
1000
0010
,
0100
0001
0010
0100
,
0020
0000
0000
0000
,
0031
0100
0010
0100
,
0001
0100
0010
0100
,
0001
1000
0010
1000
,
0001
1000
0010
1000
,
0100
0010
0001
0010
,
0100
0010
1000
0010
,
0100
1000
0010
0001
,
0010
1000
0100
0010
,
0100
0100
0100
0100
,
0010
0001
0100
0001
,
1000
1000
1000
1000
,
0100
0010
0100
1000
,
0001
0001
0001
0001
,
0010
0100
0001
0100
,
1000
1000
1000
1000
,
1000
1000
1000
0001
,
1000
0100
0010
0001
,
0100
0010
1000
0100
,
1000
0001
0100
0010
,
1000
0001
0010
0100
,
0010
0001
0100
0010
,
1000
0100
0010
0001
,
1000
0010
0100
0001
,
0200
0000
0000
0000
,
0301
0010
0100
1000
,
0010
0100
0001
0010
,
0001
1000
0010
0100
,
0001
1000
0100
0010
,
0100
1000
0010
0100
,
0001
0010
0100
1000
,
0010
0100
0001
0010
,
0001
1000
0001
1000
,
1001
0000
0000
0000
,
0100
0000
0010
0000
,
1000
0000
0000
0000
,
0001
0000
0100
0000
,
0010
0000
0000
0000
,
0001
0000
0010
0000
,
0100
0000
0000
0000
,
0002
0000
0000
0000
,
1003
0010
0100
0010
,
1000
0010
0100
0100
,
0010
1000
0001
1000
,
0010
1000
0001
0001
,
0010
0001
0100
0001
,
0010
0001
0100
0001
,
0010
0100
1000
1000
,
0200
0000
0000
0000
,
1300
0001
0100
0001
,
0010
0010
0100
0100
,
0010
0001
1000
0010
,
0100
0100
0010
0010
,
0100
0001
0010
0001
,
1000
1000
0100
0100
,
1000
0001
0100
0001
,
2000
0000
0000
0000
,
3100
0010
0100
1000
,
0001
0001
0100
0100
,
0001
0010
0001
1000
,
0010
0010
0100
0100
,
0001
1000
0001
0100
,
0010
0010
0100
0100
,
0001
1000
0100
0010
,
0002
0000
0000
0000
,
0103
0010
1000
0001
,
0010
0100
1000
0001
,
1000
0100
0010
0001
,
0100
0010
1000
0100
,
1000
0001
0100
0010
,
1000
0001
0010
0100
,
1000
0010
0100
0001
,
0200
0000
0000
0000
,
0310
0100
0001
0010
,
0100
1000
0010
0100
,
0010
1000
0001
0010
,
0100
1000
0001
0100
,
0001
0010
0100
1000
,
0010
0100
0001
0010
,
0100
1000
0001
0100
,
M001
M001
M001
M001
,
1000
0100
0010
0100
,
1000
0100
0010
0100
,
1000
0001
0010
0001
,
1000
0001
0010
0001
,
0100
0010
1000
0010
,
0100
0010
1000
0010
,
0100
0001
0010
0100
,
0020
0000
0000
0000
,
0031
0100
0010
0100
,
0001
0100
0010
0100
,
0001
1000
0010
1000
,
0001
1000
0010
1000
,
0100
0010
0001
0010
,
0100
0010
1000
0010
,
0100
1000
0010
0001
,
0010
1000
0100
0010
,
0100
0100
0100
0100
,
0010
0001
0100
0001
,
1000
1000
1000
1000
,
0100
0010
0100
1000
,
0001
0001
0001
0001
,
0010
0100
0001
0100
,
1000
1000
1000
1000
,
1000
1000
1000
0001
,
1000
0100
0010
0001
,
0100
0010
1000
0100
,
1000
0001
0100
0010
,
1000
0001
0010
0100
,
0010
0001
0100
0010
,
1000
0100
0010
0001
,
1000
0010
0100
0001
,
0200
0000
0000
0000
,
0301
0010
0100
1000
,
0010
0100
0001
0010
,
0001
1000
0010
0100
,
0001
1000
0100
0010
,
0100
1000
0010
0100
,
0001
0010
0100
1000
,
0010
0100
0001
0010
,
0001
1000
0001
1000
,
1001
0000
0000
0000
,
0100
0000
0010
0000
,
1000
0000
0000
0000
,
0001
0000
0100
0000
,
0010
0000
0000
0000
,
0001
0000
0010
0000
,
0100
0000
0000
0000
,
0002
0000
0000
0000
,
1003
0010
0100
0010
,
1000
0010
0100
0100
,
0010
1000
0001
1000
,
0010
1000
0001
0001
,
0010
0001
0100
0001
,
0010
0001
0100
0001
,
0010
0100
1000
1000
,
0200
0000
0000
0000
,
1300
0001
0100
0001
,
0010
0010
0100
0100
,
0010
0001
1000
0010
,
0100
0100
0010
0010
,
0100
0001
0010
0001
,
1000
1000
0100
0100
,
1000
0001
0100
0001
,
2000
0000
0000
0000
,
3100
0010
0100
1000
,
0001
0001
0100
0100
,
0001
0010
0001
1000
,
0010
0010
0100
0100
,
0001
1000
0001
0100
,
0010
0010
0100
0100
,
0001
1000
0100
0010
,
0002
0000
0000
0000
,
0103
0010
1000
0001
,
0010
0100
1000
0001
,
1000
0100
0010
0001
,
0100
0010
1000
0100
,
1000
0001
0100
0010
,
1000
0001
0010
0100
,
1000
0010
0100
0001
,
0200
0000
0000
0000
,
0310
0100
0001
0010
,
0100
1000
0010
0100
,
0010
1000
0001
0010
,
0100
1000
0001
0100
,
0001
0010
0100
1000
,
0010
0100
0001
0010
,
0100
1000
0001
0100
,
M001
M001
M001
M001
,
1000
0100
0010
0100
,
1000
0100
0010
0100
,
1000
0001
0010
0001
,
1000
0001
0010
0001
,
0100
0010
1000
0010
,
0100
0010
1000
0010
,
0100
0001
0010
0100
,
0020
0000
0000
0000
,
0031
0100
0010
0100
,
0001
0100
0010
0100
,
0001
1000
0010
1000
,
0001
1000
0010
1000
,
0100
0010
0001
0010
,
0100
0010
1000
0010
,
0100
1000
0010
0001
,
0010
1000
0100
0010
,
0100
0100
0100
0100
,
0010
0001
0100
0001
,
1000
1000
1000
1000
,
0100
0010
0100
1000
,
0001
0001
0001
0001
,
0010
0100
0001
0100
,
1000
1000
1000
1000
,
1000
1000
1000
0001
,
1000
0100
0010
0001
,
0100
0010
1000
0100
,
1000
0001
0100
0010
,
1000
0001
0010
0100
,
0010
0001
0100
0010
,
1000
0100
0010
0001
,
1000
0010
0100
0001
,
0200
0000
0000
0000
,
0301
0010
0100
1000
,
0010
0100
0001
0010
,
0001
1000
0010
0100
,
0001
1000
0100
0010
,
0100
1000
0010
0100
,
0001
0010
0100
1000
,
0010
0100
0001
0010
,
0001
1000
0001
1000
,
1001
0000
0000
0000
,
0100
0000
0010
0000
,
1000
0000
0000
0000
,
0001
0000
0100
0000
,
0010
0000
0000
0000
,
0001
0000
0010
0000
,
0100
0000
0000
0000
,
0002
0000
0000
0000
,
1003
0010
0100
0010
,
1000
0010
0100
0100
,
0010
1000
0001
1000
,
0010
1000
0001
0001
,
0010
0001
0100
0001
,
0010
0001
0100
0001
,
0010
0100
1000
1000
,
0200
0000
0000
0000
,
1300
0001
0100
0001
,
0010
0010
0100
0100
,
0010
0001
1000
0010
,
0100
0100
0010
0010
,
0100
0001
0010
0001
,
1000
1000
0100
0100
,
1000
0001
0100
0001
,
2000
0000
0000
0000
,
3100
0010
0100
1000
,
0001
0001
0100
0100
,
0001
0010
0001
1000
,
0010
0010
0100
0100
,
0001
1000
0001
0100
,
0010
0010
0100
0100
,
0001
1000
0100
0010
,
0002
0000
0000
0000
,
0103
0010
1000
0001
,
0010
0100
1000
0001
,
1000
0100
0010
0001
,
0100
0010
1000
0100
,
1000
0001
0100
0010
,
1000
0001
0010
0100
,
1000
0010
0100
0001
,
0200
0000
0000
0000
,
0310
0100
0001
0010
,
0100
1000
0010
0100
,
0010
1000
0001
0010
,
0100
1000
0001
0100
,
0001
0010
0100
1000
,
0010
0100
0001
0010
,
0100
1000
0001
0100
,
M001
M001
M001
M001
,
1000
0100
0010
0100
,
1000
0100
0010
0100
,
1000
0001
0010
0001
,
1000
0001
0010
0001
,
0100
0010
1000
0010
,
0100
0010
1000
0010
,
0100
0001
0010
0100
,
0020
0000
0000
0000
,
0031
0100
0010
0100
,
0001
0100
0010
0100
,
0001
1000
0010
1000
,
0001
1000
0010
1000
,
0100
0010
0001
0010
,
0100
0010
1000
0010
,
0100
1000
0010
0001
,
0010
1000
0100
0010
,
0100
0100
0100
0100
,
0010
0001
0100
0001
,
1000
1000
1000
1000
,
0100
0010
0100
1000
,
0001
0001
0001
0001
,
0010
0100
0001
0100
,
1000
1000
1000
1000
,
1000
1000
1000
0001
,
1000
0100
0010
0001
,
0100
0010
1000
0100
,
1000
0001
0100
0010
,
1000
0001
0010
0100
,
0010
0001
0100
0010
,
1000
0100
0010
0001
,
1000
0010
0100
0001
,
0200
0000
0000
0000
,
0301
0010
0100
1000
,
0010
0100
0001
0010
,
0001
1000
0010
0100
,
0001
1000
0100
0010
,
0100
1000
0010
0100
,
0001
0010
0100
1000
,
0010
0100
0001
0010
,
0001
1000
0001
1000
,
1001
0000
0000
0000
,
0100
0000
0010
0000
,
1000
0000
0000
0000
,
0001
0000
0100
0000
,
0010
0000
0000
0000
,
0001
0000
0010
0000
,
0100
0000
0000
0000
,
0002
0000
0000
0000
,
1003
0010
0100
0010
,
1000
0010
0100
0100
,
0010
1000
0001
1000
,
0010
1000
0001
0001
,
0010
0001
0100
0001
,
0010
0001
0100
0001
,
0010
0100
1000
1000
,
0200
0000
0000
0000
,
1300
0001
0100
0001
,
0010
0010
0100
0100
,
0010
0001
1000
0010
,
0100
0100
0010
0010
,
0100
0001
0010
0001
,
1000
1000
0100
0100
,
1000
0001
0100
0001
,
2000
0000
0000
0000
,
3100
0010
0100
1000
,
0001
0001
0100
0100
,
0001
0010
0001
1000
,
0010
0010
0100
0100
,
0001
1000
0001
0100
,
0010
0010
0100
0100
,
0001
1000
0100
0010
,
0002
0000
0000
0000
,
0103
0010
1000
0001
,
0010
0100
1000
0001
,
1000
0100
0010
0001
,
0100
0010
1000
0100
,
1000
0001
0100
0010
,
1000
0001
0010
0100
,
1000
0010
0100
0001
,
0200
0000
0000
0000
,
0310
0100
0001
0010
,
0100
1000
0010
0100
,
0010
1000
0001
0010
,
0100
1000
0001
0100
,
0001
0010
0100
1000
,
0010
0100
0001
0010
,
0100
1000
0001
0100
,
M001
M001
M001
M001
,
1000
0100
0010
0100
,
1000
0100
0010
0100
,
1000
0001
0010
0001
,
1000
0001
0010
0001
,
0100
0010
1000
0010
,
0100
0010
1000
0010
,
0100
0001
0010
0100
,
0020
0000
0000
0000
,
0031
0100
0010
0100
,
0001
0100
0010
0100
,
0001
1000
0010
1000
,
0001
1000
0010
1000
,
0100
0010
0001
0010
,
0100
0010
1000
0010
,
0100
1000
0010
0001
,
0010
1000
0100
0010
,
0100
0100
0100
0100
,
0010
0001
0100
0001
,
1000
1000
1000
1000
,
0100
0010
0100
1000
,
0001
0001
0001
0001
,
0010
0100
0001
0100
,
1000
1000
1000
1000
,
1000
1000
1000
0001
,
1000
0100
0010
0001
,
0100
0010
1000
0100
,
1000
0001
0100
0010
,
1000
0001
0010
0100
,
0010
0001
0100
0010
,
1000
0100
0010
0001
,
1000
0010
0100
0001
,
0200
0000
0000
0000
,
0301
0010
0100
1000
,
0010
0100
0001
0010
,
0001
1000
0010
0100
,
0001
1000
0100
0010
,
0100
1000
0010
0100
,
0001
0010
0100
1000
,
0010
0100
0001
0010
,
0001
1000
0001
1000
,
1001
0000
0000
0000
,
0100
0000
0010
0000
,
1000
0000
0000
0000
,
0001
0000
0100
0000
,
0010
0000
0000
0000
,
0001
0000
0010
0000
,
0100
0000
0000
0000
,
0002
0000
0000
0000
,
1003
0010
0100
0010
,
1000
0010
0100
0100
,
0010
1000
0001
1000
,
0010
1000
0001
0001
,
0010
0001
0100
0001
,
0010
0001
0100
0001
,
0010
0100
1000
1000
,
0200
0000
0000
0000
,
1300
0001
0100
0001
,
0010
0010
0100
0100
,
0010
0001
1000
0010
,
0100
0100
0010
0010
,
0100
0001
0010
0001
,
1000
1000
0100
0100
,
1000
0001
0100
0001
,
2000
0000
0000
0000
,
3100
0010
0100
1000
,
0001
0001
0100
0100
,
0001
0010
0001
1000
,
0010
0010
0100
0100
,
0001
1000
0001
0100
,
0010
0010
0100
0100
,
0001
1000
0100
0010
,
0002
0000
0000
0000
,
0103
0010
1000
0001
,
0010
0100
1000
0001
,
1000
0100
0010
0001
,
0100
0010
1000
0100
,
1000
0001
0100
0010
,
1000
0001
0010
0100
,
1000
0010
0100
0001
,
0200
0000
0000
0000
,
0310
0100
0001
0010
,
0100
1000
0010
0100
,
0010
1000
0001
0010
,
0100
1000
0001
0100
,
0001
0010
0100
1000
,
0010
0100
0001
0010
,
0100
1000
0001
0100
,
M001
M001
M001
M001
,
1000
0100
0010
0100
,
1000
0100
0010
0100
,
1000
0001
0010
0001
,
1000
0001
0010
0001
,
0100
0010
1000
0010
,
0100
0010
1000
0010
,
0100
0001
0010
0100
,
0020
0000
0000
0000
,
0031
0100
0010
0100
,
0001
0100
0010
0100
,
0001
1000
0010
1000
,
0001
1000
0010
1000
,
0100
0010
0001
0010
,
0100
0010
1000
0010
,
0100
1000
0010
0001
,
0010
1000
0100
0010
,
0100
0100
0100
0100
,
0010
0001
0100
0001
,
1000
1000
1000
1000
,
0100
0010
0100
1000
,
0001
0001
0001
0001
,
0010
0100
0001
0100
,
1000
1000
1000
1000
,
1000
1000
1000
0001
,
1000
0100
0010
0001
,
0100
0010
1000
0100
,
1000
0001
0100
0010
,
1000
0001
0010
0100
,
0010
0001
0100
0010
,
1000
0100
0010
0001
,
1000
0010
0100
0001
,
0200
0000
0000
0000
,
0301
0010
0100
1000
,
0010
0100
0001
0010
,
0001
1000
0010
0100
,
0001
1000
0100
0010
,
0100
1000
0010
0100
,
0001
0010
0100
1000
,
0010
0100
0001
0010
,
0001
1000
0001
1000
,
1001
0000
0000
0000
,
0100
0000
0010
0000
,
1000
0000
0000
0000
,
0001
0000
0100
0000
,
0010
0000
0000
0000
,
0001
0000
0010
0000
,
0100
0000
0000
0000
,
0002
0000
0000
0000
,
1003
0010
0100
0010
,
1000
0010
0100
0100
,
0010
1000
0001
1000
,
0010
1000
0001
0001
,
0010
0001
0100
0001
,
0010
0001
0100
0001
,
0010
0100
1000
1000
,
0200
0000
0000
0000
,
1300
0001
0100
0001
,
0010
0010
0100
0100
,
0010
0001
1000
0010
,
0100
0100
0010
0010
,
0100
0001
0010
0001
,
1000
1000
0100
0100
,
1000
0001
0100
0001
,
2000
0000
0000
0000
,
3100
0010
0100
1000
,
0001
0001
0100
0100
,
0001
0010
0001
1000
,
0010
0010
0100
0100
,
0001
1000
0001
0100
,
0010
0010
0100
0100
,
0001
1000
0100
0010
,
0002
0000
0000
0000
,
0103
0010
1000
0001
,
0010
0100
1000
0001
,
1000
0100
0010
0001
,
0100
0010
1000
0100
,
1000
0001
0100
0010
,
1000
0001
0010
0100
,
1000
0010
0100
0001
,
0200
0000
0000
0000
,
0310
0100
0001
0010
,
0100
1000
0010
0100
,
0010
1000
0001
0010
,
0100
1000
0001
0100
,
0001
0010
0100
1000
,
0010
0100
0001
0010
,
0100
1000
0001
0100
,
M001
M001
M001
M001
,
1000
0100
0010
0100
,
1000
0100
0010
0100
,
1000
0001
0010
0001
,
1000
0001
0010
0001
,
0100
0010
1000
0010
,
0100
0010
1000
0010
,
0100
0001
0010
0100
,
0020
0000
0000
0000
,
0031
0100
0010
0100
,
0001
0100
0010
0100
,
0001
1000
0010
1000
,
0001
1000
0010
1000
,
0100
0010
0001
0010
,
0100
0010
1000
0010
,
0100
1000
0010
0001
,
0010
1000
0100
0010
,
0100
0100
0100
0100
,
0010
0001
0100
0001
,
1000
1000
1000
1000
,
0100
0010
0100
1000
,
0001
0001
0001
0001
,
0010
0100
0001
0100
,
1000
1000
1000
1000
,
1000
1000
1000
0001
,
1000
0100
0010
0001
,
0100
0010
1000
0100
,
1000
0001
0100
0010
,
1000
0001
0010
0100
,
0010
0001
0100
0010
,
1000
0100
0010
0001
,
1000
0010
0100
0001
,
0200
0000
0000
0000
,
0301
0010
0100
1000
,
0010
0100
0001
0010
,
0001
1000
0010
0100
,
0001
1000
0100
0010
,
0100
1000
0010
0100
,
0001
0010
0100
1000
,
0010
0100
0001
0010
,
0001
1000
0001
1000
,
1001
0000
0000
0000
,
0100
0000
0010
0000
,
1000
0000
0000
0000
,
0001
0000
0100
0000
,
0010
0000
0000
0000
,
0001
0000
0010
0000
,
0100
0000
0000
0000
,
0002
0000
0000
0000
,
1003
0010
0100
0010
,
1000
0010
0100
0100
,
0010
1000
0001
1000
,
0010
1000
0001
0001
,
0010
0001
0100
0001
,
0010
0001
0100
0001
,
0010
0100
1000
1000
,
0200
0000
0000
0000
,
1300
0001
0100
0001
,
0010
0010
0100
0100
,
0010
0001
1000
0010
,
0100
0100
0010
0010
,
0100
0001
0010
0001
,
1000
1000
0100
0100
,
1000
0001
0100
0001
,
2000
0000
0000
0000
,
3100
0010
0100
1000
,
0001
0001
0100
0100
,
0001
0010
0001
1000
,
0010
0010
0100
0100
,
0001
1000
0001
0100
,
0010
0010
0100
0100
,
0001
1000
0100
0010
,
0002
0000
0000
0000
,
0103
0010
1000
0001
,
0010
0100
1000
0001
,
1000
0100
0010
0001
,
0100
0010
1000
0100
,
1000
0001
0100
0010
,
1000
0001
0010
0100
,
1000
0010
0100
0001
,
0200
0000
0000
0000
,
0310
0100
0001
0010
,
0100
1000
0010
0100
,
0010
1000
0001
0010
,
0100
1000
0001
0100
,
0001
0010
0100
1000
,
0010
0100
0001
0010
,
0100
1000
0001
0100
,
M001
M001
M001
M001
,
1000
0100
0010
0100
,
1000
0100
0010
0100
,
1000
0001
0010
0001
,
1000
0001
0010
0001
,
0100
0010
1000
0010
,
0100
0010
1000
0010
,
0100
0001
0010
0100
,
0020
0000
0000
0000
,
0031
0100
0010
0100
,
0001
0100
0010
0100
,
0001
1000
0010
1000
,
0001
1000
0010
1000
,
0100
0010
0001
0010
,
0100
0010
1000
0010
,
0100
1000
0010
0001
,
0010
1000
0100
0010
,
0100
0100
0100
0100
,
0010
0001
0100
0001
,
1000
1000
1000
1000
,
0100
0010
0100
1000
,
0001
0001
0001
0001
,
0010
0100
0001
0100
,
1000
1000
1000
1000
,
1000
1000
1000
0001
,
1000
0100
0010
0001
,
0100
0010
1000
0100
,
1000
0001
0100
0010
,
1000
0001
0010
0100
,
0010
0001
0100
0010
,
1000
0100
0010
0001
,
1000
0010
0100
0001
,
0200
0000
0000
0000
,
0301
0010
0100
1000
,
0010
0100
0001
0010
,
0001
1000
0010
0100
,
0001
1000
0100
0010
,
0100
1000
0010
0100
,
0001
0010
0100
1000
,
0010
0100
0001
0010
,
0001
1000
0001
1000
,
1001
0000
0000
0000
,
0100
0000
0010
0000
,
1000
0000
0000
0000
,
0001
0000
0100
0000
,
0010
0000
0000
0000
,
0001
0000
0010
0000
,
0100
0000
0000
0000
,
0002
0000
0000
0000
,
1003
0010
0100
0010
,
1000
0010
0100
0100
,
0010
1000
0001
1000
,
0010
1000
0001
0001
,
0010
0001
0100
0001
,
0010
0001
0100
0001
,
0010
0100
1000
1000
,
0200
0000
0000
0000
,
1300
0001
0100
0001
,
0010
0010
0100
0100
,
0010
0001
1000
0010
,
0100
0100
0010
0010
,
0100
0001
0010
0001
,
1000
1000
0100
0100
,
1000
0001
0100
0001
,
2000
0000
0000
0000
,
3100
0010
0100
1000
,
0001
0001
0100
0100
,
0001
0010
0001
1000
,
0010
0010
0100
0100
,
0001
1000
0001
0100
,
0010
0010
0100
0100
,
0001
1000
0100
0010
,
0002
0000
0000
0000
,
0103
0010
1000
0001
,
0010
0100
1000
0001
,
1000
0100
0010
0001
,
0100
0010
1000
0100
,
1000
0001
0100
0010
,
1000
0001
0010
0100
,
1000
0010
0100
0001
,
0200
0000
0000
0000
,
0310
0100
0001
0010
,
0100
1000
0010
0100
,
0010
1000
0001
0010
,
0100
1000
0001
0100
,
0001
0010
0100
1000
,
0010
0100
0001
0010
,
0100
1000
0001
0100
,
M001
M001
M001
M001
,
1000
0100
0010
0100
,
1000
0100
0010
0100
,
1000
0001
0010
0001
,
1000
0001
0010
0001
,
0100
0010
1000
0010
,
0100
0010
1000
0010
,
0100
0001
0010
0100
,
0020
0000
0000
0000
,
0031
0100
0010
0100
,
0001
0100
0010
0100
,
0001
1000
0010
1000
,
0001
1000
0010
1000
,
0100
0010
0001
0010
,
0100
0010
1000
0010
,
0100
1000
0010
0001
,
0010
1000
0100
0010
,
0100
0100
0100
0100
,
0010
0001
0100
0001
,
1000
1000
1000
1000
,
0100
0010
0100
1000
,
0001
0001
0001
0001
,
0010
0100
0001
0100
,
1000
1000
1000
1000
,
1000
1000
1000
0001
,
1000
0100
0010
0001
,
0100
0010
1000
0100
,
1000
0001
0100
0010
,
1000
0001
0010
0100
,
0010
0001
0100
0010
,
1000
0100
0010
0001
,
1000
0010
0100
0001
,
0200
0000
0000
0000
,
0301
0010
0100
1000
,
0010
0100
0001
0010
,
0001
1000
0010
0100
,
0001
1000
0100
0010
,
0100
1000
0010
0100
,
0001
0010
0100
1000
,
0010
0100
0001
0010
,
0001
1000
0001
1000
,
1001
0000
0000
0000
,
0100
0000
0010
0000
,
1000
0000
0000
0000
,
0001
0000
0100
0000
,
0010
0000
0000
0000
,
0001
0000
0010
0000
,
0100
0000
0000
0000
,
0002
0000
0000
0000
,
1003
0010
0100
0010
,
1000
0010
0100
0100
,
0010
1000
0001
1000
,
0010
1000
0001
0001
,
0010
0001
0100
0001
,
0010
0001
0100
0001
,
0010
0100
1000
1000
,
0200
0000
0000
0000
,
1300
0001
0100
0001
,
0010
0010
0100
0100
,
0010
0001
1000
0010
,
0100
0100
0010
0010
,
0100
0001
0010
0001
,
1000
1000
0100
0100
,
1000
0001
0100
0001
,
2000
0000
0000
0000
,
3100
0010
0100
1000
,
0001
0001
0100
0100
,
0001
0010
0001
1000
,
0010
0010
0100
0100
,
0001
1000
0001
0100
,
0010
0010
0100
0100
,
0001
1000
0100
0010
,
0002
0000
0000
0000
,
0103
0010
1000
0001
,
0010
0100
1000
0001
,
1000
0100
0010
0001
,
0100
0010
1000
0100
,
1000
0001
0100
0010
,
1000
0001
0010
0100
,
1000
0010
0100
0001
,
0200
0000
0000
0000
,
0310
0100
0001
0010
,
0100
1000
0010
0100
,
0010
1000
0001
0010
,
0100
1000
0001
0100
,
0001
0010
0100
1000
,
0010
0100
0001
0010
,
0100
1000
0001
0100
,
M001
M001
M001
M001
,
1000
0100
0010
0100
,
1000
0100
0010
0100
,
1000
0001
0010
0001
,
1000
0001
0010
0001
,
0100
0010
1000
0010
,
0100
0010
1000
0010
,
0100
0001
0010
0100
,
0020
0000
0000
0000
,
0031
0100
0010
0100
,
0001
0100
0010
0100
,
0001
1000
0010
1000
,
0001
1000
0010
1000
,
0100
0010
0001
0010
,
0100
0010
1000
0010
,
0100
1000
0010
0001
,
0010
1000
0100
0010
,
0100
0100
0100
0100
,
0010
0001
0100
0001
,
1000
1000
1000
1000
,
0100
0010
0100
1000
,
0001
0001
0001
0001
,
0010
0100
0001
0100
,
1000
1000
1000
1000
,
1000
1000
1000
0001
,
1000
0100
0010
0001
,
0100
0010
1000
0100
,
1000
0001
0100
0010
,
1000
0001
0010
0100
,
0010
0001
0100
0010
,
1000
0100
0010
0001
,
1000
0010
0100
0001
,
0200
0000
0000
0000
,
0301
0010
0100
1000
,
0010
0100
0001
0010
,
0001
1000
0010
0100
,
0001
1000
0100
0010
,
0100
1000
0010
0100
,
0001
0010
0100
1000
,
0010
0100
0001
0010
,
0001
1000
0001
1000
,
1001
0000
0000
0000
,
0100
0000
0010
0000
,
1000
0000
0000
0000
,
0001
0000
0100
0000
,
0010
0000
0000
0000
,
1000
0000
0001
0000
,
0100
0000
0000
0000
,
0001
0000
0010
0000
,
0200
0000
0000
0000
,
0000
0000
0000
0000
,
0300
0000
0000
0000
;
