#TITLE:You Make My Dreams;
#SUBTITLE:;
#ARTIST:Hall & Oats;
#TITLETRANSLIT:;
#SUBTITLETRANSLIT:;
#ARTISTTRANSLIT:;
#GENRE:;
#CREDIT:;
#BANNER:You Make My Dreams-bn.png;
#BACKGROUND:You Make My Dreams-bg.png;
#LYRICSPATH:;
#CDTITLE:;
#MUSIC:You Make My Dreams.ogg;
#OFFSET:-0.100;
#SAMPLESTART:126.080;
#SAMPLELENGTH:15.000;
#SELECTABLE:YES;
#BPMS:0.000=165.500,28.000=165.000,37.000=166.000,45.000=166.500,53.000=167.000,61.000=167.500,69.000=166.500,77.000=165.500,85.000=166.500,89.000=167.250,93.000=168.000,97.000=168.750,101.000=169.500,105.000=168.500,109.000=167.500,113.000=168.500,117.000=168.000,121.000=166.000,129.000=167.000,154.667=-167.000,162.667=167.000,171.000=164.500,175.000=165.500,179.000=166.500,183.000=167.500,223.000=168.500,227.000=168.000,235.000=167.500,251.000=167.750,263.000=168.000,267.000=167.000,275.000=167.500,283.000=167.250,291.000=167.750,299.000=167.250,303.000=166.500,307.000=166.750,311.000=167.000,315.000=168.000,339.000=170.000,347.000=168.000,355.000=165.500,363.000=167.000,379.000=168.000,395.000=167.000,403.000=168.500,411.000=168.000,423.000=166.000,427.000=168.000,443.000=168.500,455.000=169.500,459.000=168.500,487.000=167.500,491.000=168.500;
#STOPS:28.000=1.175
,170.667=0.719
;
#SCROLLS:0.000=1.000;
#TIMESIGNATURES:0.000=4=4;
#BGCHANGES:0.000=You Make My Dreams-bg.png=1.000=0=0=0=StretchNoLoop====,
16.000=You Make My Dreams.avi=1.000=0=0=1=====,
580.000=You Make My Dreams-bg.png=1.000=0=0=1=Centered====,
99999=-nosongbg-=1.000=0=0=0 // don't automatically add -songbackground-
;
#KEYSOUNDS:;

//---------------dance-single - Geriatric Patrick----------------
#NOTES:
     dance-single:
     Geriatric Patrick:
     Challenge:
     9:
     0.625,0.605,0.996,0.023,0.396:
0000
0000
0000
0000
,
0000
0000
0000
0000
,
0000
0000
0000
0000
,
0000
0000
0000
0000
,
0001
0010
0011
0100
,
0011
0000
0000
0100
0000
1000
0001
0000
1000
0100
0000
0010
,
0001
0000
0100
0010
0000
0000
0011
0000
0000
0100
0000
0000
,
1001
0010
1010
0010
,
1010
0000
0000
0010
0000
0000
1010
0000
0010
0100
0000
0010
,
1000
0000
0010
0100
0000
0000
0110
0000
0000
0100
0000
0000
,
0110
0000
0000
0100
0000
0000
0110
0000
0100
0001
0000
0100
,
0010
0000
0100
0001
0000
0000
0101
0000
0000
0001
0000
0000
,
0101
0000
0000
1000
0000
0000
0100
0000
1000
0000
0000
1000
,
0100
0010
0011
0100
,
1100
0000
0000
0010
0000
0001
1000
0000
0001
0010
0000
0100
,
1000
0000
0100
0010
0000
0000
0110
0000
0000
1000
0000
0000
,
1001
0000
0000
0010
0000
0000
0110
0000
0100
1000
0000
0100
,
0010
0000
0100
1000
0000
0000
1010
0000
0000
0001
0000
0000
,
0101
0000
0000
1000
0000
0000
1010
0000
0001
0100
0000
0001
,
1000
0000
0001
0100
0000
0000
1001
0000
0000
0100
0000
0000
,
1001
0000
0000
0100
0000
0000
0010
0000
1000
0000
0000
0001
,
0010
0100
0011
1000
,
0011
0000
0000
0100
0000
0010
0001
0000
1000
0100
0000
0010
,
0001
0000
1000
0010
0000
0000
1010
0000
0000
0010
0000
0000
,
1010
0000
0000
0100
0000
0000
1001
0000
0001
0100
0000
0001
,
0010
0000
0001
0100
0000
0000
1010
0000
0000
0001
0000
0000
,
1010
0000
0000
0100
0000
0000
1010
0000
0010
0001
0000
0010
,
1000
0000
0010
0100
0000
0000
0110
0000
0000
0100
0000
0000
,
0110
0000
0000
0001
0000
0000
0101
0000
0001
1000
0000
0001
,
0100
0000
0001
1000
0000
0000
1100
0000
0000
0001
0000
0000
,
0011
0000
0000
1000
0000
0000
0010
0000
0100
0000
0000
0100
,
0010
1000
0011
0100
,
0011
0000
0000
1000
0000
0000
0011
0000
0001
0100
0000
0001
,
0010
0000
0100
1000
0000
0000
0110
0000
0000
1000
0000
0000
,
0101
0000
0000
1000
0000
0000
0110
0000
0100
1000
0000
0001
,
0100
0000
0100
1000
0000
0000
0011
0000
0000
1000
0000
0000
,
0011
0000
0000
0100
0000
0000
1001
0000
0010
0100
0000
1000
,
0001
0000
0010
0100
0000
0000
0110
0000
0000
0100
0000
0000
,
0110
0000
0000
1000
0000
0000
0100
0000
0001
0000
0000
0000
,
0000
0000
0000
0000
,
0000
0000
0000
0000
,
0000
0000
0000
0000
,
0000
0000
0000
1000
,
1010
0001
0011
0100
,
0011
0000
0001
1000
0000
1000
0010
0000
0010
0100
0000
0000
,
1001
0100
1010
0100
,
1001
0000
0001
0100
0000
0100
0010
0000
0010
0100
0000
0000
,
1100
0010
0011
1000
,
0010
0000
0100
0000
0000
0001
0010
0000
0000
0100
0000
0000
,
1001
0010
0110
1000
,
0001
0010
0000
1100
0000
0011
0000
0000
,
1010
0001
0011
1000
,
1010
0000
0010
0100
0000
0100
1000
0000
1000
0100
0000
0000
,
1010
0100
0011
0100
,
1001
0000
0001
0100
0000
0100
0010
0000
0010
0100
0000
0000
,
1100
0001
1001
0100
,
1000
0000
0100
0000
0000
0001
1000
0000
0000
0100
0000
0000
,
0011
1000
1010
0100
,
0011
0000
0001
1000
0000
0000
0010
0000
0000
0100
0000
0000
,
0110
0100
1001
0100
,
0110
0000
0010
0100
0000
0000
1001
0000
0000
0100
0000
0000
,
0011
0100
1100
0001
,
0011
0000
1000
0010
0000
0100
1000
0000
1000
0010
0000
0000
,
0110
1000
0101
1000
,
0110
0000
0010
1000
0000
0001
0100
0000
0100
0010
0000
0000
,
0101
0010
1100
0010
,
0100
0000
0001
0000
0000
0010
1000
0000
0000
0100
0000
0000
,
1001
0100
0011
1000
,
0110
0000
0100
1000
0000
0000
0011
0000
0000
0100
0000
0000
,
0110
0001
1001
0100
,
0110
0000
0100
1000
0000
0000
1100
0000
0000
0001
0000
0000
,
0011
1000
1100
0001
,
0101
0000
0001
1000
0000
0001
0100
0000
0001
1000
0000
1000
,
0100
0001
1100
0010
,
1100
0000
0001
0100
0000
0100
0010
0000
1000
0001
0000
0000
,
1001
M000
M000
1000
,
1100
0M00
0M10
0100
,
1001
0000
0000
0100
0000
0000
0011
0000
0000
0100
0000
1000
,
0001
0000
1000
0100
0000
1000
0010
0000
0010
0100
0000
0000
,
0110
0M00
0M00
0001
,
0101
0000
0000
000M
0000
0001
0010
0000
0000
0100
0000
0000
,
1100
0000
0000
0001
0000
0000
0101
0000
0000
1000
0000
0010
,
0100
0000
0010
1000
0000
0001
0100
0000
0001
1000
0000
0000
,
1001
0000
0000
0001
0100
0001
0010
0000
0000
0100
0000
0000
,
0110
0000
0000
1002
,
0010
0100
0010
1000
,
0010
0100
0013
2200
,
0001
0000
0000
0010
0000
0000
0001
0000
0010
0000
0000
0010
,
0001
0000
0000
0010
0000
0000
0011
0000
0011
3300
0000
0000
,
0000
0000
0000
0010
0000
0000
0000
0000
0000
0010
0000
1000
,
0100
0000
1000
0010
0000
0002
0000
0000
0000
0013
0000
0000
,
1001
0100
1001
0010
,
0101
0000
0001
1000
0000
0001
0010
0000
0001
1000
0000
0000
,
0101
0010
0101
1000
,
0110
0000
0000
0001
0000
0100
0010
0000
0000
1000
0000
0000
,
0011
0000
0000
0100
0000
0000
0011
0000
0000
1000
0000
0001
,
0100
0000
0100
0010
0000
1000
0001
0000
0001
0100
0000
0000
,
1010
0100
0011
0110
,
0110
0101
0101
0010
,
0011
0100
0110
1000
,
1010
0001
1001
0100
,
1010
0000
0000
1001
0000
0000
0011
0000
0000
0011
0000
0010
,
1000
0000
0010
0100
0000
0010
1000
0000
0010
0001
0000
0000
,
1001
0100
0011
1000
,
1001
0000
0001
0100
0000
0001
0010
0000
0001
0100
0000
0000
,
1010
0001
0110
0101
,
0101
1001
1001
0010
,
1100
1000
1010
0100
,
1010
0000
1000
0001
0000
0000
1001
0000
0000
0010
0000
0000
,
1100
1010
0011
0011
,
1000
0000
0001
0100
0000
0010
1000
0000
1000
0100
0000
0000
,
0011
0000
0000
0100
0000
0000
0011
0000
0000
1000
0000
0100
,
0010
0000
0010
0001
0000
0010
0100
0000
0100
1000
0000
0100
,
0010
1000
0110
0011
,
0011
0000
0000
1001
0000
0000
1001
0000
0000
0011
0000
0010
,
0001
0000
0000
1001
0000
0001
1000
0000
0000
1010
0000
1000
,
0010
0000
0000
0110
0000
0010
0100
0000
0000
0001
0000
0000
,
1100
0000
0000
0110
0000
0000
1010
0000
0000
1010
0000
0010
,
0001
0000
0010
0100
0000
0010
0001
0000
0010
1000
0000
0000
,
0110
0001
0110
1000
,
0011
0000
0001
0100
0000
0000
0011
0000
0000
1000
0000
0100
,
0010
1000
0110
1001
,
1001
0000
0000
0011
0000
0010
0001
0000
0000
1000
0000
0010
,
1000
0001
0110
1000
,
0101
0000
0001
1000
0000
0001
0100
0000
0001
0010
0000
0000
,
0110
1100
0011
1001
;

//---------------dance-single - Geriatric Patrick----------------
#NOTES:
     dance-single:
     Geriatric Patrick:
     Hard:
     7:
     0.546,0.570,1.000,0.017,0.048:
0000
0000
0000
0000
,
0000
0000
0000
0000
,
0000
0000
0000
0000
,
0000
0000
0000
0000
,
0001
0000
0001
0000
,
0001
0000
0001
0000
,
0001
0100
0010
1000
,
1001
0001
0110
0100
,
0101
1000
1100
1000
,
1001
0100
1001
1000
,
1100
0001
0101
0100
,
0110
0001
1100
1000
,
1001
0000
0000
0010
0000
0000
0100
0000
1000
0000
0000
1000
,
0100
0010
1100
0100
,
0110
1000
1001
0001
,
0101
1000
0110
0010
,
1010
0001
0011
0010
,
0110
0001
1010
1000
,
1001
0010
0110
0100
,
1100
0001
0110
0010
,
0011
0000
0000
1000
0000
0000
0010
0000
0100
0000
0000
0100
,
0010
1000
0101
0001
,
0011
0100
1100
1000
,
1001
0010
0101
0001
,
0101
0010
0101
0001
,
0101
0010
1100
1000
,
1010
0001
0011
0010
,
0110
1000
0011
1000
,
0011
0100
0011
0100
,
0011
1000
0011
1000
,
0011
0000
0000
0100
0000
0000
1000
0000
0001
0000
0000
0001
,
0100
0010
0101
0100
,
0101
0010
0101
0100
,
0101
1000
0110
0010
,
0011
1000
1010
0010
,
0110
0001
1010
0001
,
1010
0100
1010
0100
,
1010
0001
1010
0001
,
1010
0000
0000
0100
0000
0000
0010
0000
0100
0000
0000
0000
,
0000
0000
0000
0000
,
0000
0000
0000
0000
,
0000
0000
0000
0000
,
0000
0000
0000
1000
,
1010
0001
1001
0100
,
0110
0001
0101
1000
,
1100
0010
0110
1000
,
1001
0010
0011
0100
,
1100
0010
0011
1000
,
0010
0000
0100
0000
0000
0100
0010
0000
0000
1000
0000
0000
,
1001
0010
1010
0100
,
0000
0001
0000
1000
0000
0001
0000
0000
,
1001
0001
1100
0100
,
0011
0001
1100
1000
,
0110
0010
1001
1000
,
0011
0001
1010
1000
,
0101
0001
0110
1000
,
0001
0000
0010
0000
0000
0010
0001
0000
0000
1000
0000
0000
,
0110
0010
0101
0001
,
1010
1000
0110
0010
,
1001
0001
1001
0100
,
1001
0001
1001
0100
,
1010
0010
0110
0001
,
1010
1000
1100
0001
,
0110
1000
0110
0001
,
0110
1000
0110
0001
,
1010
0100
1010
0001
,
0010
0000
0100
0000
0000
0100
1000
0000
0000
0001
0000
0000
,
1100
1000
1100
0010
,
1100
1000
1100
0001
,
0110
0010
1010
0100
,
1010
1000
1001
0100
,
0011
1000
0011
1000
,
0110
1000
0110
1000
,
0011
1000
0011
1000
,
1100
0001
0101
0110
,
0110
0000
0000
1100
,
1100
0000
0000
0001
,
1010
0010
0110
1000
,
1001
0001
0101
1010
,
1010
0000
0000
1100
,
1100
0000
0000
0001
,
1100
0100
0110
1000
,
1100
0001
0011
0110
,
0110
0000
0000
1100
,
1100
0000
0000
2002
,
0000
0000
0000
0000
0000
0000
0000
0000
0003
0100
0000
0000
,
0000
0001
0010
3020
,
0100
0000
0000
1000
0000
0000
0130
0000
0010
0000
0000
0010
,
1000
0000
0000
0100
0000
0000
0110
0000
0110
0000
0000
0000
,
0000
0000
0000
0000
,
0000
0000
0000
0000
0000
0011
0000
0000
0000
0010
0000
0000
,
0110
0100
1100
0001
,
0101
0100
0110
0001
,
1001
1000
1100
0010
,
0011
0001
1001
0100
,
1010
0001
1010
0100
,
1010
0001
1010
0100
,
1001
0100
1001
0100
,
0110
0010
1010
0100
,
1001
0001
1001
0010
,
1001
0001
1001
0100
,
1010
0001
0011
0010
,
1100
0010
0110
0100
,
1001
0010
1001
0100
,
1010
0001
1010
0100
,
1001
0010
1001
0101
,
0101
0110
0110
1000
,
0101
0001
0101
0010
,
0101
0001
0101
1000
,
1100
0001
0011
0010
,
1001
1000
1010
0001
,
0110
1000
0110
0001
,
1010
0100
1010
0001
,
0110
1000
0110
0101
,
0101
1001
1001
1100
,
1100
0110
0110
0011
,
0011
0101
0101
0100
,
0110
1000
1010
0001
,
0011
0100
0110
1000
,
0011
0100
0011
1000
,
0011
0100
0011
1000
,
0110
0001
0110
1100
,
1100
1010
1010
0001
,
0110
0100
0110
1000
,
0110
0100
0110
0001
,
1100
0110
0011
0011
;

//---------------dance-single - Geriatric Patrick----------------
#NOTES:
     dance-single:
     Geriatric Patrick:
     Medium:
     5:
     0.336,0.285,0.051,0.017,0.006:
0000
0000
0000
0000
,
0000
0000
0000
0000
,
0000
0000
0000
0000
,
0000
0000
0000
0000
,
0001
0000
0001
0000
,
0001
0000
0001
0000
,
0001
0000
0001
0000
,
1001
0100
0010
0100
,
0001
1000
0010
1000
,
0001
0010
0100
0010
,
0001
1000
0100
1000
,
0001
0100
0010
0100
,
0001
1000
0100
0010
,
0001
1000
0010
0100
,
0010
1000
0001
0010
,
0001
1000
0010
1000
,
0100
0010
0001
0010
,
0100
1000
0010
1000
,
0001
0100
0010
0100
,
0001
1000
0100
1000
,
0001
0100
0010
0001
,
1000
0100
0010
0001
,
0010
0100
1000
0010
,
1000
0100
0010
0100
,
0000
0000
0010
0000
0000
0100
0000
0000
,
0010
0100
1000
0010
,
0010
0010
1000
0100
,
1000
0001
0010
0100
,
0000
0000
0010
0000
0000
0100
0000
0000
,
0010
0100
0010
0100
,
1000
0001
0100
0010
,
0100
0001
1000
0100
,
0000
0000
1000
0000
0000
0100
0000
0000
,
1000
0100
0010
0001
,
0001
0001
1000
0010
,
1000
0100
0010
0001
,
0000
0000
0010
0000
0000
0001
0000
0000
,
0010
0001
0010
0001
,
0100
0000
0000
0010
0000
0000
0000
0000
0100
0000
0000
0000
,
0000
0000
0000
0000
,
0000
0000
0000
0000
,
0000
0000
0000
0000
,
0000
0000
0000
0000
,
0001
0010
0001
0100
,
0010
1000
0010
0100
,
0001
1000
0001
0100
,
0010
0001
0010
0100
,
0001
0010
0001
1000
,
0010
0001
0010
1000
,
0100
1000
0010
1000
,
0001
1000
0010
0100
,
0001
0010
0001
1000
,
0100
0010
0001
0100
,
0001
0010
0001
1000
,
0010
0100
0001
1000
,
0100
0010
0100
1000
,
0010
0001
0010
1000
,
0100
1000
0010
0100
,
0001
0100
0010
0100
,
0001
1000
0000
0001
,
0000
1000
0000
0000
0001
0000
1000
0000
,
0100
0100
0010
0010
,
0100
1000
0100
0010
,
0001
1000
0000
0001
,
0000
1000
0000
0000
0001
0000
1000
0000
,
0001
1000
0100
1000
,
0010
0100
0010
1000
,
0001
0100
0000
0001
,
0000
0100
0000
0000
0001
0000
0100
0000
,
0010
0010
1000
1000
,
0001
0010
0001
0100
,
0010
1000
0000
0010
,
0000
1000
0000
0000
0010
0000
1000
0000
,
0010
1000
0000
0010
,
0100
0001
1000
0100
,
0100
0000
0000
1100
,
1100
0000
0000
0001
,
0010
0001
0100
0001
,
0010
0100
1000
0010
,
0010
0000
0000
0110
,
0110
0000
0000
0001
,
1000
0100
1000
0010
,
1000
0100
1000
0001
,
0001
0000
0000
0101
,
0101
0000
0000
0020
,
0000
0000
0000
0100
,
0000
0000
0000
2030
,
0000
0000
0000
0002
,
0000
0000
3000
1003
,
0000
0000
0000
0000
,
0000
0000
0000
0000
0000
0010
0000
0000
0000
1000
0000
0000
,
0001
0010
0001
1000
,
0010
0100
0001
1000
,
0100
0010
0010
0001
,
1000
0010
1000
0100
,
0010
0100
0000
0010
,
0000
0100
0000
0000
0010
0000
0100
0000
,
0010
0100
1000
0001
,
0001
0100
0100
0010
,
0100
0001
0000
0100
,
0000
0001
0000
0000
0100
0000
0001
0000
,
0010
0100
0100
0001
,
0100
1000
0100
0010
,
0001
0100
0000
0001
,
0000
0100
0000
0000
0001
0000
0100
0000
,
0001
0100
0010
1000
,
1000
0001
0001
0010
,
0100
1000
0000
0100
,
0000
1000
0000
0000
0100
0000
1000
0000
,
0010
0001
0001
0001
,
0010
0100
0010
1000
,
0001
1000
0000
0001
,
0000
1000
0000
0000
0001
0000
1000
0000
,
0001
1000
0100
0010
,
0010
0001
0001
1000
,
1000
0001
0001
0010
,
0010
0100
0100
1000
,
0010
0100
0100
0100
,
0010
0100
0010
1000
,
0001
0010
0100
1000
,
0010
0100
0010
1000
,
0001
0010
0001
0100
,
0100
0010
0010
1000
,
0001
1000
0100
0000
,
0000
0000
0000
0000
,
0001
0010
0110
0110
;

//---------------dance-single - Geriatric Patrick----------------
#NOTES:
     dance-single:
     Geriatric Patrick:
     Easy:
     3:
     0.184,0.214,0.006,0.017,0.003:
0000
0000
0000
0000
,
0000
0000
0000
0000
,
0000
0000
0000
0000
,
0000
0000
0000
0000
,
0000
0000
0000
0000
,
0000
0000
0000
0000
,
0000
0000
0000
0000
,
1001
0000
0001
0000
,
0001
0000
0010
0000
,
0010
0000
0100
0000
,
0100
0000
0010
0000
,
0010
0000
0001
0000
,
0001
0000
1000
0000
,
1000
0000
0010
0000
,
0010
0000
1000
0000
,
1000
0000
0001
0000
,
0001
0000
0100
0000
,
0100
0000
0010
0000
,
0010
0000
0100
0000
,
0100
0000
0001
0000
,
0001
0000
1000
0000
,
1000
0000
0010
0000
,
0010
0000
0100
0000
,
0100
0000
0001
0000
,
0001
0000
0100
0000
,
0100
0000
0010
0000
,
0010
0000
0100
0000
,
0001
0000
1000
0000
,
1000
0000
0001
0000
,
0001
0000
1000
0000
,
1000
0000
0100
0000
,
0100
0000
0010
0000
,
0010
0000
0100
0000
,
0100
0000
1000
0000
,
1000
0000
0010
0000
,
1000
0000
0100
0000
,
0100
0000
0010
0000
,
0010
0000
0100
0000
,
0100
0000
0100
0000
,
0000
0000
0000
0000
,
0000
0000
0000
0000
,
0000
0000
0000
0000
,
0000
0000
0000
0000
,
0100
0000
0100
0000
,
0001
0000
0001
0000
,
1000
0000
1000
0000
,
0001
0000
0001
0000
,
1000
0000
1000
0000
,
0010
0000
0010
0000
,
0001
0000
0001
0000
,
0010
0000
0010
0000
,
0100
0000
0100
0000
,
0001
0000
0001
0000
,
1000
0000
1000
0000
,
0001
0000
0001
0000
,
0100
0000
0100
0000
,
0010
0000
0010
0000
,
1000
0000
1000
0000
,
0001
0000
0001
0000
,
0100
0000
0100
0000
,
0001
0000
0001
0000
,
0010
0000
0010
0000
,
0100
0000
1000
0000
,
0010
0000
0010
0000
,
1000
0000
1000
0000
,
0010
0000
0010
0000
,
0100
0000
0100
0000
,
0001
0000
0001
0000
,
1000
0000
1000
0000
,
0001
0000
0001
0000
,
0010
0000
0100
0000
,
1000
0000
1000
0000
,
0001
0000
0001
0000
,
0100
0000
0100
0000
,
0001
0000
0001
1000
,
1000
0000
0000
0100
,
0100
0000
0000
0000
,
1000
0000
1000
0000
,
0001
0000
0001
0100
,
0100
0000
0000
0000
,
0010
0010
0000
0000
,
0000
0100
0000
0100
,
0000
0001
0000
0001
,
0010
0010
0000
0000
,
0100
0100
0000
0020
,
0000
0000
0000
0000
,
0000
0000
0000
0032
,
0000
0000
0000
2000
,
0000
0000
0000
3003
,
0000
0000
0000
0000
,
0000
0000
0000
0000
0000
0001
0000
0000
0000
0000
0000
0000
,
1000
0000
1000
0000
,
0100
0000
0100
0000
,
0010
0000
0010
0000
,
0100
0000
1000
0000
,
0001
0000
0001
0000
,
1000
0000
1000
0000
,
0001
0000
0001
0000
,
0010
0000
0010
0000
,
0001
0000
0001
0000
,
0100
0000
0100
0000
,
0010
0000
0010
0000
,
1000
0000
0001
0000
,
0010
0000
0010
0000
,
0001
0000
0001
0000
,
0010
0000
0010
0000
,
0100
0000
0100
0000
,
1000
0000
1000
0000
,
0001
0000
0001
0000
,
0010
0000
0010
0000
,
0100
0000
1000
0000
,
0010
0000
0010
0000
,
1000
0000
1000
0000
,
0010
0000
0010
0000
,
0100
0000
0100
0000
,
0001
0000
0001
0000
,
0010
0000
0010
0000
,
0100
0000
0100
0000
,
1000
0000
0001
0000
,
1000
0000
1000
0000
,
0100
0000
0100
0000
,
0010
0000
0010
0000
,
0001
0000
0001
0000
,
1000
0000
1000
0000
,
0001
0000
0001
0000
,
0001
0001
0001
0001
;
