#TITLE:Writhe In Pain;
#SUBTITLE:Millia's Theme;
#ARTIST:Daisuke Ishiwatari;
#TITLETRANSLIT:;
#SUBTITLETRANSLIT:;
#ARTISTTRANSLIT:;
#GENRE:;
#CREDIT:;
#BANNER:Writhe In Pain-bn.png;
#BACKGROUND:Writhe In Pain-bg.png;
#LYRICSPATH:;
#CDTITLE:;
#MUSIC:Writhe In Pain.ogg;
#OFFSET:-0.800;
#SAMPLESTART:52.180;
#SAMPLELENGTH:16.000;
#SELECTABLE:YES;
#BPMS:0.000=130.100,40.000=260.899,103.750=130.100,112.000=260.900,159.750=130.100,168.000=260.900,228.000=255.500,230.000=245.500,233.000=250.500,234.000=255.499,235.000=260.499,236.000=260.500,296.000=129.500,297.000=128.500,302.000=126.500,302.500=125.500,303.000=123.500,303.500=115.500,304.000=260.900;
#STOPS:;
#SCROLLS:0.000=1.000;
#TIMESIGNATURES:0.000=4=4;
#BGCHANGES:;
#KEYSOUNDS:;

//---------------dance-single - Geriatric Patrick----------------
#NOTES:
     dance-single:
     Geriatric Patrick:
     Challenge:
     12:
     0.989,1.000,0.306,0.422,0.633:
0100
0010
0100
0001
1000
0100
0100
0001
1000
0100
0010
0100
1000
0010
0010
0001
,
0100
0010
1000
0100
1000
0010
0010
0100
1000
0001
0100
0010
1000
0100
0100
0010
,
1000
0001
0010
0001
0100
0010
0010
0001
1000
0010
0100
0001
0100
0010
0010
0001
,
0100
0010
1000
0001
0010
0100
0100
0010
1000
0001
0010
0001
0100
0010
0010
0000
,
0100
1000
0010
1000
0001
0100
0100
1000
0001
0100
0010
0100
0001
0010
0010
1000
,
0100
0010
0001
0100
0001
0010
0010
0100
0001
1000
0100
0010
0001
0100
0100
0010
,
0001
1000
0010
1000
0100
0010
0010
1000
0001
0010
0100
1000
0100
0010
0010
1000
,
0100
0000
0000
0010
0000
0000
0001
0000
0000
1000
0000
0000
0010
0000
0000
0100
0000
0000
0100
0000
0000
0010
0000
0000
0001
0000
0000
1000
0000
0000
0001
0000
0100
0000
0001
0000
1000
0000
0000
0000
0000
0000
0000
0000
0000
0000
0000
0000
,
0001
0010
0100
1000
0010
0010
0100
0100
0010
1000
0100
0010
0001
0001
0100
0010
,
0001
0000
0000
1000
0000
0000
0010
0000
0000
1000
0000
0000
0100
0000
0000
0100
0000
0000
0010
0000
0000
0010
0000
0000
0001
0000
1000
0000
0001
0000
0100
0000
0000
0010
0000
0000
1000
0000
0000
1000
0000
0000
0100
0000
0000
0010
0000
0000
,
1000
0001
0010
0100
1000
0010
0100
0001
,
0100
0100
1000
0001
0010
0100
1000
0010
,
0100
0100
0010
0001
0100
0001
1000
0010
,
0100
0100
1000
0001
0100
0010
1000
0001
,
0010
0010
1000
0100
0010
0001
0100
0001
,
0010
0010
0100
0001
0100
0010
1000
0100
,
0010
0010
1000
0001
0100
0010
1000
0100
,
0010
0010
0100
0001
0010
0100
0100
0000
,
1010
0000
0000
0001
0010
0100
1000
0001
,
0100
0001
1000
0100
0110
0010
0100
1000
,
0001
0100
0001
1000
1100
0100
0010
0001
,
1000
0001
0100
0001
1001
1000
0100
0010
,
0001
0100
0001
1000
1010
0010
0100
0001
,
1000
0100
1000
0001
0011
0010
0100
1000
,
0001
0100
0001
1000
1001
0001
0010
0001
,
0100
0010
0100
0010
0100
0010
0100
0010
,
1000
0001
0100
0001
1000
0010
0100
0010
1000
0100
0010
1000
0010
0100
0001
0100
,
1000
0010
0001
0010
1000
0010
0001
0010
0100
0001
0010
0100
0001
1000
0001
0100
,
1000
0000
0000
0010
0000
0000
0001
0000
,
0000
0100
0000
0000
0001
0010
0100
1000
,
0010
0100
0010
1000
0001
0010
0100
1000
,
0010
0000
0100
0010
0001
1000
0001
0100
,
0010
0000
0010
0001
0100
0010
1000
0100
,
0010
0100
1000
0001
1000
0100
0010
0001
,
0100
0100
1000
0001
0010
0010
1000
0100
,
0010
0010
1000
0001
0100
0100
0010
0001
,
1000
0000
0000
0100
0000
0000
0001
0000
,
0000
0010
0000
0000
0001
0100
0010
1000
,
0100
0100
0010
1000
0100
0100
0001
1000
,
0010
0010
0100
1000
0010
0010
0001
0000
,
1000
0100
1000
0001
0010
0100
0001
0100
0010
0001
0010
0100
1000
0010
0100
0010
,
0001
0010
0100
0001
0010
0100
0001
0100
1000
0000
0010
0000
0001
0000
0100
0001
,
0020
0000
0230
0000
,
0302
0000
0023
0032
,
0203
0000
2300
3200
,
0320
0000
0000
0000
0030
0000
1000
0001
,
0200
0000
0320
0000
,
0230
0302
0023
2030
,
3020
0000
0032
0000
,
0203
0000
0000
0000
0302
0000
1003
0100
,
0020
0000
0230
0000
,
2300
0000
3020
0230
,
2300
0000
3200
0320
,
0032
0000
0020
0000
,
1200
0000
1000
0000
,
2333
3200
0320
2030
,
3200
0000
0000
0011
0000
0000
0011
0000
,
2300
0000
3020
0000
,
0230
0000
1000
0000
,
0310
1000
0001
0100
0101
0000
0000
0000
,
1000
0100
0010
1000
1010
0000
0000
0000
,
0001
0100
0010
1000
1001
0000
1001
0000
,
0010
0100
1000
0001
0011
0000
0000
0000
,
0100
1000
0010
0100
1100
0000
0000
0000
,
0001
0010
0100
1000
1010
0000
0000
0000
,
0100
0000
0000
0001
0000
0000
0010
0000
0000
0100
0000
0000
0110
0000
0000
0000
0110
0000
0000
0000
0110
0000
0000
0000
,
0110
0000
0000
0000
1001
1000
0010
0100
,
0001
0100
0010
1000
1010
0010
0100
0001
,
1000
0100
0010
0001
1001
1000
0001
0010
,
0100
1000
0100
0010
0011
0001
0100
0010
,
1000
0001
0010
0100
1100
1000
0001
0010
,
0100
1000
0010
0100
0010
1000
0001
0010
,
1000
0010
0100
1000
0001
0100
0010
1000
,
0100
0010
0001
1000
0001
0010
0100
0000
,
1001
0000
1001
0000
0000
0010
0000
0100
1000
0000
0100
0010
0000
1000
0001
0000
,
0100
0000
0000
0001
0000
0000
1000
0000
0000
0000
0000
0000
0001
0000
0000
0100
0000
0000
0000
0000
0000
1000
0000
0000
0010
0000
0000
0000
0000
0000
0001
0000
0100
0000
0001
0000
1000
0000
0100
0000
0000
0000
0000
0000
0000
0000
0000
0000
,
0220
0000
0000
0000
,
0000
0000
0000
0000
,
0000
0000
0000
0000
,
0000
0000
0000
0000
,
0000
0000
0000
0000
,
0000
0000
0000
0000
,
0000
0000
0000
0000
,
0000
0000
0000
0000
,
0000
0000
0000
0000
,
0000
0000
0000
0330
;

//---------------dance-single - Geriatric Patrick----------------
#NOTES:
     dance-single:
     Geriatric Patrick:
     Hard:
     9:
     0.564,0.724,0.285,0.401,0.063:
0000
0001
0100
0001
,
0000
0010
1000
0010
,
0000
0100
1000
0100
,
0001
0010
0001
0100
,
1000
1000
1000
1000
,
1000
1000
1000
1000
,
1000
1000
1000
1000
,
1000
0000
0000
0000
0000
0000
1000
0000
0000
0000
0000
0000
1000
0000
0000
0001
1000
0001
0010
0000
0000
0000
0000
0000
,
0000
0000
0000
0000
,
0000
0000
0000
0000
0000
0000
0000
0000
0000
0000
0000
0000
0000
0000
0000
0000
0000
0000
0000
0000
0000
0000
0000
0000
0001
0000
0100
0000
0000
0000
0010
0000
0000
1000
0000
0000
0001
0000
0000
1000
0000
0000
0010
0000
0000
1000
0000
0000
,
0001
0000
0011
0000
0001
0100
0001
0100
,
0001
0100
0001
0100
0001
0100
0001
0100
,
0001
0100
0001
0100
0001
0100
0001
0100
,
0001
0100
0001
0100
0001
0100
0001
0100
,
0010
0000
1010
0000
1000
0010
1000
0010
,
1000
0010
1000
0010
1000
0010
1000
0001
,
0010
0000
0110
0000
0010
0100
0010
0100
,
0010
0100
1000
0001
0100
0001
1000
0000
,
0000
0000
1010
0000
0000
0100
0000
0100
,
0001
0000
0000
0010
0000
0100
1000
0000
,
0000
0000
0011
0000
0000
1000
0000
1000
,
0010
0100
0001
0010
,
0000
0000
0110
0000
0000
0001
0000
0100
,
0010
0000
0000
0001
0000
0010
1000
0000
,
0000
0000
1001
0000
0000
0100
0000
0001
,
0010
0100
0010
0001
1000
0100
1000
0001
,
0000
0000
0000
0000
,
0000
0000
0000
0000
,
1100
0000
0000
0001
0000
0000
0010
0000
,
0000
0100
0000
0000
0010
0001
1000
0010
,
0100
0001
0100
0010
1000
0001
0010
0100
,
1000
0000
0010
0001
1000
0001
0010
0100
,
1000
0001
0010
0100
,
1000
0010
1000
0100
,
0010
0001
1000
0100
0010
0100
1000
0001
,
0100
0010
0100
0001
1000
0010
0100
0001
,
0010
0000
0000
1000
0000
0000
0100
0000
,
0000
0001
0000
0000
0010
0100
0010
0001
,
1000
0010
0100
0001
1000
0010
0100
0001
,
0010
0100
1000
0100
0010
0001
0010
0000
,
0000
0000
0000
0000
,
0000
0000
0000
0000
0000
0000
0000
0000
0000
0000
0000
0000
0000
0000
0100
0001
,
0020
0000
0230
0000
,
2300
0000
3020
2030
,
3200
0000
0302
0203
,
0320
0000
0000
0000
0030
0000
1000
0001
,
0200
0000
0320
0000
,
0230
0302
0023
2030
,
3020
0000
0032
0000
,
0203
0000
0000
0000
0302
0000
1003
0100
,
0020
0000
0230
0000
,
2300
0000
3020
0230
,
2300
0000
3200
0302
,
0023
0000
1000
0000
,
0200
0000
0000
0000
,
0330
2000
3020
2030
,
3200
0000
0000
0010
0000
0000
0010
0000
,
2300
0000
3020
0000
,
0230
0000
1000
0000
,
0000
0000
1000
0000
,
0301
0000
0110
0000
,
1000
0010
0110
0110
,
0001
0000
0011
0000
,
1000
0000
1010
0000
,
0001
0010
1100
0000
,
0010
0000
0000
0001
0000
0000
1001
0000
1001
0000
1001
0000
,
1001
0000
0011
0010
,
0100
1000
0101
0001
,
1000
0010
1001
1000
,
0100
0010
1100
0100
,
0010
0001
0110
0010
,
0100
0000
1000
0000
0100
0010
0100
0000
,
0001
0100
0010
0001
,
0100
0010
0001
0010
,
1010
0000
1010
0000
0000
0001
0000
0000
0010
0000
0000
0001
0000
0000
0100
0000
,
0000
0000
1010
0000
0000
0100
0000
0000
0010
0000
0100
0000
1000
0000
0010
0000
,
0220
0000
0000
0000
,
0000
0000
0000
0000
,
0000
0000
0000
0000
,
0000
0000
0000
0000
,
0000
0000
0000
0000
,
0000
0000
0000
0000
,
0000
0000
0000
0000
,
0000
0000
0000
0000
,
0000
0000
0000
0000
,
0000
0000
0000
0330
;

//---------------dance-single - Geriatric Patrick----------------
#NOTES:
     dance-single:
     Geriatric Patrick:
     Medium:
     6:
     0.404,0.543,0.148,0.401,0.011:
0000
0001
0100
0001
,
0000
0010
1000
0010
,
0000
0100
1000
0100
,
0001
0010
0001
0100
,
1000
1000
1000
1000
,
1000
1000
1000
1000
,
1000
1000
1000
1000
,
1000
0000
1000
0000
1000
0001
0010
0000
,
0000
0000
0000
0000
,
0000
0000
0000
0000
0100
0010
0100
0010
,
0100
0000
0001
0100
,
0001
1000
0001
0100
,
0010
1000
0010
0100
,
0010
1000
0010
0100
,
1000
0000
0100
0001
,
1000
0001
0100
0001
,
0010
0000
0100
1000
,
0001
1000
0100
0000
,
0110
0000
0010
0000
0000
0100
0000
0000
,
0010
0000
0000
0100
0000
0000
1000
0000
,
0000
0000
0010
0000
0000
0100
0000
0000
,
0001
0010
0100
1000
,
0000
0000
0010
0000
0000
0100
0000
0000
,
0010
0000
0000
0100
0000
0000
1000
0000
,
0000
0000
0010
0000
0000
0100
0000
0000
,
1000
0010
0100
0001
,
0000
0000
0000
0000
,
0000
0000
0000
0000
,
1100
0000
0000
0001
0000
0000
0010
0000
,
0000
0100
0000
0000
0010
0000
0001
0000
,
0100
0010
1000
0100
,
0010
0100
1000
0001
,
0100
0001
1000
0100
,
0010
0001
0100
0010
,
1000
0010
0100
0010
,
0001
0010
0100
0010
,
1000
0000
0000
0001
0000
0000
0100
0000
,
0000
0001
0000
0000
0010
0000
0001
0000
,
1000
1000
0001
0100
,
0010
0100
1000
1000
,
0000
0000
0000
0000
,
0000
0000
0000
0000
0000
0000
0000
0001
,
0020
0000
0230
0000
,
2300
0000
3020
2030
,
3200
0000
2300
3002
,
0023
0000
0030
1000
,
2000
0000
3020
0000
,
0230
0302
0023
0230
,
2300
0000
3002
0000
,
0203
0000
0302
0103
,
0020
0000
0230
0000
,
0302
0000
0023
0230
,
2300
0000
3200
0320
,
0032
0000
0100
0000
,
2000
0000
0000
0000
,
3003
0002
0023
0032
,
0203
0000
0000
0010
0000
0000
0010
0000
,
0302
0000
0023
0000
,
0230
0000
0010
0000
,
0000
0000
0010
0000
,
0300
0000
0110
0000
,
1000
0010
0110
0100
,
0001
0000
0011
0000
,
1000
0000
0011
0000
,
0100
0000
1001
0000
,
0100
0000
0000
0000
0000
0000
1000
0000
0001
0000
1000
0000
,
0001
0000
0011
0010
,
0100
0000
0110
0000
,
1000
0000
1010
0010
,
0100
0000
1001
0000
,
0100
0000
0110
0010
,
1000
0100
0010
0010
,
0001
0000
0110
0000
,
0001
0010
0100
1000
,
0100
0100
0000
0000
0000
0000
0000
0000
,
0000
0000
0000
0000
0000
0001
0100
0000
,
0220
0000
0000
0000
,
0000
0000
0000
0000
,
0000
0000
0000
0000
,
0000
0000
0000
0000
,
0000
0000
0000
0000
,
0000
0000
0000
0000
,
0000
0000
0000
0000
,
0000
0000
0000
0000
,
0000
0000
0000
0000
,
0000
0000
0000
0330
;

//---------------dance-single - Geriatric Patrick----------------
#NOTES:
     dance-single:
     Geriatric Patrick:
     Easy:
     3:
     0.154,0.362,0.137,0.032,0.000:
0000
0000
0000
0000
,
0000
0000
0000
0000
,
0000
0000
0000
0000
,
0000
0000
0000
0000
,
1000
1000
1000
1000
,
1000
1000
1000
1000
,
1000
1000
1000
1000
,
1000
1000
1000
0010
,
0000
0000
0000
0000
,
0000
0000
0000
0000
,
1001
0000
0100
0000
,
0100
0000
0100
0000
,
0100
0000
0100
0000
,
0100
0000
0100
0000
,
0010
0000
0100
0000
,
0100
0000
0100
0000
,
0001
0000
0100
0000
,
0100
0000
0100
0000
,
0100
0000
0000
0000
,
0000
0000
1000
0000
,
0000
0000
0001
0000
,
0000
0000
1000
0000
,
0000
0000
0001
0000
,
0000
0000
1000
0000
,
0000
0000
0001
0000
,
0010
0000
0010
0000
,
0000
0000
0000
0000
,
0000
0000
0000
0000
,
0110
0000
0000
0000
,
1000
0000
0000
0000
,
0001
0000
0000
0000
,
0010
0000
0000
0000
,
0100
0000
0000
0000
,
1000
0000
0000
0000
,
0001
0000
0000
0000
,
0000
0000
0000
0000
,
1001
0000
0000
0000
,
0100
0000
0000
0000
,
0010
0000
0000
0000
,
0001
0000
0000
0000
,
0000
0000
0000
0000
,
0000
0000
0000
0000
,
1000
0000
0000
0000
,
0100
0000
0000
0000
,
0010
0000
0000
0000
,
0001
0000
0000
0000
,
1000
0000
0000
0000
,
0001
0000
0000
0000
,
0010
0000
0000
0000
,
0100
0000
0000
0000
,
0010
0000
0000
0000
,
0001
0000
0000
0000
,
1000
0000
0000
0000
,
0010
0000
0000
0000
,
0200
0000
0000
0000
,
0000
0000
0300
0000
,
0001
0000
0000
0000
,
1000
0000
0000
0000
,
0100
0000
0100
0000
,
0000
0000
0110
0000
,
0000
0000
0100
0000
,
0000
0000
0110
0000
,
0000
0000
0001
0000
,
0000
0000
1001
0000
,
0000
0000
0001
0000
,
0000
0000
1001
0000
,
0000
0000
0100
0000
,
0000
0000
0101
0000
,
0000
0000
0100
0000
,
0000
0000
0101
0000
,
0000
0000
1000
0000
,
0000
0000
1010
0000
,
0000
0000
1000
0000
,
0000
0000
1010
0000
,
1010
0000
0000
0000
,
0000
0000
0000
0000
,
0220
0000
0000
0000
,
0000
0000
0000
0000
,
0000
0000
0000
0000
,
0000
0000
0000
0000
,
0000
0000
0000
0000
,
0000
0000
0000
0000
,
0000
0000
0000
0000
,
0000
0000
0000
0000
,
0000
0000
0000
0000
,
0000
0000
0000
0330
;
