#TITLE:Whoa Whoa Whoa;
#SUBTITLE:;
#ARTIST:Watsky;
#TITLETRANSLIT:;
#SUBTITLETRANSLIT:;
#ARTISTTRANSLIT:;
#GENRE:;
#CREDIT:;
#BANNER:Whoat Whoa Whoa-bn.png;
#BACKGROUND:Whoa Whoa Whoa-bg.jpg;
#LYRICSPATH:;
#CDTITLE:;
#MUSIC:Whoa Whoa Whoa.ogg;
#OFFSET:1.610;
#SAMPLESTART:76.780;
#SAMPLELENGTH:12.000;
#SELECTABLE:YES;
#BPMS:0.000=150.000,58.000=75.000,62.000=150.000,156.000=300.000,158.000=150.000,250.000=300.000,252.000=150.000,333.000=75.000,341.000=150.000;
#STOPS:62.000=0.400
,79.000=0.400
,156.000=0.100
,156.500=0.100
,157.000=0.100
,157.500=0.100
,250.000=0.100
,250.500=0.100
,251.000=0.100
,251.500=0.100
,252.000=0.400
;
#SCROLLS:0.000=1.000;
#TIMESIGNATURES:0.000=4=4;
#BGCHANGES:4.000=Whoa Whoa Whoa.avi=1.000=0=0=0=StretchNoLoop====,
99999=-nosongbg-=1.000=0=0=0 // don't automatically add -songbackground-
;
#KEYSOUNDS:;

//---------------dance-single - Geriatric Patrick----------------
#NOTES:
     dance-single:
     Geriatric Patrick:
     Challenge:
     11:
     0.704,1.000,0.209,0.118,0.711:
0000
0000
0000
0000
,
0000
0000
0000
0000
0000
0000
0010
0100
,
0000
1000
0000
0000
0000
0000
0000
0000
,
0000
0001
0010
0100
0000
0000
0010
0100
,
0000
0001
0100
0000
0000
0000
0000
0000
,
0001
0001
0000
1000
0100
0100
0000
1000
,
0010
0010
0000
0100
0001
1000
0001
0000
,
0010
0010
0000
0010
0100
0100
0000
0100
,
1000
1000
0000
1000
0001
0001
0000
0001
,
0020
0000
0000
0230
0000
0000
2300
0000
,
0000
3001
0100
0000
0001
0010
0100
0000
,
2000
0000
0000
3020
0000
0000
0230
0000
,
0000
0301
0001
0000
0010
0100
0010
0001
,
2000
0000
0000
3020
0000
0000
0230
0000
,
0000
0000
0301
0000
0100
0000
0000
0000
M000
0M00
00M0
0000
000M
0000
0000
0MM0
,
0000
0000
MMMM
0000
0000
1000
0100
0000
0000
0000
0000
0000
0000
0000
0000
0000
,
0000
0000
0000
0000
0000
0100
1000
0001
0100
0010
0100
0000
0000
0000
0001
0010
,
0100
1000
0100
0000
0010
0000
0100
1000
0001
0010
0100
0000
0000
0000
0010
0001
,
1000
0010
1000
0000
0001
0000
1000
0010
0100
0001
1000
0001
0100
0010
1000
0010
,
0100
0001
0100
0000
1000
0000
0100
1000
0001
0010
0100
0000
0110
0000
0100
0001
,
1000
0001
0100
0000
0000
0000
0010
1000
0001
1000
0100
0000
0010
0001
0010
0000
,
0100
1000
0100
0000
0010
0000
0000
0000
0000
1000
0001
0100
0001
1000
0100
1000
,
0001
0010
0100
1000
0100
0010
0001
1000
0001
0010
0100
1000
0001
0100
0010
1000
,
0001
0010
0001
0000
1001
0000
0000
0000
M000
0000
0001
0000
0010
0000
M100
0000
,
1000
0010
M100
0000
0000
0001
0M10
0100
,
1000
0M10
0100
0000
010M
0001
0010
M100
,
1000
0001
0M10
0100
1000
0001
0M10
0100
,
1000
0000
0000
0M10
0000
0000
0100
0010
0100
0010
0100
0010
010M
0000
0000
0001
0000
0000
0010
0000
0000
M100
0000
0000
,
1000
0001
0M10
0100
1000
0001
0M10
0100
,
1000
0M10
0100
0000
010M
0001
0010
M100
,
1000
0001
0M10
0100
1000
0001
0M10
0100
,
1000
0M10
0100
0000
0000
0000
0000
0000
,
1010
0000
0001
0000
0101
0000
0000
0000
0000
0000
0000
0000
0000
0000
0010
0001
,
0010
0000
0100
0000
1100
0000
0000
0001
0010
0100
1000
0100
0010
0001
1000
0001
,
0100
0010
0001
0010
0100
0001
1000
0100
1000
0001
0010
0100
0001
0000
0100
0010
,
0100
1000
1001
0000
0000
0000
0000
0000
,
0010
0000
0001
0000
0010
0000
0000
0000
00M0
0000
000M
0000
00M0
0000
1000
0010
,
1000
0000
0010
0000
1000
0000
0000
0000
M000
0000
00M0
0000
M000
0000
0001
0010
,
0100
0000
0001
0000
0010
0000
0010
0001
0100
0000
0000
0000
1100
0000
0000
0000
,
0001
0000
0100
0000
1000
0000
0100
0000
0001
0010
0100
1000
0001
0100
0010
0100
,
0001
1000
0100
0010
0001
1000
0010
1000
0001
0010
0100
1000
0001
0100
0010
1000
,
0001
0000
0000
0010
0000
0000
0100
0000
0000
0010
0000
0000
0001
0000
0000
1000
0000
0000
0010
0000
0000
1000
0000
0000
0001
0000
0000
0000
0010
0000
0000
0000
0001
0000
0000
0000
1000
0000
0000
0000
0010
0000
0000
0000
0100
0000
0000
0000
,
0001
1000
0001
0100
0010
1000
0100
0010
0100
1000
0001
0100
,
0010
0000
0000
0000
0001
0000
0000
0000
0010
0000
0000
0000
0100
0000
0000
0000
0001
0000
0000
0000
0010
0000
0000
0000
0001
0000
0000
1000
0000
0000
0010
0000
0000
0100
0000
0000
1000
0000
0000
0100
0000
0000
0010
0000
0000
1000
0000
0000
,
0001
0000
0000
0010
0000
0000
0100
0000
0000
1000
0000
0000
0010
0000
0000
1000
0000
0000
0100
0000
0000
0010
0000
0000
0001
0000
0000
0000
1000
0000
0000
0000
0001
0000
0000
0000
0100
0000
0000
0000
0010
0000
0000
0000
0100
0000
0000
0000
,
0001
0000
0000
0000
0010
0000
0000
0000
0001
0000
0000
0000
1000
0000
0000
0000
0100
0000
0000
0000
1000
0000
0000
0000
0001
0000
0010
0000
0001
0000
0010
0000
0000
0100
0000
0000
1000
0000
0000
0001
0000
0000
0100
0000
0000
0001
0000
0000
,
1000
0000
0100
0000
1000
0000
0100
0000
0000
0010
0000
0000
0001
0000
0000
0010
0000
0000
0100
0000
0000
1000
0000
0000
0010
0000
0000
0000
0000
0000
0000
0000
0000
0000
0000
0000
0000
0000
0000
0000
0000
0000
0000
0000
0000
0000
0000
0000
,
1111
0000
0001
0000
,
1010
0000
1000
0010
0100
0001
0010
0000
,
1010
0010
0100
0000
0001
0010
0100
1000
,
1010
0000
1000
0010
0100
0001
0010
0000
,
1011
0000
0000
0000
MMM1
0000
0000
M0MM
,
1010
0000
1MMM
0010
0100
0001
0010
0000
,
1010
0010
0100
0000
00M1
0010
0100
10M0
,
1010
0000
10M0
0010
0100
0001
0010
0000
,
1011
0000
0000
0000
0001
0000
0000
0010
,
0000
0000
1000
0000
0000
0100
0100
0000
,
0000
0001
0000
1000
0001
0000
0100
0100
,
0000
1000
1000
0000
0000
0010
0010
0000
,
0001
0010
0100
1000
0001
0000
0100
1000
,
0000
1000
0010
0000
0000
0010
0001
0000
,
0001
1000
0001
0000
0010
1000
0000
0100
,
0001
0000
0001
0000
0011
1001
0011
1100
,
1001
0000
0000
0000
0000
0000
1000
0100
1000
0100
0010
0000
0000
0000
0001
0100
,
0001
0100
0010
0000
0000
0000
0001
1000
0100
1000
0001
0010
0100
1000
0100
1000
,
0001
0100
0010
0000
0000
0000
0100
0001
1000
0100
1000
0100
0010
0001
1000
0010
,
0100
0001
0100
0001
1000
0100
0010
0001
0100
0001
0010
0100
1000
0001
1000
0001
,
0100
0001
0010
0000
0000
0000
0000
0000
0000
0000
0110
0000
0100
1000
0100
1000
,
0010
0000
0000
0000
0000
1000
0100
0010
0001
1000
0001
0010
0100
1000
0100
1000
,
0010
0000
0010
1000
0001
0010
0100
0010
0001
1000
0010
0100
0001
1000
0001
1000
,
0100
0000
1000
0001
0100
0010
0001
0010
0100
0001
1000
0001
0100
0010
0100
0010
,
0001
0000
0000
0000
0000
0000
0000
0000
0000
0000
0100
0001
1000
0100
0010
0001
,
1000
0010
1000
0001
0010
0100
1000
0001
0100
0010
0100
0001
0010
0000
0010
0000
,
0011
0000
0001
0000
0000
0000
0000
0000
0000
1000
0100
1000
0001
0100
0010
1000
,
0001
0010
0100
0010
0001
1000
0010
0100
0001
1000
0100
1000
0010
0000
0010
0000
,
0001
0000
0011
0000
0000
0000
0100
0010
1000
0010
1000
0000
0001
0000
0010
0000
,
0000
0000
0000
0000
0001
0010
0100
1000
0010
1000
0001
1000
0010
0100
0001
0000
,
0010
0000
0001
0000
0000
0000
1000
0001
0010
0100
0010
0100
1000
0001
0010
0100
,
0010
0100
1000
0001
0100
0010
1000
0001
1000
0010
0100
0001
1000
0100
0010
0000
,
0011
0000
0001
0000
0000
0000
0000
0000
0000
0000
1000
0010
0100
0000
1000
0100
,
0001
0000
0000
0000
1000
0001
0010
0000
0010
0000
0001
0100
0010
0000
0010
0100
,
0001
0000
1000
0100
1000
0001
0010
0000
0010
0000
0001
0100
0010
0000
0010
0100
,
1000
0000
0100
0001
1000
0100
0010
0000
0010
0000
0100
1000
0001
0000
1000
0001
,
0100
0000
0000
0000
0000
0000
0000
0000
0000
0000
0000
0000
0000
0000
0001
0010
0100
1000
0100
0010
0001
0010
0100
1000
0001
0100
0001
1000
0010
1000
0001
0010
,
0100
1000
0100
0010
0001
0010
0100
1000
0001
0100
0001
1000
0010
1000
0001
0010
0100
1000
0100
0010
0001
0010
0100
1000
0001
0100
0001
1000
0010
1000
0001
0010
,
0100
MMMM
0001
0000
0000
0000
1010
0000
,
1000
0010
0100
0001
0010
0000
1010
0010
,
0100
0000
0001
0010
0100
1000
1010
0000
,
1000
0010
0100
0001
0010
0000
1010
0000
,
0000
0000
MMM1
0000
0000
M0MM
1010
0000
,
1MMM
0010
0100
0001
0010
0000
1010
0010
,
0100
0000
00M1
0010
0100
10M0
1010
0000
,
10M0
0010
0100
0001
0010
0000
1010
0000
,
0000
0000
M002
0000
0000
M023
0100
0000
,
M230
1000
1000
1300
0001
0000
0M11
0001
,
10M0
0000
002M
0000
0000
M230
1000
0000
,
03M2
1000
1000
1003
0100
0000
0011
0000
,
0000
0000
2MM0
0000
0000
3M2M
0100
0000
,
M23M
0001
0001
0301
1000
0000
1M1M
1000
,
0MM1
0000
MM20
0000
0000
M23M
0001
0000
,
23MM
0001
0001
3001
0100
0000
1010
0000
,
0000
0000
000M
0000
0000
00M0
0000
0000
,
0M00
0000
0000
0000
,
0000
0000
00M0
0000
0000
0M00
0000
0000
,
M000
0000
0000
0000
,
0000
0000
000M
0000
0000
00M0
0000
0000
,
0M00
0000
0000
0000
,
0000
0000
00M0
0000
0000
0M00
0000
0000
,
M000
0000
0000
0000
;

//---------------dance-single - ----------------
#NOTES:
     dance-single:
     :
     Hard:
     9:
     0.509,0.670,0.186,0.118,0.124:
0000
0000
0000
0000
,
0000
0000
0000
0000
0000
0000
0010
0100
,
0000
1000
0000
0000
0000
0000
0000
0000
,
0000
0001
0010
0100
0000
0000
0010
0100
,
0000
0001
0100
0000
0000
0000
0000
0000
,
0000
0000
0000
0000
0000
0000
1000
0001
,
0000
0100
0000
0000
0000
0000
0000
0000
,
0000
1000
0010
0100
0000
0000
1000
0001
,
0000
1000
0100
0000
0000
0000
0000
0000
,
0020
0000
0000
0230
0000
0000
2300
0000
,
0000
3001
0100
0000
0000
0101
0000
0000
,
2000
0000
0000
3020
0000
0000
0230
0000
,
0000
0301
0100
0000
0100
0001
0010
0001
,
2000
0000
0000
3020
0000
0000
0230
0000
,
0000
0000
0301
0000
0100
0000
0000
0000
M000
0M00
00M0
0000
000M
0000
0000
0MM0
,
0000
0000
MMMM
0000
0000
1000
0100
0000
0000
0000
0000
0000
0000
0000
0000
0000
,
0000
0000
0000
1000
0010
1000
0000
0001
,
0100
0001
0010
0100
1000
0100
0000
0010
,
0001
1000
0010
1000
0100
0100
1000
0001
,
1000
0100
1000
0010
1000
0100
0001
1000
,
0001
1000
0000
0001
0100
0010
1000
1000
,
0001
0010
0100
0000
0000
0001
0100
0001
,
1000
0100
0010
0001
1000
0010
1000
0001
,
0010
0100
1100
0000
M000
0001
0010
010M
,
1000
0010
010M
0000
0000
0001
M010
0100
,
1000
001M
0100
0000
M100
0001
0010
010M
,
1000
0001
M010
0100
1000
0001
M010
0100
,
1000
001M
0400
0000
M000
0301
0010
010M
,
1000
0001
M010
0100
1000
0001
M010
0100
,
1000
001M
0100
0000
M100
0001
0010
010M
,
1000
0001
M010
0100
1000
0001
M010
0100
,
1000
001M
0100
0000
0000
0000
0000
0000
,
1000
0001
0101
0000
0000
0000
0000
0010
,
0010
0100
1100
0000
0001
1000
0001
0010
,
0100
0001
0100
0010
0001
0100
1000
0100
,
0001
0100
0110
0000
0000
0000
0000
0000
,
0001
0010
0001
0000
00M0
0M00
00M0
1000
,
1000
0010
1000
0000
00M0
0M00
00M0
0001
,
0100
0001
0010
0010
0100
0000
0011
0000
,
1000
0100
0010
0001
1000
0010
0100
0100
,
0001
0010
0100
0100
1000
0001
0100
0100
,
0001
0000
0000
1000
0000
0000
0100
0000
0000
0100
0000
0000
0010
0000
0001
0000
0010
0000
0100
0000
1000
0000
0100
0000
,
1000
0001
1000
0100
1000
0100
0010
0001
0010
0100
0010
0100
,
1000
0000
0001
0000
1000
0000
0100
0000
0010
0000
0100
0000
1000
0000
0000
0001
0000
0000
1000
0000
0000
0100
0000
0000
,
0001
0000
0000
0010
0000
0000
0001
0000
0000
1000
0000
0000
0001
0000
0010
0000
0001
0000
1000
0000
0010
0000
1000
0000
,
0001
0000
0000
0000
0100
0000
0000
0000
0001
0000
0000
0000
1000
0000
0000
0000
0100
0000
0000
0000
1000
0000
0000
0000
0004
0000
0000
0000
0000
0000
0000
0000
0000
0000
0000
0000
1003
0000
0000
0100
0000
0000
1000
0000
0000
0100
0000
0000
,
4000
0000
0000
0000
3001
0100
0001
0100
0010
0000
0000
0000
0000
0000
0000
0000
,
M11M
0000
0001
0000
,
1010
0000
1000
0010
0100
0001
0010
0000
,
1010
0010
0100
0000
0001
0010
0100
1000
,
1010
0000
1000
0010
0100
0001
0010
0000
,
1010
0000
0001
0000
,
1010
0000
1000
0010
0100
0001
0010
0000
,
1010
0010
0100
0000
0001
0010
0100
1000
,
1010
0000
1000
0010
0100
0001
0010
0000
,
1010
0000
0000
0000
0001
0000
0000
0010
,
0000
0000
1000
0000
0000
0100
0100
0000
,
0000
0001
0000
1000
0001
0000
0100
0100
,
0000
1000
1000
0000
0000
0010
0010
0000
,
0001
0010
0100
1000
0001
0000
0100
1000
,
0000
1000
0010
0000
0000
0010
0001
0000
,
0001
1000
0001
0000
0010
1000
0000
0100
,
0001
0000
0001
0000
0011
0001
1000
0100
,
1001
0000
0000
1000
1000
0010
0000
0001
,
0001
0010
0000
0001
0100
0001
1000
1000
,
0100
0010
0000
1000
0001
0001
0100
0010
,
1000
1000
0001
0010
0100
0010
0001
0001
,
0100
0010
0000
0000
0000
1001
0001
0100
,
1000
0000
0000
0100
0010
1000
0001
0100
,
1000
0100
0001
0100
0010
1000
0001
0100
,
1000
0100
0001
1000
0010
0100
0001
0100
,
1000
0000
0000
0000
0000
0001
0010
0100
,
1000
1000
0010
0100
0001
0100
0010
0010
,
0101
0100
0000
0000
0000
1000
0100
0010
,
0001
0100
0001
0010
0001
0100
0010
0010
,
1000
1001
0000
0100
0010
0010
1000
0001
,
0000
0000
0100
0001
0010
0001
0100
0010
,
1000
0001
0000
1000
0010
0010
0100
0001
,
0001
1000
0100
0010
0010
0100
1000
0010
,
0110
0100
0000
0000
0000
0001
0010
0010
,
0100
0000
1000
0010
0010
0100
0001
0001
,
0100
0010
1000
0001
0001
0010
0100
0100
,
1000
0100
0010
0001
0001
1000
0010
0010
,
0100
0000
0000
0000
0000
0000
0000
0000
0000
0000
0000
0000
0000
0000
0001
0000
0100
0000
0000
0010
0000
0000
0100
0000
0001
0000
0000
1000
0000
0000
0001
0000
,
0010
0000
0000
0100
0000
0000
0010
0000
0001
0000
0000
1000
0000
0000
0001
0000
0100
0000
0000
0010
0000
0000
0100
0000
0001
0000
0000
1000
0000
0000
0001
0000
,
0010
MMMM
0001
0000
0000
0000
1010
0000
,
1000
0010
0100
0001
0010
0000
1010
0010
,
0100
0000
0001
0010
0100
1000
1010
0000
,
1000
0010
0100
0001
0010
0000
1010
0000
,
0000
0001
0000
1010
,
1000
0010
0100
0001
0010
0000
1010
0010
,
0100
0000
0001
0010
0100
1000
1010
0000
,
1000
0010
0100
0001
0010
0000
1010
0000
,
0000
0000
0002
0000
0000
0023
0100
0000
,
0230
1000
1000
1300
0001
0000
0011
0001
,
1000
0000
0020
0000
0000
0230
1000
0000
,
0302
1000
1000
1003
0100
0000
0011
0000
,
0000
0000
2000
0000
0000
3020
0100
0000
,
0230
0001
0001
0301
1000
0000
1010
1000
,
0001
0000
0020
0000
0000
0230
0001
0000
,
2300
0001
0001
3001
0100
0000
1010
0000
,
0000
0000
000M
0000
0000
00M0
0000
0000
,
0M00
0000
0000
0000
,
0000
0000
00M0
0000
0000
0M00
0000
0000
,
M000
0000
0000
0000
,
0000
0000
000M
0000
0000
00M0
0000
0000
,
0M00
0000
0000
0000
,
0000
0000
00M0
0000
0000
0M00
0000
0000
,
M000
0000
0000
0000
;
