#TITLE:White And Nerdy;
#SUBTITLE:;
#ARTIST:Weird Al Yankovich;
#TITLETRANSLIT:;
#SUBTITLETRANSLIT:;
#ARTISTTRANSLIT:;
#GENRE:;
#CREDIT:;
#BANNER:White and Nerdy-bn.png;
#BACKGROUND:White and Nerdy-bg.png;
#LYRICSPATH:;
#CDTITLE:;
#MUSIC:White and Nerdy.ogg;
#OFFSET:3.300;
#SAMPLESTART:3.340;
#SAMPLELENGTH:18.000;
#SELECTABLE:YES;
#BPMS:0.000=143.001;
#STOPS:;
#BGCHANGES:8.000=White and Nerdy.avi=1.000=0=0=0=StretchNoLoop====,
336.000=White and Nerdy-bg.png=1.000=0=0=1=Centered====,
99999=-nosongbg-=1.000=0=0=0 // don't automatically add -songbackground-
;
#KEYSOUNDS:;

//---------------dance-single - Geriatric Patrick----------------
#NOTES:
     dance-single:
     Geriatric Patrick:
     Challenge:
     10:
     0.822,0.824,0.472,0.341,0.766:
0000
0000
0000
0000
,
0000
0000
0000
0000
,
0000
0000
0000
0000
,
0000
0000
0000
0000
,
1MM1
0000
0000
0000
0000
0000
0000
0001
,
MM11
0000
0000
0000
0000
0000
0000
0010
,
1M1M
0000
0000
0000
0000
0000
0000
0100
,
M11M
0000
0000
0000
0001
0010
0100
0001
,
1001
0000
0100
0010
0100
0000
0010
0000
0001
0000
0001
0000
2000
0000
0020
0000
,
3000
0000
0130
0010
0100
0000
0010
0000
1010
0000
1000
0000
0002
0000
0020
0000
,
0003
0000
0130
0001
0100
0000
0001
0000
0010
0000
0100
0000
0020
0000
0002
0000
,
0030
0000
1003
0010
1000
0000
0010
0000
0110
0000
0001
1000
0001
0000
1000
0000
,
0101
0001
1000
0100
0020
0000
0230
0000
,
0300
0000
0000
0001
0010
0000
0022
0000
,
0033
0000
0000
1000
0010
0000
1000
0001
,
0011
0010
0100
1000
1000
0000
0001
0200
,
0010
0000
0301
1000
0001
0000
0100
0000
0010
0000
0010
0000
2000
0000
0002
0000
,
3000
0000
1003
0001
1000
0000
0100
0000
0110
0000
0001
0000
0020
0000
0200
0000
,
0030
0000
0301
0000
1000
0000
0001
0000
0200
0000
0000
0000
0020
0300
0000
0000
,
0100
0030
0100
1000
0100
0000
1000
0000
0010
0000
0001
0000
0010
0000
0001
0010
,
0100
0000
0010
0100
0010
1000
0000
1001
0000
0000
0001
0000
0010
0000
0001
1000
,
0001
0000
1000
0001
1000
0010
0000
0010
0100
0000
0001
0000
0100
0010
0100
0000
,
0001
0000
1000
0100
0010
0001
0000
0011
0000
0000
1000
0010
1000
0001
0100
0000
,
0101
0000
0100
0001
1000
0100
0000
1100
0000
0000
1000
0000
0001
0000
1000
1000
,
0001
0000
0100
0000
0001
0001
0000
1000
0000
0100
0000
0000
0001
0000
1000
0100
,
0010
0000
0010
0000
0100
0000
1000
0010
0000
1000
0000
0000
0100
0001
0100
0000
,
1001
0000
0001
1000
0000
1000
0001
1000
0000
0100
0000
0000
0100
1000
0010
0000
,
0100
0000
0100
0000
0010
1000
0000
0100
0000
1000
0001
0000
1000
0000
0001
0000
,
0100
0001
0100
0000
1000
0100
1000
0010
0000
0100
0000
0000
1000
0000
0100
0001
,
1000
0100
1000
0001
0010
0001
0000
1000
0000
0100
0000
0000
0011
0000
0010
0100
,
1000
0000
0100
0010
0001
0000
1000
0000
0011
0000
0001
0000
1000
0000
0001
1000
,
0010
0000
0010
1000
0001
0010
0000
0110
0000
0100
0000
0000
0010
0000
1000
0100
,
0010
0001
0010
0001
0000
0001
0010
0100
1000
0000
1000
0010
0000
1000
0001
0100
,
0000
0001
0010
0000
0001
1000
0100
1000
0001
0000
1000
0001
0000
0001
1000
0100
,
0000
1000
0010
0000
1000
0001
1000
0100
0010
0000
1000
0001
0000
1000
0010
1000
,
0001
0010
0100
0000
0010
0001
1000
0010
0100
0000
0010
0100
0000
0010
1000
0001
,
1000
0100
0000
1000
0001
0010
0000
0011
0000
0000
0000
0000
1000
0000
0010
0000
,
0110
0000
0001
1000
0001
0010
0000
0011
0000
0000
0000
0000
1000
0000
0010
0100
,
1000
0000
1000
0100
0010
1000
0000
1000
0001
0000
1000
0000
0001
0100
0010
0100
,
0001
0000
0100
0001
1000
0010
1000
0001
0000
0000
0000
0000
0010
0000
0100
0000
,
1100
0000
0100
0010
0100
0010
0000
0011
0000
1000
0100
1000
0001
0000
1000
0100
,
1000
0000
0001
0100
0010
1000
0000
1010
0000
0001
0000
1000
0010
0000
1000
0001
,
0010
0000
1000
0100
0010
0001
0000
1000
0000
0001
0000
0001
0100
0000
0001
1000
,
0100
0010
0001
1000
0010
0100
0000
1000
0000
0100
0000
0000
0001
0000
1000
0000
,
1MM1
0000
0000
0000
0000
0000
0000
0100
,
M11M
0000
0000
0000
0000
0000
0000
0001
,
MM11
0000
0000
0000
0000
0000
0000
1000
,
11MM
0000
0000
0000
0001
0010
0100
0001
,
1001
0000
0010
0100
0010
0000
0100
0000
0011
0000
0001
0000
2000
0000
0020
0000
,
3000
0000
0130
0010
0100
0000
0010
0000
1000
0000
1000
0000
0002
0000
0020
0000
,
0003
0000
0130
0001
0100
0000
0010
0000
0011
0000
0001
0000
2000
0000
0020
0000
,
3000
0000
1030
0010
1000
0000
0001
0000
0101
0000
0001
1000
0001
0000
1000
0000
,
0101
0001
1000
0100
0020
0000
0230
0000
,
0300
0000
0000
1000
0010
0000
0220
0000
,
0330
0000
0000
1000
0010
0000
1000
0100
,
0110
0100
1000
0010
0100
0000
1000
0002
,
0010
0000
1003
0100
1000
0000
0100
0000
1001
0000
0001
0000
0020
0000
0200
0000
,
0030
0000
1300
0001
1000
0000
0100
0000
0110
0000
0100
0000
0020
0000
2000
0000
,
0030
0000
3010
0000
0001
0000
0010
0000
0200
0000
0000
0000
0002
0300
0000
0000
,
0103
0000
0100
0010
0100
0000
1000
0000
0020
0000
0100
0000
2030
0000
0001
0000
,
3000
1000
0100
0000
1000
0000
0100
0010
0001
0000
1000
0000
0011
0000
1000
0000
,
0010
0000
1000
0001
0100
0001
1000
0000
0010
0000
1000
0001
0100
0000
0001
1000
,
0010
0000
1000
0001
0100
0000
0001
0000
0011
0000
0001
0000
1000
0001
0000
1000
,
0001
0000
0100
0000
1001
0000
0100
0000
0001
1000
0100
1000
0001
0000
1000
0000
,
0001
0100
0001
0100
0000
0010
1000
0001
1000
0100
0000
0001
0010
0000
0010
0100
,
0000
1000
0010
0000
0010
0100
0000
1000
0010
0000
0010
0100
0000
0001
1000
0001
,
1000
0100
0010
0001
0000
0001
0010
0001
0000
1000
0010
1000
0001
0010
0100
1000
,
0000
0000
0000
1000
0000
0000
0001
0000
0000
1000
0000
0000
0100
0000
0000
0000
0010
0000
0000
0000
0010
0000
0000
0000
1000
0000
0000
0100
0000
0000
0010
0000
0000
0001
0000
0000
0000
0000
0000
0001
0000
0000
1000
0000
0000
0001
0000
0000
,
0100
0001
1000
0001
0010
0000
0110
0000
0000
0000
0001
1000
0010
0000
1000
0001
,
0010
0000
0011
0000
0110
0000
0011
0000
1100
0000
0000
0000
0001
1000
0001
0100
,
0010
0000
1010
0000
0110
0000
1010
0000
0101
0000
0000
0000
1000
0100
1000
0100
,
1000
0000
0101
0000
1100
0000
0101
0000
1001
0000
0000
0000
0200
0000
0000
0001
,
1000
0001
1000
0001
0010
0001
1300
0000
0000
0000
0001
0100
0001
1000
0100
0000
,
0011
0000
0110
0000
1100
0000
0011
0000
1000
0000
0010
0000
0100
0000
0001
0010
,
0100
0000
0100
0000
1000
0100
0010
0000
0000
0000
1010
0000
1010
0000
0001
0000
,
0100
0010
1000
1000
0000
0001
0010
0001
,
0000
200M
32M0
230M
3M10
001M
M200
031M
,
2M00
301M
M010
0M02
M203
03M2
M023
0000
,
0030
0000
0001
0100
0001
0000
1000
0000
0110
0000
1000
0000
0001
0000
0110
0000
,
0001
0000
0000
0000
0000
0000
1000
0000
0000
0000
0000
0000
0010
0000
0000
0000
0100
0000
0000
0000
0010
0000
0000
0000
1010
0000
0000
0000
0000
0000
0000
0000
0100
0000
0000
0000
0000
0000
0000
0000
0000
0000
0100
0000
0000
0001
0000
0000
,
0010
0000
1000
0100
0000
0000
0100
1000
0010
0000
0001
0100
0000
0000
0100
0001
,
1000
0010
0000
0001
0000
1000
0100
0010
0001
0000
0010
1000
0000
0000
0000
0000
,
0001
0100
0010
0001
0000
0001
0010
0100
0001
0000
0100
0000
0001
0000
0000
1001
,
0000
1000
0001
1000
0000
1000
0000
0001
0100
0000
0100
0020
0000
0000
0000
0000
,
1031
0000
0000
0000
;

//---------------dance-single - Geriatric Patrick----------------
#NOTES:
     dance-single:
     Geriatric Patrick:
     Hard:
     8:
     0.560,0.702,0.232,0.225,0.182:
0000
0000
0000
0000
,
0000
0000
0000
0000
,
0000
0000
0000
0000
,
0000
0000
0000
0000
,
1001
0000
0000
0000
0000
0000
0000
1000
,
0010
0000
0000
0000
0000
0000
0000
0010
,
0001
0000
0000
0000
0000
0000
0000
0001
,
0100
0000
0000
0000
1000
0010
0100
0001
,
1000
0100
0100
0010
0001
1000
0001
2000
,
0000
3100
0100
0010
0001
1000
0001
2000
,
0000
3010
0010
0100
0001
0010
0001
0020
,
0000
0130
0100
1000
0001
0100
0001
0100
,
0000
1000
0100
0010
0002
0000
0203
0000
,
0300
0000
0000
0001
0010
0000
0022
0000
,
0033
0000
0000
1000
0010
0000
1000
0001
,
0010
0100
0010
0001
0100
0000
0001
0010
,
0100
1000
1000
0010
0100
0001
0010
0001
,
0000
1000
1000
0010
0100
0001
0010
0002
,
0000
1003
0100
1000
0002
0000
0023
0000
,
0001
0030
0100
0000
0100
0000
0010
0000
1000
0000
0001
0000
1000
0000
0010
0000
,
0100
0000
0010
0000
1000
0000
0000
1010
0000
0000
0001
0000
0010
0000
0100
0000
,
1000
0000
1000
0000
0001
0000
0000
0101
0000
0000
1000
0000
0100
0000
0010
0000
,
0100
0000
1000
0000
0001
0000
0000
0011
0000
0000
1000
0000
1000
0000
0001
0000
,
0100
0000
0010
0000
0100
0000
0000
0110
0000
0000
0001
0000
0010
0000
0100
0000
,
1000
0000
0100
0000
0010
0000
0000
1100
0000
0000
0000
0000
0001
0000
0100
0000
,
0010
0000
0010
0000
1000
0000
0000
0101
0000
0000
0000
0000
1000
0000
0100
0000
,
1000
0000
0000
0001
0000
0000
0000
1001
0000
0000
0000
0000
0100
0000
0010
0000
,
0100
0000
0000
0000
0001
0000
0000
1001
0000
0000
1000
0000
0100
0000
1000
0000
,
0001
0000
0100
0000
0010
0000
0000
1000
0000
1000
0000
0000
0001
0000
1000
0000
,
0010
0000
1000
0000
0100
0000
0000
0010
0000
0100
0000
0000
0001
0000
0100
0000
,
1000
0100
0010
0000
0011
0000
1000
0010
,
0010
0000
1000
0000
0100
0000
0000
0110
0000
0000
0000
0000
1000
0000
0010
0000
,
1000
0000
0000
0100
0000
0000
0010
0000
0001
0000
0000
0100
0000
0000
0010
0000
,
0000
0000
0010
0000
1000
0000
0100
0000
0010
0000
0000
0010
0000
0000
0000
1000
,
0000
0000
0010
0000
0100
0000
0001
0000
1000
0000
0000
0001
0000
0000
1000
0000
,
0100
0000
0010
0000
0001
0000
0100
0000
0010
0000
0000
0100
0000
0000
0010
0000
,
1000
0000
0000
0000
0001
0000
0000
0011
0000
0000
0000
0000
1000
0000
0001
0000
,
0100
0000
0010
0000
1000
0000
0000
1010
0000
0000
0000
0000
0001
0000
0010
0000
,
0100
0000
1000
0000
0010
0000
0000
0110
0000
0000
0000
0000
1000
0000
0100
0000
,
0010
0000
0001
0000
0010
0000
0000
0110
0000
0000
0000
0000
0001
0000
1000
0000
,
0001
0000
0100
0000
0010
0000
0000
0100
0000
0100
0000
0000
0001
0000
1000
0000
,
0100
0000
1000
0000
0001
0000
0000
0100
0000
0100
0000
0000
1000
0000
0010
0000
,
0100
0000
0100
0000
0001
0000
0000
1000
0000
1000
0000
0000
0010
0000
1000
0000
,
0100
0000
1000
0000
0001
0000
0000
0100
0000
0100
0000
0000
0001
0000
1000
0000
,
1001
0000
0000
0000
0000
0000
0000
1000
,
0010
0000
0000
0000
0000
0000
0000
0010
,
0001
0000
0000
0000
0000
0000
0000
0001
,
0100
0000
0000
0000
1000
0010
0100
0001
,
1000
0100
0100
0010
0001
1000
0001
2000
,
0000
3100
0100
0010
0001
1000
0001
2000
,
0000
3010
0010
0100
0001
0010
0001
0020
,
0000
0130
0100
1000
0001
0100
0001
0100
,
0000
1000
0100
0010
0002
0000
0203
0000
,
0300
0000
0000
0001
0010
0000
0022
0000
,
0033
0000
0000
1000
0010
0000
1000
0001
,
0010
0100
0010
0001
0100
0000
0001
0010
,
0100
1000
1000
0010
0100
0001
0010
0001
,
0000
1000
1000
0010
0100
0001
0010
0002
,
0000
1003
0100
1000
0002
0000
0023
0000
,
0001
0030
0100
0000
0100
0000
0010
0000
1000
0000
0001
0000
1000
0000
0010
0000
,
0000
1000
0100
0100
0010
0100
0010
0100
,
1000
0001
0100
0001
0010
0001
0100
0010
,
1000
0000
0010
0000
0100
0000
0010
0000
1000
0000
1000
0000
0001
0000
0000
1000
,
0001
1000
0001
0000
1000
0100
1000
0001
,
0100
0000
0000
0100
0000
0000
0100
0000
0000
0001
0000
0000
0010
0000
0000
0100
,
0000
0000
0010
0000
0000
0100
0000
0000
0010
0000
0000
0100
0000
0000
1000
0000
,
0001
0000
0000
0100
0000
0000
0000
0101
0000
0000
1000
0000
0100
0000
0000
1100
,
0000
0001
0010
0000
0010
0001
0000
1000
,
0100
0010
0001
0001
0000
1000
0010
0100
,
0010
0000
1010
0000
1100
0000
0001
0100
,
0010
0000
1010
0000
0101
0000
1000
0100
,
0010
0011
0101
2000
,
3001
0100
1000
0100
0000
0001
0001
0100
,
0001
0010
0100
0010
0001
1000
0001
1000
,
0010
0100
0001
0010
0000
1001
1001
0000
,
0010
0100
1000
1000
0000
0010
0100
0001
,
0000
2000
3200
2300
3010
0010
0200
0310
,
2000
3010
0010
0200
0302
0203
0320
0000
,
0030
0001
0001
1000
0100
1000
0001
0100
,
0001
1000
0010
0000
0110
0000
0000
0001
,
0010
0000
0000
0010
0000
0000
1000
0000
0010
0000
0000
0100
0000
0000
1000
0000
,
0001
0000
0000
1001
0000
0000
0100
0000
0010
0000
0000
0110
0000
0000
0000
0000
,
0001
0000
0000
0001
0000
0000
0010
0000
0100
0000
1000
0000
0010
0000
0000
0010
,
0000
0000
0000
1000
0000
0001
0000
0000
1000
0000
0000
0200
0000
0000
0000
0300
,
0110
0000
0000
0000
;

//---------------dance-single - Geriatric Patrick----------------
#NOTES:
     dance-single:
     Geriatric Patrick:
     Medium:
     5:
     0.261,0.427,0.094,0.058,0.000:
0000
0000
0000
0000
,
0000
0000
0000
0000
,
0000
0000
0000
0000
,
0000
0000
0000
0000
,
1001
0000
0000
0000
,
0010
0000
0000
0000
,
0110
0000
0000
0000
,
1000
0000
0000
0000
,
1001
0001
0010
0010
,
0000
1000
0010
0010
,
0000
0001
0010
0010
,
0000
0100
0010
0010
,
0000
1000
0010
0100
,
0000
0000
0001
0010
,
0000
0000
1000
0010
,
0100
0000
0001
0000
0010
0000
0000
0010
,
0000
1000
0010
0010
,
0000
0001
0010
0010
,
0000
1000
0100
0010
,
0100
1000
0010
0010
,
0100
0001
0010
0000
,
1000
0010
0100
0000
,
0001
1000
0100
0000
,
0001
0100
0010
0000
,
1000
0001
1000
0000
,
0100
0010
0100
0000
,
1000
0001
0100
0000
,
0010
1000
0001
0000
,
0010
0100
1000
0000
,
1000
0001
1000
0000
,
0001
0100
0001
0000
,
0010
0100
0010
0000
,
1000
0010
0100
0001
,
1000
0100
0010
0001
,
1000
0010
0100
0010
,
1000
0001
0010
0001
,
1000
0010
0100
0000
,
0100
0010
1000
0000
,
0001
0010
0100
0000
,
0100
1000
0001
0000
,
0101
0000
1000
0000
,
1100
0000
0010
0000
,
0110
0000
0001
0000
,
1001
0000
0100
0000
,
1001
0000
0000
0000
,
0010
0000
0000
0000
,
0110
0000
0000
0000
,
1000
0000
0000
0000
,
1001
0001
0010
0010
,
0000
1000
0010
0010
,
0000
0001
0010
0010
,
0000
0100
0010
0010
,
0000
1000
0010
0100
,
0000
0000
0001
0010
,
0000
0000
1000
0010
,
0100
0000
0001
0000
0010
0000
0000
0010
,
0000
1000
0010
0010
,
0000
0001
0010
0010
,
0000
1000
0100
0010
,
0100
1000
0010
0010
,
0000
1000
0010
0010
,
0100
0001
0010
0100
,
1000
0100
0010
1000
,
0001
1000
0000
1000
,
0100
0100
0010
0001
,
1000
0001
0010
0001
,
0100
0100
0000
0100
,
0000
0100
0010
0100
,
0001
0010
0000
0010
,
0100
0100
1000
0000
,
0010
0100
0100
0000
,
1000
0100
0100
1000
,
0001
0001
0000
0100
,
0010
0010
1000
0001
,
0010
0010
0000
0110
,
1000
1000
0000
1000
,
0000
0200
0320
0230
,
2300
3020
0230
0320
,
0030
0000
0001
0000
0010
0000
0000
0010
,
0000
0100
1000
0000
,
1001
0000
0100
0000
,
0110
0000
0001
0000
,
1000
1000
0100
0010
,
0001
0001
0200
0000
,
0300
0000
0000
0000
;
