#TITLE:Vroom Vroom;
#SUBTITLE:;
#ARTIST:Dingaling Productions;
#TITLETRANSLIT:;
#SUBTITLETRANSLIT:;
#ARTISTTRANSLIT:;
#GENRE:;
#CREDIT:;
#BANNER:Vroom Vroom-bn.png;
#BACKGROUND:Vroom Vroom-bg.png;
#LYRICSPATH:;
#CDTITLE:;
#MUSIC:Vroom Vroom.ogg;
#OFFSET:0.820;
#SAMPLESTART:32.501;
#SAMPLELENGTH:12.000;
#SELECTABLE:YES;
#BPMS:0.000=90.000,114.000=720.000,121.938=90.000;
#STOPS:121.938=0.630
;
#BGCHANGES:;
#KEYSOUNDS:;

//---------------dance-single - nvwls300----------------
#NOTES:
     dance-single:
     nvwls300:
     Challenge:
     10:
     0.751,0.613,0.051,0.000,1.000:
0000
0000
0000
0000
0000
0000
0000
0000
0100
0100
0000
0010
0001
0010
0000
0000
,
0000
0000
0000
0100
1000
0100
0010
0000
0100
0100
0000
0010
0001
0010
0000
0000
,
0100
0100
0000
0010
0001
0000
0000
0000
0100
0100
0000
0010
1000
0010
0000
0000
,
0000
0000
0000
0100
0001
0100
0010
0000
0100
0100
0000
0010
1000
0010
0000
0000
,
0100
0100
0000
0010
1000
0000
0000
0000
0100
0100
0000
0010
0001
0010
0000
0000
,
0000
0000
0000
0100
0001
0100
0010
0000
0100
0100
0000
0010
0001
0010
0000
0000
,
0100
0100
0000
0010
0001
0000
0000
0000
0100
0100
0000
0010
1000
0010
0000
0000
,
0000
0000
0000
0100
1000
0100
0010
0000
0100
0100
0000
0010
1000
0010
0000
0000
,
0100
0100
0000
0010
1000
0000
0000
0000
0001
1000
0010
0010
0010
0100
0010
1000
,
0001
0010
0100
0001
0100
1000
0010
0000
1000
0100
0010
0010
0010
0100
0010
0000
,
0001
0100
0010
0010
1000
0100
0010
0000
0001
1000
0010
0010
0010
0100
0010
1000
,
0001
0010
0100
0001
0100
1000
0010
0000
1000
0100
0010
0010
0010
0100
0010
0000
,
0001
0100
0010
0010
1000
0100
0010
0000
MM01
0001
0010
010M
10M0
1000
0010
0100
,
0001
0010
010M
1000
0M10
0100
0010
1000
0MM1
0001
0100
001M
1M00
1000
0001
0100
,
0010
1000
01M0
0010
M010
0001
0100
0010
1M0M
1000
0010
M100
00M1
0001
0010
0100
,
1000
0010
M100
0001
0M10
0100
0010
0001
1MM0
1000
0100
M010
0M01
0001
1000
0100
,
0010
0001
01M0
0010
001M
1000
0100
0010
MM01
0001
0010
010M
10M0
1000
0010
0100
,
0001
0010
010M
1000
0M10
0100
0010
1000
0MM1
0001
0100
001M
1M00
1000
0001
0100
,
0010
1000
01M0
0010
M010
0001
0100
0010
1M0M
1000
0010
M100
00M1
0001
0010
0100
,
1000
0010
M100
0001
0M10
0100
0010
0001
1MM0
1000
0100
M010
0M01
0001
1000
0100
,
0010
0001
01M0
0010
001M
1000
0100
0010
MM01
0001
0010
010M
10M0
1000
0010
0100
,
0001
0010
010M
1000
0M10
0100
0010
1000
0MM1
0001
0100
001M
1M00
1000
0001
0100
,
0010
1000
01M0
0010
M010
0001
0100
0010
1M0M
1000
0010
M100
00M1
0001
0010
0100
,
1000
0010
M100
0001
0M10
0100
0010
0001
1MM0
1000
0100
M010
0M01
0001
1000
0100
,
0010
0001
01M0
0010
001M
1000
0100
0010
0100
0100
0000
0010
0001
0010
0000
0000
,
0000
0000
0000
0100
1000
0100
0010
0000
0100
0100
0000
0010
0001
0010
0000
0000
,
0100
0100
0000
0010
0001
0000
0000
0000
0100
0100
0000
0010
1000
0010
0000
0000
,
0000
0000
0000
0100
1000
0100
0010
0000
0100
0100
0000
0010
0001
0010
0000
0000
,
0100
0100
0000
0010
1000
0000
0000
0000
1001
0000
0000
0000
0M00
0000
00M0
0000
,
0M00
0MM0
M00M
00M0
0M00
0MM0
M00M
0M00
,
0MM0
0000
M00M
0000
0MM0
0000
M00M
0000
M1M0
0100
0001
1M00
001M
0010
0100
0001
,
0010
0100
10M0
0010
M100
1000
0100
0010
M10M
0100
0001
01M0
001M
0010
0100
0001
,
1000
0001
M100
0010
001M
0100
0001
0010
M10M
0100
1000
0M01
M010
0010
0100
1000
,
0010
0100
00M1
0010
010M
0001
0100
0010
M10M
0100
1000
01M0
M010
0010
0100
1000
,
0001
1000
010M
0010
M010
0100
1000
0001
M1M0
0100
0001
1M00
001M
0010
0100
0001
,
1000
0001
M100
1000
100M
0100
0001
1000
01MM
0100
1000
0M01
M010
0010
0100
1000
,
0010
0100
00M1
0010
010M
0001
0100
0010
M10M
0100
1000
01M0
M010
0010
0100
1000
,
0001
1000
010M
0010
M010
0100
1000
0010
M10M
0100
0001
1M00
001M
0010
0100
0001
,
0010
0100
10M0
0010
M100
1000
0100
0010
M10M
0100
0001
M100
001M
0010
0100
0001
,
1000
0001
M100
0010
001M
0100
0001
1000
01MM
0100
1000
0M01
M010
0010
0100
1000
,
0010
0100
00M1
0010
010M
0001
0100
0010
M10M
0100
1000
01M0
M010
0010
0100
1000
,
0001
1000
010M
0001
M001
0100
1000
0010
M10M
0100
0001
1M00
001M
0010
0100
0001
,
0010
0100
10M0
0010
M100
1000
0100
0010
M10M
0100
0001
01M0
001M
0010
0100
0001
,
1000
0001
M100
1000
100M
0100
0001
1000
01MM
0100
1000
0M01
M010
0010
0100
1000
,
0010
0100
00M1
0010
010M
0001
0100
0010
M10M
0100
1000
01M0
M010
0010
0100
1000
,
0001
1000
010M
0010
M010
0100
1000
0010
M10M
0100
0001
1M00
001M
0010
0100
0001
,
0010
0100
10M0
0100
M001
0100
1000
0010
0100
0000
0000
0100
0010
0000
0100
0100
,
0000
0010
0100
0000
0010
0100
0000
0000
1000
0000
0000
0100
0010
0000
0100
0100
,
0000
0001
0100
0000
0001
0100
0000
0000
1000
0000
0000
0100
0010
0000
0100
1000
,
0000
0010
0100
0000
0010
0100
0000
0000
0001
0000
0000
0100
0010
0000
1000
0100
,
0000
0001
0100
0000
0001
0100
0000
0000
1000
0000
0000
0000
0011
0000
0000
0000
,
0100
0011
1000
0110
,
0001
0110
0001
1010
,
0100
0000
1010
0000
0100
1001
0100
0011
,
0100
0000
1001
0000
0100
0100
1010
0000
0MM1
0001
0010
010M
10M0
1000
0001
0100
,
0010
1000
01M0
0010
0M01
1000
0001
0010
M10M
0100
0010
0M01
10M0
1000
0001
0100
,
0010
1000
01M0
0010
M010
0001
0100
0010
1M0M
1000
0100
M010
0M01
0001
1000
0100
,
0010
0001
01M0
0010
1M00
0001
1000
0010
1M0M
1000
0100
M010
0M01
0001
1000
0100
,
0010
0001
01M0
0010
001M
1000
0100
0010
MM01
0001
0100
00M1
0M10
0010
0100
1000
,
0001
1000
010M
0010
0M10
0100
1000
0010
M10M
0100
0001
10M0
001M
0010
0100
0001
,
0010
0100
10M0
0010
M100
1000
0100
0010
M10M
0100
0001
01M0
001M
0010
0100
0001
,
1000
0001
M100
0010
001M
0100
0001
1000
01MM
0100
1000
0M01
M010
0010
0100
1000
,
0010
0100
00M1
0100
100M
0100
0001
0010
M10M
0100
1000
01M0
M010
0010
0100
1000
,
0001
1000
010M
0001
M001
0100
1000
0010
M10M
0100
0001
1M00
001M
0010
0100
0001
,
0010
0100
10M0
0010
M100
1000
0100
0010
M10M
0100
0001
01M0
001M
0010
0100
0001
,
1000
0001
M100
1000
100M
0100
0001
1000
01MM
0100
1000
0M01
M010
0010
0100
1000
,
0010
0100
00M1
0100
100M
0100
0001
0010
M10M
0100
0010
0M01
10M0
1000
0001
0100
,
0010
1000
01M0
0010
M010
0001
0100
0010
1M0M
1000
0100
M010
0M01
0001
0100
0010
,
1000
0001
M010
0100
10M0
0010
0100
0001
1MM0
1000
0100
M010
0M01
0001
1000
0100
,
0010
0001
01M0
0010
001M
1000
0100
0010
MM01
0001
0010
010M
10M0
1000
0010
0100
,
0001
1000
010M
0010
1M00
0010
0100
1000
0MM1
0001
0100
001M
1M00
1000
0001
0100
,
0010
1000
01M0
0010
M010
0001
0100
0010
1M0M
1000
0100
M010
0M01
0001
0100
0010
,
1000
0001
M010
0100
10M0
0010
0100
0001
1MM0
1000
0100
M010
0M01
0001
1000
0100
,
0010
0001
01M0
0010
001M
1000
0100
0010
MM01
0001
0010
010M
10M0
1000
0010
0100
,
0001
1000
010M
0010
1M00
0010
0100
1000
0MM1
0001
0100
M001
0M10
0010
0100
1000
,
0001
1000
010M
0010
M010
0100
1000
0010
M10M
0100
0001
1M00
001M
0010
0100
0001
,
0010
0100
10M0
0010
M100
1000
0100
0010
M10M
0100
0001
01M0
001M
0010
0100
0001
,
1000
0001
M100
0010
001M
0100
0001
1000
01MM
0100
1000
0M01
M010
0010
0100
1000
,
0010
0100
10M0
0001
M010
0100
0001
0010
M10M
0100
1000
01M0
M010
0010
0100
1000
,
0001
1000
010M
0001
M001
0100
1000
0010
M10M
0100
0001
1M00
001M
0010
0100
0001
,
0010
0100
10M0
0010
M100
1000
0100
0010
M10M
0100
0001
01M0
001M
0010
0100
0001
,
1000
0001
M100
1000
100M
0100
0001
1000
01MM
0100
1000
0M01
M010
0010
0100
1000
,
0010
0100
10M0
0001
M010
0100
0001
0010
0000
0000
0000
0000
0000
0000
0000
0000
;

//---------------dance-single - nvwls300----------------
#NOTES:
     dance-single:
     nvwls300:
     Hard:
     9:
     0.751,0.613,0.051,0.000,1.000:
0000
0000
0000
0000
0000
0000
0000
0000
0100
0100
0000
0010
0001
0010
0000
0000
,
0000
0000
0000
0100
1000
0100
0010
0000
0100
0100
0000
0010
0001
0010
0000
0000
,
0100
0100
0000
0010
0001
0000
0000
0000
0100
0100
0000
0010
1000
0010
0000
0000
,
0000
0000
0000
0100
0001
0100
0010
0000
0100
0100
0000
0010
1000
0010
0000
0000
,
0100
0100
0000
0010
1000
0000
0000
0000
0100
0100
0000
0010
0001
0010
0000
0000
,
0000
0000
0000
0100
0001
0100
0010
0000
0100
0100
0000
0010
0001
0010
0000
0000
,
0100
0100
0000
0010
0001
0000
0000
0000
0100
0100
0000
0010
1000
0010
0000
0000
,
0000
0000
0000
0100
1000
0100
0010
0000
0100
0100
0000
0010
1000
0010
0000
0000
,
0100
0100
0000
0010
1000
0000
0000
0000
0001
1000
0010
0100
0010
1000
0001
0010
,
0100
1000
0001
0100
0001
1000
0010
0000
1000
0100
0010
0001
1000
0001
0010
0000
,
0001
0100
0010
0010
1000
0100
0010
0000
0001
1000
0010
0100
0010
1000
0001
0010
,
0100
1000
0001
0100
0001
1000
0010
0000
1000
0100
0010
0001
1000
0001
0010
0000
,
0001
0100
0010
0010
1000
0100
0010
0000
0001
0001
0010
0100
1000
1000
0010
0100
,
0001
0010
0100
1000
0010
0100
0010
1000
0001
0001
0100
0010
1000
1000
0001
0100
,
0010
1000
0100
0010
0010
0001
0100
0010
1000
1000
0010
0100
0001
0001
0010
0100
,
1000
0010
0100
0001
0010
0100
0010
0001
1000
1000
0100
0010
0001
0001
1000
0100
,
0010
0001
0100
0010
0010
1000
0100
0010
0001
0001
0010
0100
1000
1000
0010
0100
,
0001
0010
0100
1000
0010
0100
0010
1000
0001
0001
0100
0010
1000
1000
0001
0100
,
0010
1000
0100
0010
0010
0001
0100
0010
1000
1000
0010
0100
0001
0001
0010
0100
,
1000
0010
0100
0001
0010
0100
0010
0001
1000
1000
0100
0010
0001
0001
1000
0100
,
0010
0001
0100
0010
0010
1000
0100
0010
0001
0001
0010
0100
1000
1000
0010
0100
,
0001
0010
0100
1000
0010
0100
0010
1000
0001
0001
0100
0010
1000
1000
0001
0100
,
0010
1000
0100
0010
0010
0001
0100
0010
1000
1000
0010
0100
0001
0001
0010
0100
,
1000
0010
0100
0001
0010
0100
0010
0001
1000
1000
0100
0010
0001
0001
1000
0100
,
0010
0001
0100
0010
0010
1000
0100
0010
0100
0100
0000
0010
0001
0010
0000
0000
,
0000
0000
0000
0100
1000
0100
0010
0000
0100
0100
0000
0010
0001
0010
0000
0000
,
0100
0100
0000
0010
0001
0000
0000
0000
0100
0100
0000
0010
1000
0010
0000
0000
,
0000
0000
0000
0100
0001
0100
0010
0000
0100
0100
0000
0010
1000
0010
0000
0000
,
0100
0100
0000
0010
1000
0000
0000
0000
1001
0000
0000
0000
0M00
0000
00M0
0000
,
0M00
00M0
0M00
00M0
0M00
00M0
0M00
00M0
,
0M00
0000
00M0
0000
0M00
0000
00M0
0000
0100
0100
0001
1000
0010
0010
0100
0001
,
0010
0100
1000
0010
0100
0001
0100
0010
1000
1000
0100
0010
0001
0001
0100
0010
,
1000
0100
1000
0010
0010
0100
0010
1000
0100
0100
1000
0001
0010
0010
0100
1000
,
0010
0100
0001
0010
0100
1000
0100
0010
0001
0001
0100
0010
1000
1000
0100
0010
,
0001
0100
0001
0010
0010
0100
0010
0001
0100
0100
0001
1000
0010
0010
0100
0001
,
0010
0100
1000
0010
0010
0100
0001
0010
0001
0001
0100
0010
1000
1000
0001
0100
,
0010
1000
0100
1000
0010
0100
0001
0010
0100
0100
1000
0001
0010
0010
0100
1000
,
0010
0100
0001
0010
0010
0100
1000
0010
1000
1000
0100
0010
0001
0001
1000
0100
,
0010
0001
0100
0001
0010
0100
1000
0010
0100
0100
0001
1000
0010
0010
0100
0001
,
0010
0100
1000
0010
0010
0100
0001
0010
0001
0001
0100
0010
1000
1000
0001
0100
,
0010
1000
0100
1000
0010
0100
0001
0010
0100
0100
1000
0001
0010
0010
0100
1000
,
0010
0100
0001
0010
0010
0100
1000
0010
1000
1000
0100
0010
0001
0001
1000
0100
,
0010
0001
0100
0001
0010
0100
1000
0010
0100
0100
0001
1000
0010
0010
0100
0001
,
0010
0100
1000
0010
0010
0100
0001
0010
0001
0001
0100
0010
1000
1000
0001
0100
,
0010
1000
0100
1000
0010
0100
0001
0010
0100
0100
1000
0001
0010
0010
0100
1000
,
0010
0100
0001
0010
0010
0100
1000
0010
1000
1000
0100
0010
0001
0001
1000
0100
,
0010
0001
0100
0001
0010
0100
1000
0010
0100
0000
0000
0100
0010
0000
0100
0100
,
0000
0010
0100
0000
0010
0100
0000
0000
0001
0000
0000
0001
0010
0000
0001
0001
,
0000
0010
0001
0000
0010
0001
0000
0000
1000
0000
0000
1000
0010
0000
1000
1000
,
0000
0010
1000
0000
0010
1000
0000
0000
0100
0000
0000
0100
0010
0000
0100
0100
,
0000
0010
0100
0000
0010
0100
0000
0000
1000
0000
0000
0000
0011
0000
0000
0000
,
1000
0011
1000
0110
,
1000
0110
0001
1010
,
0001
0000
1010
0000
0001
0110
0001
0110
,
0001
0000
0110
0000
0001
0100
0110
0000
0001
0001
0010
0100
1000
1000
0010
0100
,
0001
0010
0100
1000
0010
0100
0010
1000
0001
0001
0100
0010
1000
1000
0001
0100
,
0010
1000
0100
0010
0010
0001
0100
0010
1000
1000
0010
0100
0001
0001
0010
0100
,
1000
0010
0100
0001
0010
0100
0010
0001
1000
1000
0100
0010
0001
0001
1000
0100
,
0010
0001
0100
0010
0010
1000
0100
0010
0001
0001
0100
0010
1000
1000
0001
0100
,
0010
1000
0100
0010
0010
0001
0100
0010
1000
1000
0010
0100
0001
0001
0010
0100
,
1000
0010
0100
0001
0010
0100
0010
0001
1000
1000
0100
0010
0001
0001
1000
0100
,
0010
0001
0100
0010
0010
1000
0100
0010
0001
0001
0010
0100
1000
1000
0010
0100
,
0001
0010
0100
1000
0010
0100
0010
1000
0100
0100
1000
0001
0010
0010
0100
1000
,
0010
0100
0001
0010
0010
0100
1000
0010
1000
1000
0100
0010
0001
0001
1000
0100
,
0010
0001
0100
0001
0010
0100
1000
0010
0100
0100
0001
1000
0010
0010
0100
0001
,
0010
0100
1000
0010
0010
0100
0001
0010
0001
0001
0100
0010
1000
1000
0001
0100
,
0010
1000
0100
1000
0010
0100
0001
0010
0100
0100
1000
0001
0010
0010
0100
1000
,
0010
0100
0001
0010
0010
0100
1000
0010
1000
1000
0100
0010
0001
0001
1000
0100
,
0010
0001
0100
0001
0010
0100
1000
0010
0100
0100
0001
1000
0010
0010
0100
0001
,
0010
0100
1000
0010
0010
0100
0001
0010
0001
0001
0100
0010
1000
1000
0001
0100
,
0010
1000
0100
1000
0010
0100
0001
0010
0001
0001
0100
0010
1000
1000
0001
0100
,
0010
1000
0100
0010
0010
0001
0100
0010
1000
1000
0010
0100
0001
0001
0010
0100
,
1000
0010
0100
0001
0010
0100
0010
0001
1000
1000
0100
0010
0001
0001
1000
0100
,
0010
0001
0100
0010
0010
1000
0100
0010
0001
0001
0010
0100
1000
1000
0010
0100
,
0001
0010
0100
1000
0010
0100
0010
1000
0100
0100
1000
0001
0010
0010
0100
1000
,
0010
0100
0001
0010
0010
0100
1000
0010
1000
1000
0100
0010
0001
0001
1000
0100
,
0010
0001
0100
0001
0010
0100
1000
0010
0100
0100
0001
1000
0010
0010
0100
0001
,
0010
0100
1000
0010
0010
0100
0001
0010
0001
0001
0100
0010
1000
1000
0001
0100
,
0010
1000
0100
1000
0010
0100
0001
0010
0001
0001
0100
0010
1000
1000
0001
0100
,
0010
1000
0100
0010
0010
0001
0100
0010
1000
1000
0010
0100
0001
0001
0010
0100
,
1000
0010
0100
0001
0010
0100
0010
0001
1000
1000
0100
0010
0001
0001
1000
0100
,
0010
0001
0100
0010
0010
1000
0100
0010
0001
0001
0010
0100
1000
1000
0010
0100
,
0001
0010
0100
1000
0010
0100
0010
1000
0000
0000
0000
0000
0000
0000
0000
0000
;

//---------------dance-single - nvwls300----------------
#NOTES:
     dance-single:
     nvwls300:
     Medium:
     7:
     0.422,0.363,0.293,0.000,0.230:
0000
0000
0000
0000
0000
0000
0000
0000
0000
0100
0000
0000
0010
0000
0000
0000
,
0000
0000
0000
1000
0000
0001
0000
0000
0000
0100
0000
0000
0010
0000
0000
0000
,
0000
0001
0000
0000
0010
0000
0000
0000
0000
0100
0000
0000
0010
0000
0000
0000
,
0000
0000
0000
1000
0000
0001
0000
0000
0000
0100
0000
0000
0010
0000
0000
0000
,
0000
0001
0000
0000
0010
0000
0000
0000
0000
0100
0000
0000
0010
0000
0000
0000
,
0000
0000
0000
1000
0000
0001
0000
0000
0000
0100
0000
0000
0010
0000
0000
0000
,
0000
0001
0000
0000
0010
0000
0000
0000
0000
0100
0000
0000
0010
0000
0000
0000
,
0000
0000
0000
1000
0000
0001
0000
0000
0000
0100
0000
0000
0010
0000
0000
0000
,
0000
0001
0000
0000
0010
0000
0000
0000
0001
0000
0010
0000
0100
0000
0010
0000
,
0001
1000
0010
0000
0100
0010
1000
0000
,
0001
0010
0100
0000
1000
0010
0100
0010
,
1000
0001
0010
0000
0100
0010
0001
0000
,
1000
0000
0010
0000
0100
0000
0000
0000
0001
0000
1000
0100
0010
0000
0100
0000
,
0100
0000
1000
0000
1010
0000
0000
0000
0001
0000
0001
0100
0010
0000
0100
0000
,
0100
0000
0001
0000
1010
0000
0000
0000
0100
0000
1000
0100
0010
0000
0100
0000
,
0100
0000
1000
0000
1001
0000
0000
0000
0100
0000
0100
0010
0001
0000
0010
0000
,
0010
0000
0100
0000
1001
0000
0000
0000
0100
0000
0010
1000
0001
0000
1000
0000
,
1000
0000
0010
0000
0110
0000
0000
0000
1000
0000
1000
0100
0010
0000
0100
0000
,
0100
0000
1000
0000
0011
0000
0000
0000
1000
0000
0010
1000
0001
0000
1000
0000
,
1000
0000
0010
0000
0110
0000
0000
0000
1000
0000
1000
0001
0010
0000
0001
0000
,
0001
0000
1000
0000
0110
0000
0000
0000
0001
0000
1000
0010
0100
0000
0010
0000
,
0010
0000
1000
0000
1001
0000
0000
0000
0010
0000
0010
0001
1000
0000
0001
0000
,
0001
0000
0010
0000
1100
0000
0000
0000
0010
0000
1000
0010
0100
0000
0010
0000
,
0010
0000
1000
0000
1001
0000
0000
0000
0010
0000
0010
0100
1000
0000
0100
0000
,
0100
0000
0010
0000
1001
0000
0000
0000
0000
0100
0000
0000
0010
0000
0000
0000
,
0000
0000
0000
1000
0000
0001
0000
0000
0000
0100
0000
0000
0010
0000
0000
0000
,
0000
0001
0000
0000
0010
0000
0000
0000
0000
0100
0000
0000
0010
0000
0000
0000
,
0000
0000
0000
1000
0000
0001
0000
0000
0000
0100
0000
0000
0010
0000
0000
0000
,
0000
0001
0000
0000
0010
0000
0000
0000
0110
0000
0000
0000
0000
0000
0000
0000
,
0000
0000
0000
0000
,
0000
0000
0000
0000
0000
0000
0000
0000
1000
0000
0001
0100
0010
0000
0100
0000
,
0100
0000
0001
0000
0011
0000
0000
0000
1000
0000
1000
0100
0010
0000
0100
0000
,
0100
0000
1000
0000
0011
0000
0000
0000
0100
0000
0001
0100
0010
0000
0100
0000
,
0100
0000
0001
0000
1001
0000
0000
0000
0100
0000
0100
0010
1000
0000
0010
0000
,
0010
0000
0100
0000
1001
0000
0000
0000
0100
0000
0010
0001
1000
0000
0001
0000
,
0001
0000
0010
0000
0110
0000
0000
0000
0001
0000
0001
0100
0010
0000
0100
0000
,
0100
0000
0001
0000
1010
0000
0000
0000
0001
0000
0010
0001
1000
0000
0001
0000
,
0001
0000
0010
0000
0110
0000
0000
0000
0001
0000
0001
1000
0010
0000
1000
0000
,
1000
0000
0001
0000
0110
0000
0000
0000
1000
0000
0001
0010
0100
0000
0010
0000
,
0010
0000
0001
0000
1001
0000
0000
0000
0010
0000
0010
1000
0001
0000
1000
0000
,
1000
0000
0010
0000
0101
0000
0000
0000
0010
0000
0001
0010
0100
0000
0010
0000
,
0010
0000
0001
0000
1001
0000
0000
0000
0010
0000
0010
0100
0001
0000
0100
0000
,
0100
0000
0010
0000
1001
0000
0000
0000
1000
0000
0001
0100
0010
0000
0100
0000
,
0100
0000
0001
0000
0011
0000
0000
0000
1000
0000
1000
0100
0010
0000
0100
0000
,
0100
0000
1000
0000
0011
0000
0000
0000
0100
0000
0001
0100
0010
0000
0100
0000
,
0100
0000
0001
0000
1001
0000
0000
0000
0100
0000
0100
0010
1000
0000
0010
0000
,
0010
0000
0100
0000
1001
0000
0000
0000
0100
0000
0000
0000
0010
0000
0000
0100
,
0000
0010
0100
0000
0010
0100
0000
0000
0001
0000
0000
0000
0010
0000
0000
0001
,
0000
0010
0001
0000
0010
0001
0000
0000
1000
0000
0000
0000
0010
0000
0000
1000
,
0000
0010
1000
0000
0010
1000
0000
0000
0100
0000
0000
0000
0010
0000
0000
0100
,
0000
0010
0100
0000
0010
0100
0000
0000
1000
0000
0000
0000
0011
0000
0000
0000
,
1000
0011
1000
0110
,
1000
0110
0001
1010
,
0001
0000
1010
0000
0001
0010
0001
0010
,
0001
0000
0010
0000
0001
0001
0010
0000
0001
0000
1000
0100
0010
0000
0100
0000
,
0100
0000
1000
0000
1010
0000
0000
0000
0001
0000
0001
0100
0010
0000
0100
0000
,
0100
0000
0001
0000
1010
0000
0000
0000
0100
0000
1000
0100
0010
0000
0100
0000
,
0100
0000
1000
0000
1001
0000
0000
0000
0100
0000
0100
0010
0001
0000
0010
0000
,
0010
0000
0100
0000
1001
0000
0000
0000
0100
0000
0010
1000
0001
0000
1000
0000
,
1000
0000
0010
0000
0110
0000
0000
0000
1000
0000
1000
0100
0010
0000
0100
0000
,
0100
0000
1000
0000
0011
0000
0000
0000
1000
0000
0010
1000
0001
0000
1000
0000
,
1000
0000
0010
0000
0110
0000
0000
0000
1000
0000
1000
0001
0010
0000
0001
0000
,
0001
0000
1000
0000
0110
0000
0000
0000
0001
0000
1000
0010
0100
0000
0010
0000
,
0010
0000
1000
0000
1001
0000
0000
0000
0010
0000
0010
0001
1000
0000
0001
0000
,
0001
0000
0010
0000
1100
0000
0000
0000
0010
0000
1000
0010
0100
0000
0010
0000
,
0010
0000
1000
0000
1001
0000
0000
0000
0010
0000
0010
0100
1000
0000
0100
0000
,
0100
0000
0010
0000
1001
0000
0000
0000
0100
0000
1000
0001
0010
0000
0100
0000
,
0100
0000
1000
0000
1010
0000
0000
0000
0100
0000
0100
0001
1000
0000
0001
0000
,
0001
0000
0100
0000
1010
0000
0000
0000
0001
0000
0010
0100
1000
0000
0001
0000
,
0001
0000
0100
0000
0110
0000
0000
0000
0001
0000
0001
0100
0010
0000
0100
0000
,
0100
0000
0001
0000
0110
0000
0000
0000
0100
0000
0001
0100
0010
0000
1000
0000
,
1000
0000
0001
0000
0011
0000
0000
0000
0100
0000
0100
1000
0010
0000
0100
0000
,
0100
0000
0001
0000
1010
0000
0000
0000
0001
0000
1000
0100
0010
0000
0100
0000
,
0100
0000
1000
0000
1010
0000
0000
0000
0001
0000
0001
0100
0010
0000
0100
0000
,
0100
0000
0001
0000
1010
0000
0000
0000
0100
0000
0010
1000
0001
0000
1000
0000
,
1000
0000
0010
0000
0110
0000
0000
0000
1000
0000
1000
0100
0010
0000
0100
0000
,
0100
0000
1000
0000
0011
0000
0000
0000
0001
0000
1000
0010
0100
0000
0010
0000
,
0010
0000
1000
0000
1001
0000
0000
0000
0010
0000
0010
0001
1000
0000
0001
0000
,
0001
0000
0010
0000
1100
0000
0000
0000
0100
0000
1000
0001
0010
0000
0100
0000
,
0100
0000
1000
0000
1010
0000
0000
0000
0100
0000
0100
0001
1000
0000
0001
0000
,
0001
0000
0100
0000
1010
0000
0000
0000
0100
0000
0001
0100
0010
0000
1000
0000
,
1000
0000
0001
0000
0011
0000
0000
0000
0100
0000
0100
1000
0010
0000
0100
0000
,
0100
0001
1010
0000
0000
0000
0000
0000
;

//---------------dance-single - Medium----------------
#NOTES:
     dance-single:
     Medium:
     Easy:
     6:
     0.304,0.249,0.293,0.000,0.209:
0000
0000
0000
0000
0000
0000
0000
0000
0000
0100
0000
0000
0010
0000
0000
0000
,
0000
0000
0000
1000
0000
0001
0000
0000
0000
0100
0000
0000
0010
0000
0000
0000
,
0000
0100
0000
0000
0010
0000
0000
0000
0000
0100
0000
0000
0010
0000
0000
0000
,
0000
0000
0000
1000
0000
0001
0000
0000
0000
0100
0000
0000
0010
0000
0000
0000
,
0000
0001
0000
0000
0010
0000
0000
0000
0000
0100
0000
0000
0010
0000
0000
0000
,
0000
0000
0000
1000
0000
0001
0000
0000
0000
0100
0000
0000
0010
0000
0000
0000
,
0000
0001
0000
0000
0010
0000
0000
0000
0000
0100
0000
0000
0010
0000
0000
0000
,
0000
0000
0000
1000
0000
0001
0000
0000
0000
0100
0000
0000
0010
0000
0000
0000
,
0000
0001
0000
0000
0010
0000
0000
0000
0001
0000
0010
0000
0100
0000
0010
0000
,
0001
1000
0010
0000
0100
0010
1000
0000
,
0001
0010
0100
0000
1000
0010
0100
0010
,
1000
0001
0010
0000
0100
0010
0001
0000
,
1000
0000
0010
0000
0100
0000
0000
0000
0001
0000
0000
0100
0010
0000
0000
0000
,
0000
0000
0001
0000
1001
0000
0000
0000
0100
0000
0000
0100
0010
0000
0000
0000
,
0000
0000
0001
0000
0011
0000
0000
0000
1000
0000
0000
0100
0010
0000
0000
0000
,
0000
0000
1000
0000
1001
0000
0000
0000
0100
0000
0000
0100
0010
0000
0000
0000
,
0000
0000
1000
0000
1010
0000
0000
0000
0001
0000
0000
0100
0010
0000
0000
0000
,
0000
0000
0001
0000
1001
0000
0000
0000
0100
0000
0000
0100
0010
0000
0000
0000
,
0000
0000
0001
0000
0011
0000
0000
0000
1000
0000
0000
0100
0010
0000
0000
0000
,
0000
0000
1000
0000
1001
0000
0000
0000
0100
0000
0000
0100
0010
0000
0000
0000
,
0000
0000
1000
0000
1010
0000
0000
0000
0001
0000
0000
0100
0010
0000
0000
0000
,
0000
0000
0001
0000
1001
0000
0000
0000
0100
0000
0000
0100
0010
0000
0000
0000
,
0000
0000
0001
0000
0011
0000
0000
0000
1000
0000
0000
0100
0010
0000
0000
0000
,
0000
0000
1000
0000
1001
0000
0000
0000
0100
0000
0000
0100
0010
0000
0000
0000
,
0000
0000
1000
0000
1010
0000
0000
0000
0000
0100
0000
0000
0010
0000
0000
0000
,
0000
0000
0000
1000
0000
0001
0000
0000
0000
0100
0000
0000
0010
0000
0000
0000
,
0000
0100
0000
0000
0010
0000
0000
0000
0000
0100
0000
0000
0010
0000
0000
0000
,
0000
0000
0000
1000
0000
0001
0000
0000
0000
0100
0000
0000
0010
0000
0000
0000
,
0000
0100
0000
0000
0010
0000
0000
0000
0110
0000
0000
0000
0000
0000
0000
0000
,
0000
0000
0000
0000
,
0000
0000
0000
0000
0000
0000
0000
0000
0001
0000
0000
0100
0010
0000
0000
0000
,
0000
0000
0001
0000
1001
0000
0000
0000
0100
0000
0000
0100
0010
0000
0000
0000
,
0000
0000
0001
0000
0011
0000
0000
0000
1000
0000
0000
0100
0010
0000
0000
0000
,
0000
0000
1000
0000
1001
0000
0000
0000
0100
0000
0000
0100
0010
0000
0000
0000
,
0000
0000
1000
0000
1010
0000
0000
0000
0001
0000
0000
0100
0010
0000
0000
0000
,
0000
0000
0001
0000
1001
0000
0000
0000
0100
0000
0000
0100
0010
0000
0000
0000
,
0000
0000
0001
0000
0011
0000
0000
0000
1000
0000
0000
0100
0010
0000
0000
0000
,
0000
0000
1000
0000
1001
0000
0000
0000
0100
0000
0000
0100
0010
0000
0000
0000
,
0000
0000
1000
0000
1010
0000
0000
0000
0001
0000
0000
0100
0010
0000
0000
0000
,
0000
0000
0001
0000
1001
0000
0000
0000
0100
0000
0000
0100
0010
0000
0000
0000
,
0000
0000
0001
0000
0011
0000
0000
0000
1000
0000
0000
0100
0010
0000
0000
0000
,
0000
0000
1000
0000
1001
0000
0000
0000
0100
0000
0000
0100
0010
0000
0000
0000
,
0000
0000
1000
0000
1010
0000
0000
0000
0001
0000
0000
0100
0010
0000
0000
0000
,
0000
0000
0001
0000
1001
0000
0000
0000
0100
0000
0000
0100
0010
0000
0000
0000
,
0000
0000
0001
0000
0011
0000
0000
0000
1000
0000
0000
0100
0010
0000
0000
0000
,
0000
0000
1000
0000
1001
0000
0000
0000
0100
0000
0000
0100
0010
0000
0000
0000
,
0000
0000
1000
0000
1010
0000
0000
0000
0100
0000
0000
0000
0010
0000
0000
0100
,
0000
0000
0100
0000
0010
0000
0000
0000
0001
0000
0000
0000
0010
0000
0000
0001
,
0000
0000
0001
0000
0010
0000
0000
0000
1000
0000
0000
0000
0010
0000
0000
1000
,
0000
0000
1000
0000
0010
0000
0000
0000
0100
0000
0000
0000
0010
0000
0000
0100
,
0000
0100
0010
0000
1000
0000
0011
0000
,
1000
0011
1000
0110
,
1000
0110
0001
1010
,
0001
0000
1010
0000
0001
0010
0001
0010
,
0001
0000
0010
0000
0100
0000
0000
0000
0001
0000
0000
0100
0010
0000
0000
0000
,
0000
0000
0001
0000
1001
0000
0000
0000
0100
0000
0000
0100
0010
0000
0000
0000
,
0000
0000
0001
0000
0011
0000
0000
0000
1000
0000
0000
0100
0010
0000
0000
0000
,
0000
0000
1000
0000
1001
0000
0000
0000
0100
0000
0000
0100
0010
0000
0000
0000
,
0000
0000
1000
0000
1010
0000
0000
0000
0001
0000
0000
0100
0010
0000
0000
0000
,
0000
0000
0001
0000
1001
0000
0000
0000
0100
0000
0000
0100
0010
0000
0000
0000
,
0000
0000
0001
0000
0011
0000
0000
0000
1000
0000
0000
0100
0010
0000
0000
0000
,
0000
0000
1000
0000
1001
0000
0000
0000
0100
0000
0000
0100
0010
0000
0000
0000
,
0000
0000
1000
0000
1010
0000
0000
0000
0001
0000
0000
0100
0010
0000
0000
0000
,
0000
0000
0001
0000
1001
0000
0000
0000
0100
0000
0000
0100
0010
0000
0000
0000
,
0000
0000
0001
0000
0011
0000
0000
0000
1000
0000
0000
0100
0010
0000
0000
0000
,
0000
0000
1000
0000
1001
0000
0000
0000
0100
0000
0000
0100
0010
0000
0000
0000
,
0000
0000
1000
0000
1010
0000
0000
0000
0001
0000
0000
0100
0010
0000
0000
0000
,
0000
0000
0001
0000
1001
0000
0000
0000
0100
0000
0000
0100
0010
0000
0000
0000
,
0000
0000
0001
0000
0011
0000
0000
0000
1000
0000
0000
0100
0010
0000
0000
0000
,
0000
0000
1000
0000
1001
0000
0000
0000
0100
0000
0000
0100
0010
0000
0000
0000
,
0000
0000
1000
0000
1010
0000
0000
0000
0001
0000
0000
0100
0010
0000
0000
0000
,
0000
0000
0001
0000
1001
0000
0000
0000
0100
0000
0000
0100
0010
0000
0000
0000
,
0000
0000
0001
0000
0011
0000
0000
0000
1000
0000
0000
0100
0010
0000
0000
0000
,
0000
0000
1000
0000
1001
0000
0000
0000
0100
0000
0000
0100
0010
0000
0000
0000
,
0000
0000
1000
0000
1010
0000
0000
0000
0001
0000
0000
0100
0010
0000
0000
0000
,
0000
0000
0001
0000
1001
0000
0000
0000
0100
0000
0000
0100
0010
0000
0000
0000
,
0000
0000
0001
0000
0011
0000
0000
0000
1000
0000
0000
0100
0010
0000
0000
0000
,
0000
0000
1000
0000
1001
0000
0000
0000
0100
0000
0000
0100
0010
0000
0000
0000
,
0000
0000
1000
0000
1010
0000
0000
0000
0001
0000
0000
0100
0010
0000
0000
0000
,
0000
0000
0001
0000
1001
0000
0000
0000
0100
0000
0000
0100
0010
0000
0000
0000
,
0000
0000
0001
0000
0011
0000
0000
0000
1000
0000
0000
0100
0010
0000
0000
0000
,
0000
0000
1000
0000
1001
0000
0000
0000
0100
0000
0000
0100
0010
0000
0000
0000
,
0000
1000
1010
0000
0000
0000
0000
0000
;
