#TITLE:The most important facial expression;
#SUBTITLE:;
#ARTIST:Matt Storer;
#TITLETRANSLIT:;
#SUBTITLETRANSLIT:;
#ARTISTTRANSLIT:;
#GENRE:;
#CREDIT:;
#BANNER:The most important facial expression-bn.png;
#BACKGROUND:The most important facial expression-bg.png;
#LYRICSPATH:;
#CDTITLE:;
#MUSIC:The most important facial expression.ogg;
#OFFSET:2.310;
#SAMPLESTART:27.020;
#SAMPLELENGTH:10.500;
#SELECTABLE:YES;
#BPMS:0.000=90.000;
#STOPS:;
#SCROLLS:0.000=1.000;
#TIMESIGNATURES:0.000=4=4;
#BGCHANGES:0.000=The most important facial expression-bg.png=1.000=0=0=1=====,
3.375=The most important facial expression.avi=1.000=0=0=0=StretchNoLoop====,
78.000=The most important facial expression-bg 2.png=1.000=0=0=1=====,
580.000=The most important facial expression-bg.png=1.000=0=0=1=Centered====,
99999=-nosongbg-=1.000=0=0=0 // don't automatically add -songbackground-
;
#KEYSOUNDS:;

//---------------dance-single - Geriatric Patrick----------------
#NOTES:
     dance-single:
     Geriatric Patrick:
     Challenge:
     9:
     0.602,0.509,0.145,0.062,0.847:
0000
0000
0000
0000
0000
0000
0000
0000
0000
0000
0000
0000
0000
0000
0100
1000
,
0001
0000
0001
0000
0010
0100
1000
0100
0010
0001
1000
0001
0010
0100
1000
0001
,
0100
0000
0001
1000
0000
1001
0000
0001
1000
0000
1000
0020
0000
0000
1030
0001
,
0100
0001
1000
0001
0010
0000
0001
1000
0100
1000
0001
1000
0010
0000
1000
0001
,
0010
0000
0001
1000
0000
1010
0000
1000
0001
0000
1000
0002
0000
0000
0103
0000
,
0100
0000
0001
0010
0000
0100
0000
1000
0000
0001
0010
0000
0100
0000
0100
0010
,
0001
0000
0010
0100
0000
0110
0000
0100
0010
0000
1000
0020
0000
0000
0030
0001
,
0010
0000
0001
0000
0010
0000
0001
0000
1000
0000
0001
0000
1000
0000
0001
0010
,
0001
1000
0010
1000
0001
1000
0010
1000
0001
0100
0010
0001
0000
0000
0100
0010
,
1000
0000
0010
0000
0001
0000
0010
0000
0100
0010
0100
0001
0000
0000
1000
0100
,
0000
0110
0000
0000
1000
0000
0011
0000
0100
0000
0001
1000
0000
0000
0100
0000
,
1000
0001
0100
0001
0100
0000
1000
0100
0010
0000
0100
0000
0100
0001
0000
1000
,
0100
0000
0001
0000
0100
0000
1000
0000
0110
0000
0100
1000
0100
0000
0000
0001
,
0100
0001
0010
0000
0000
0010
0100
0010
0001
0000
0000
1000
0100
1000
0010
0000
,
0000
0010
0100
0001
1000
0001
0010
0100
1000
0000
0100
0010
0000
0100
0001
0000
,
0100
0010
0000
0000
1000
0100
0010
0100
1000
0000
0001
0100
0000
0000
0001
0010
,
0000
0100
0000
1000
0010
0000
0100
0000
1010
0000
0001
0100
0000
0001
1000
0000
,
0010
0000
0100
0000
0100
0000
0001
0010
0000
0100
0000
0100
1000
0001
0100
0001
,
0010
0000
0100
0000
0100
0000
1000
0010
0000
0100
0000
1000
0001
0010
0100
1000
;

//---------------dance-single - ----------------
#NOTES:
     dance-single:
     :
     Hard:
     7:
     0.375,0.294,0.103,0.000,0.238:
0000
0000
0000
0000
,
0100
0000
0000
0010
0000
0000
0100
0000
1000
0000
0000
0000
0000
0000
1000
0000
,
0001
0000
0000
0010
0000
0000
0001
0000
0100
0000
0000
0000
0000
0000
0100
0000
,
0001
0000
0000
0001
0010
0000
0100
0000
1000
0000
0100
0000
0010
0000
0100
0000
,
1000
0000
0000
1000
0010
0000
1000
0000
0001
0000
0010
0000
0100
0000
0000
0000
,
0001
0000
0000
1000
0010
0000
1000
0000
0100
0000
1000
0000
0010
0000
0010
0000
,
0100
0000
0000
0001
1000
0000
0001
0000
0100
0000
0100
0000
0010
0000
0000
0000
,
0001
0000
0000
0001
0010
0000
0100
0000
0000
0000
0100
0000
0011
0000
0000
0000
,
1000
0000
0000
1000
0010
0000
0100
0000
0000
0000
1000
0000
1001
0000
0000
0000
,
0100
0000
0000
1000
0010
0000
0100
0000
0000
0000
0001
0000
0011
0000
0000
0000
,
0100
0000
0000
0001
0010
0000
0100
0000
0000
0000
0100
0000
1001
0000
0000
0000
,
0100
0000
0000
0001
1000
0000
0001
0000
0100
0000
0010
0000
1000
0000
0001
0000
,
0100
0000
0000
0100
0010
0000
0100
0000
1000
0000
0100
0000
0010
0000
0000
0000
,
0001
0000
0000
0010
0100
0000
0010
0000
0001
0000
0100
0000
0010
0000
0100
0000
,
0001
0000
0000
0001
0010
0000
0100
0000
0001
0000
0100
0000
1000
0000
0000
0000
,
0010
0000
0000
1000
0100
0000
1000
0000
0010
0000
0010
0000
0100
0000
0001
0000
,
0010
0000
0000
0001
1000
0000
0010
0000
0100
0000
0100
0000
1000
0000
0000
0000
,
0001
0000
0000
0000
0001
0000
0000
1000
0000
1000
0000
1000
0001
0000
0000
0000
,
0001
0000
0000
0000
0001
0000
0000
1000
0000
1000
0000
1000
0001
0000
0000
1001
;

//---------------dance-single - ----------------
#NOTES:
     dance-single:
     :
     Medium:
     5:
     0.230,0.235,0.000,0.000,0.145:
0000
0000
0000
0000
,
0000
0000
0000
0000
,
0000
0000
0000
0000
,
0100
0000
0010
0001
0000
1000
0010
0000
,
0100
0000
0010
1000
0000
0001
0010
0000
,
0100
0000
1000
0001
0000
0001
1000
0000
,
0100
0000
0010
0001
0000
0001
0010
0000
,
0100
0000
1000
0010
0000
0001
0010
0000
,
0100
0000
0010
0001
0000
1000
0010
0000
,
0100
0000
0010
1000
0000
1000
0001
0000
,
0100
0000
0001
0010
0000
0010
0100
0000
,
1000
0010
1000
0010
0100
0010
1000
0000
,
0001
0000
0010
0000
0001
0000
0010
0000
0100
0000
0000
0100
0000
0000
0000
0000
,
1000
0010
0000
0001
0010
0000
1000
0010
,
0000
0000
0100
0000
0001
0000
0100
0000
0010
0000
0000
0010
0000
0000
1000
0000
,
0000
0001
0000
0000
0100
0000
0010
0000
0100
0000
0000
0100
0000
0000
0000
0001
,
0000
1000
0000
0000
0001
0000
1000
0000
0100
0000
0000
0100
0000
0000
0000
0000
,
000M
0000
0000
0000
000M
0000
0000
00M0
0000
00M0
0000
00M0
0M00
0000
0000
0000
,
0M00
0000
0000
0000
0M00
0000
0000
M000
0000
M000
0000
M000
0001
0000
0000
0001
;

//---------------dance-single - ----------------
#NOTES:
     dance-single:
     :
     Easy:
     3:
     0.195,0.196,0.351,0.000,0.010:
0000
0000
0000
0000
,
0000
0000
0000
0000
,
0000
0000
0000
0000
,
1000
0110
0000
0110
,
1000
1001
0000
1001
,
0010
0011
0000
0011
,
0100
1100
0000
1100
,
0001
0110
0000
1010
,
0100
1010
0000
1001
,
0010
1100
0000
0110
,
1000
0011
0000
1001
,
0100
0010
0001
0001
,
0100
0010
1000
1000
,
0001
0010
0100
0010
,
0001
0100
0010
0100
,
1000
0100
0001
0001
,
0010
0100
1000
1000
,
0000
0000
0000
0000
,
0000
0000
0000
0000
0000
0000
0000
0000
0000
0000
0000
0000
0000
0000
0000
1001
;

//---------------dance-single - ----------------
#NOTES:
     dance-single:
     :
     Beginner:
     1:
     0.047,0.053,0.021,0.000,0.000:
0000
0000
0000
0000
,
0000
0000
0000
0000
,
0000
0000
0000
0000
,
1000
0000
0000
0000
,
0100
0000
0000
0000
,
0001
0000
0000
0000
,
0100
0000
0000
0000
,
1000
0000
0000
0000
,
1000
0000
0000
0000
,
0010
0000
0000
0000
,
0010
0000
0000
0000
,
0001
0000
0000
0000
,
0100
0000
0000
0000
,
0001
0000
0000
0000
,
0010
0000
0000
0000
,
1000
0000
0000
0000
,
0100
0000
0000
0000
,
1001
0000
0000
0000
;
