#TITLE:The Nobodies;
#SUBTITLE:;
#ARTIST:Marilyn Manson;
#TITLETRANSLIT:;
#SUBTITLETRANSLIT:;
#ARTISTTRANSLIT:;
#GENRE:;
#CREDIT:;
#BANNER:Nobodies-bn.png;
#BACKGROUND:Nobodies-bg.png;
#LYRICSPATH:;
#CDTITLE:;
#MUSIC:Nobodies.ogg;
#OFFSET:-0.633;
#SAMPLESTART:57.380;
#SAMPLELENGTH:14.040;
#SELECTABLE:YES;
#BPMS:0.000=37.500,27.500=75.000,28.000=150.000,92.000=37.500,109.500=75.000,110.000=150.000,174.000=37.500;
#STOPS:27.500=0.100
,27.625=0.100
,27.750=0.100
,27.875=0.100
,109.500=0.100
,109.625=0.100
,109.750=0.100
,109.875=0.100
;
#SCROLLS:0.000=1.000;
#TIMESIGNATURES:;
#BGCHANGES:4.000=The Nobodies.avi=1.000=0=0=0=StretchNoLoop====,
177.500=Nobodies-bg.png=1.000=0=0=1=Centered====,
99999=-nosongbg-=1.000=0=0=0 // don't automatically add -songbackground-
;
#KEYSOUNDS:;

//---------------dance-single - Geriatric Patrick----------------
#NOTES:
     dance-single:
     Geriatric Patrick:
     Challenge:
     10:
     0.693,0.762,1.000,0.137,0.343:
0000
0000
0000
0000
,
0001
0010
1000
0010
0001
0010
1000
0010
0100
0010
1000
0010
0100
0010
1000
0010
,
0100
1000
0010
0100
0100
1000
0010
0100
1000
0010
0001
0010
1000
0100
0001
0100
,
0020
0001
0100
0001
0100
0001
0100
0001
0230
0010
1000
0010
1000
0010
1000
0010
,
2300
0010
0001
0100
0100
0010
0001
0100
3020
0001
0100
0001
2030
0001
0100
0001
,
3020
0001
1000
0001
1000
0001
1000
0001
0230
1000
0001
1000
0001
1000
0001
1000
,
0302
0000
0010
0000
0100
0000
1000
0000
0100
0000
0010
0000
0100
0000
1000
0000
0023
0000
0001
0000
1000
0000
0001
0000
0131
0000
0001
0000
1000
0100
1000
0100
,
M111
M111
1111
M111
,
M111
M111
1111
M111
,
1M11
1M11
1111
1M11
,
1M11
0000
1M11
0000
1111
0000
0100
0010
,
11M1
11M1
1111
11M1
,
11M1
11M1
1111
11M1
,
111M
111M
1111
111M
,
1111
0000
1111
0000
0001
0100
0001
0100
,
111M
111M
1111
111M
,
111M
111M
1111
111M
,
1M11
1M11
1111
1M11
,
1M11
0000
1M11
0000
1111
0000
0100
0010
,
11M1
11M1
1111
11M1
,
11M1
11M1
1111
11M1
,
M111
M111
1111
M111
,
1111
0000
1111
0000
0011
1100
0011
0000
,
0100
0100
0011
0000
0100
0100
0011
0000
0020
1000
1100
1000
0100
1000
1100
1000
,
0230
0010
0011
0010
0001
0010
0011
0010
0302
0010
1010
0100
0100
0010
1010
0100
,
0023
1000
1100
1000
0032
1000
1100
1000
0023
1000
0101
1000
0001
1000
0101
1000
,
0230
0001
1010
0001
1000
0001
1010
0001
2300
0010
0011
0100
0001
0010
0011
0100
,
3020
0000
1000
0000
0101
0000
1000
0000
1130
0000
1000
0000
0001
0100
0001
0100
111M
0000
0000
0000
0000
0000
0000
0000
111M
0000
0000
0000
0000
0000
0000
0000
,
1111
111M
111M
111M
,
1111
111M
1M11
1M11
,
1111
1M11
1M11
1M11
,
1111
0000
0100
0010
11M1
0000
11M1
0000
,
1111
11M1
11M1
11M1
,
1111
11M1
M111
M111
,
1111
M111
1111
1111
,
1000
0100
1000
0100
M111
0000
M111
0000
,
1111
M111
M111
M111
,
1111
M111
1M11
1M11
,
1111
1M11
1M11
1M11
,
1111
1M11
11M1
11M1
,
1111
11M1
11M1
11M1
,
1111
11M1
111M
111M
,
1111
111M
1111
1111
,
1010
0000
0001
0000
1010
0000
0001
0000
0100
0100
1010
0000
0100
0100
1010
0000
,
0100
0100
1010
0000
0100
0100
1010
0000
0000
0000
0000
0000
0000
0000
0000
0000
;

//---------------dance-single - Geriatric Patrick----------------
#NOTES:
     dance-single:
     Geriatric Patrick:
     Hard:
     9:
     0.545,0.626,0.961,0.137,0.343:
0000
0000
0000
0000
,
0001
0010
1000
0010
0001
0010
1000
0010
0100
0010
1000
0010
0100
0010
1000
0010
,
0100
1000
0010
0100
0100
1000
0010
0100
1000
0010
0001
0010
1000
0100
0001
0100
,
0020
0001
0100
0001
0100
0001
0100
0001
0230
0010
1000
0010
1000
0010
1000
0010
,
2300
0010
0001
0100
0100
0010
0001
0100
3020
0001
0100
0001
2030
0001
0100
0001
,
3020
0001
1000
0001
1000
0001
1000
0001
0230
1000
0001
1000
0001
1000
0001
1000
,
0302
0000
0010
0000
0100
0000
1000
0000
0100
0000
0010
0000
0100
0000
1000
0000
0023
0000
0001
0000
1000
0000
0001
0000
0131
0000
0001
0000
1000
0100
1000
0100
,
M11M
M11M
M111
M11M
,
M11M
M11M
M111
M11M
,
MM11
MM11
1M11
MM11
,
MM11
0000
MM11
0000
1M11
0000
0001
1000
,
11MM
11MM
111M
11MM
,
11MM
11MM
111M
11MM
,
1MM1
1MM1
11M1
1MM1
,
11M1
0000
11M1
0000
0001
0100
0001
0100
,
M11M
M11M
111M
M11M
,
M11M
M11M
111M
M11M
,
1M1M
1M1M
1M11
1M1M
,
1M1M
0000
1M1M
0000
1M11
0000
1000
0001
,
M1M1
M1M1
M111
M1M1
,
M1M1
M1M1
M111
M1M1
,
1MM1
1MM1
11M1
1MM1
,
11M1
0000
11M1
0000
1000
0010
0001
0000
,
0100
0100
1001
0000
0100
0100
1001
0000
0020
1000
0100
1000
0100
1000
0100
1000
,
0230
0010
0001
0010
0001
0010
0001
0010
0302
0010
1000
0100
0100
0010
1000
0100
,
0023
1000
0100
1000
0032
1000
0100
1000
0023
1000
0100
1000
0001
1000
0100
1000
,
0230
0001
0010
0001
1000
0001
0010
0001
2300
0010
0001
0100
0001
0010
0001
0100
,
3020
0000
1000
0000
0001
0000
1000
0000
0130
0000
0100
0000
0001
1000
0001
1000
1M1M
0000
0000
0000
0000
0000
0000
0000
1M1M
0000
0000
0000
0000
0000
0000
0000
,
1M11
1M1M
1M1M
1M1M
,
1M11
1M1M
1MM1
1MM1
,
11M1
1MM1
1MM1
1MM1
,
11M1
0000
0100
0010
M1M1
0000
M1M1
0000
,
M111
M1M1
M1M1
M1M1
,
M111
M1M1
M11M
M11M
,
111M
M11M
11MM
11MM
,
0100
0001
0100
0001
MM11
0000
MM11
0000
,
1M11
MM11
MM11
MM11
,
1M11
MM11
1MM1
1MM1
,
11M1
1MM1
1MM1
1MM1
,
11M1
1MM1
11MM
11MM
,
111M
11MM
11MM
11MM
,
111M
11MM
M11M
M11M
,
M111
M11M
1111
1111
,
1010
0000
0001
0000
1010
0000
0001
0000
0100
0100
1010
0000
0100
0100
1010
0000
,
0100
0100
1010
0000
0100
0100
1010
0000
0000
0000
0000
0000
0000
0000
0000
0000
;
