#TITLE:Terryfold;
#SUBTITLE:;
#ARTIST:Chaos Chaos ft. Justin Roiland;
#TITLETRANSLIT:;
#SUBTITLETRANSLIT:;
#ARTISTTRANSLIT:;
#GENRE:;
#CREDIT:;
#BANNER:Terryfold-bn.png;
#BACKGROUND:Terryfold-bg.png;
#LYRICSPATH:;
#CDTITLE:;
#MUSIC:Terryfold.ogg;
#OFFSET:-0.590;
#SAMPLESTART:42.320;
#SAMPLELENGTH:18.000;
#SELECTABLE:YES;
#BPMS:0.000=92.000;
#STOPS:;
#SCROLLS:0.000=1.000;
#TIMESIGNATURES:0.000=4=4;
#BGCHANGES:;
#KEYSOUNDS:;

//---------------dance-single - Geriatric Patrick----------------
#NOTES:
     dance-single:
     Geriatric Patrick:
     Hard:
     8:
     0.455,0.630,0.252,0.157,0.457:
0M00
0M00
0000
0000
,
000M
000M
0000
0000
,
0100
0000
0000
0000
0100
0000
0000
1000
0000
0001
0000
1000
0100
0010
0000
0000
,
0011
0000
0000
0000
0011
0000
0000
1000
0000
0001
0000
1000
0010
1000
0001
0100
,
0001
0000
0001
0000
0100
0000
0000
0001
0000
0010
0000
0001
0010
0001
0000
0000
,
1000
0000
1000
0000
1000
0000
0000
0010
0000
1000
0000
0010
0100
0010
1000
0001
,
0100
0000
0100
0000
0010
0000
0000
0001
0000
1000
0000
0001
0100
0010
0000
0000
,
0100
0000
0100
0000
0100
0000
0000
0010
0000
0010
0000
1000
0001
0010
0100
1000
,
0100
0100
0010
0000
0000
0000
0010
0000
,
0100
0000
1000
0100
0010
0000
0000
0000
0000
0000
0000
0000
0010
0100
0000
0000
,
1000
0001
0100
0000
0000
0000
0100
0000
,
1000
0000
0001
0100
0010
0000
0000
0000
0000
0000
0000
0000
0001
1000
0000
0000
,
0100
0010
1000
0000
0000
0000
1000
0000
,
0100
0000
0100
0010
0001
0000
0000
0000
0000
0000
0000
0000
0001
0100
0000
0000
,
0001
0001
1000
0000
0000
0000
1000
0000
,
0001
0000
0100
0010
1000
0000
0000
0000
0000
0000
1000
0001
0010
0100
0000
0000
,
1000
0000
1000
0000
0011
0000
0001
1000
0001
0000
0001
0000
0011
0000
0001
0000
,
1000
0000
0010
0000
0110
0000
0010
1000
0001
0000
1000
0000
0010
0100
1000
0000
,
0100
0000
0001
0000
1010
0000
1000
0001
0100
0000
0100
0000
1010
0000
1000
0000
,
0001
0000
0010
0000
1100
0000
1000
0100
0001
0000
0100
0000
0010
0100
0001
0000
,
0100
0000
1000
0000
0011
0000
0010
0100
1000
0000
0100
0000
0001
0100
0010
0000
,
0100
0000
0001
0000
1001
0000
0001
0100
0010
0000
0100
0000
0001
0100
1000
0000
,
0100
0000
0001
0000
0011
0000
0001
0100
0001
0000
0100
0000
1010
0000
0010
0000
,
0100
0000
0000
0000
0001
0000
0000
0000
1001
0000
0000
0000
0000
0000
0000
0000
1000
0000
0001
0010
0001
0000
0010
0000
0001
0000
1000
0000
0010
0000
0100
0000
,
1000
0000
0100
0000
0110
0000
0000
0100
0000
1000
0000
0100
0010
1000
0000
0000
,
0001
0000
0100
0000
0101
0000
0000
0010
0000
1000
0000
0010
1000
0001
0010
0100
,
1000
0000
1000
0000
0110
0000
0000
1000
0000
0001
0000
1000
0010
0100
0000
0000
,
1000
0000
1000
0000
0101
0000
0000
1000
0000
0010
0000
1000
0001
0010
0100
1000
,
0100
0000
1000
0000
1001
0000
0000
0100
0000
0100
0000
0001
1000
0010
1000
0001
,
0100
0000
0100
0000
1010
0000
0000
0001
0000
0001
0000
1000
0010
0100
0010
0000
,
1000
0000
0001
0000
1001
0000
0000
0010
0000
0010
0000
0100
0010
0100
0000
0000
,
1000
0000
0000
0000
1000
0000
0000
0000
0110
0000
0000
0000
0000
0000
1000
0000
0000
0000
0001
0010
0001
0000
1000
0000
0010
0000
1000
0000
0001
0000
0010
0000
,
0100
0100
1001
0000
0000
0000
1001
0000
,
0100
0000
0100
1000
0010
0000
0000
0000
0000
0000
0000
0000
0002
0010
0000
0000
,
1000
1003
0011
0000
0000
0000
0011
0000
,
1000
0000
0001
1000
0010
0000
0000
0000
0000
0000
0000
0000
0010
0100
1000
0000
,
0100
0000
0002
0000
0010
0000
0003
2000
3020
0230
0320
2030
3020
0000
0030
0000
,
0001
0000
0010
0000
0110
0000
0000
0000
0000
0000
0000
0000
0010
0100
0000
0000
,
1000
0010
1010
0000
0000
0000
1001
0000
,
0010
0000
0000
0000
0000
0000
0001
0000
0000
1000
0000
0000
0100
0000
0000
0000
0000
0000
0000
0000
0000
0000
0000
0000
0000
0000
0000
0000
0100
0000
1000
0000
0001
0000
1000
0000
0001
0000
0000
0100
0000
0000
0000
0000
0000
0000
0000
0000
,
2010
0000
3002
0000
0023
0000
0230
2000
0300
3200
2000
0300
3010
0000
0000
0000
,
0120
0000
2030
0000
3002
0020
0003
0032
0000
2003
0200
3000
0310
0100
0000
0000
,
1000
0000
0001
0000
0101
0000
0000
0010
1000
0000
0000
0000
0110
0000
0000
0000
,
1000
0000
1000
0001
0010
0000
0000
0001
0100
0000
0000
0000
0010
0100
1000
0000
,
0110
0000
0110
0000
100M
0000
000M
0010
0100
0000
0000
0000
1010
0000
0000
0000
,
0001
0000
0001
0100
0010
0000
0000
0100
0001
0000
0000
0000
0010
0100
0001
0000
,
1000
0000
1000
0000
0011
0000
0000
1000
0100
0000
0000
0000
0011
0000
0000
0000
,
1000
0000
0100
0010
0001
0000
0000
0001
0100
0000
0001
0010
0001
1000
0010
0000
,
0100
0000
0010
0000
1000
0000
0000
0100
0000
0000
0000
0000
1000
0000
0000
0000
,
0001
0000
0100
0000
0010
0000
0000
0100
0000
0000
0000
0000
0010
0100
0000
0000
,
1000
0000
0001
0000
0010
0000
0000
1000
0000
0000
0000
0000
0010
0000
0000
0000
,
0001
0000
0100
0000
0010
0000
0000
0001
0000
0000
0000
0000
0010
0000
0000
0001
,
2000
0000
0100
0000
3001
0000
0000
0100
0000
0000
0000
0000
0001
0000
0000
0000
,
1000
0000
1000
0100
0010
0000
0000
0100
0000
0000
0000
0000
0001
0000
0000
0000
,
1000
0000
0010
0000
0100
0000
0000
1000
0000
0000
0000
0000
0001
0000
0000
0000
,
0010
0000
0010
0100
0001
0000
0000
0010
0000
0000
0000
0000
0001
0000
0001
1000
,
00M0
0000
0000
0000
;

//---------------dance-single - Geriatric Patrick----------------
#NOTES:
     dance-single:
     Geriatric Patrick:
     Medium:
     6:
     0.316,0.504,0.055,0.259,0.204:
0000
0000
0000
0000
,
0000
0000
0000
0000
,
0000
0000
0000
0000
,
0000
0000
0000
0000
,
0001
0000
0100
0000
0010
0000
0100
0001
0000
0000
0001
0000
0000
0000
0000
0000
,
1000
0000
0010
0000
1000
0000
0001
0010
0000
0000
0000
0000
0000
0000
0000
0000
,
1000
0000
0100
0000
0010
0000
0100
1000
0000
0000
0000
0000
0000
0000
0000
0000
,
1000
0000
0001
0000
0010
0000
0001
1000
0000
0000
0000
0000
0000
0000
0000
0000
,
0000
0000
0010
0000
0100
0000
0010
0000
1000
0000
0010
0100
0000
0000
0000
0000
,
0000
0000
0000
0000
0001
0000
0100
0000
0010
0000
0100
0001
0000
0000
0000
0000
,
0000
0000
0000
0000
1000
0000
0100
0000
1000
0000
0001
0100
0000
0000
0000
0000
,
0000
0000
0000
0000
0100
0000
0001
0000
0010
0000
0001
1000
0000
0000
0000
0000
,
0000
0000
0000
0000
0010
0000
1000
0000
0001
0000
1000
0010
0000
0000
0000
0000
,
0000
0000
0000
0000
0010
0000
1000
0000
0001
0000
0010
0200
0000
0000
0000
0000
,
0300
0000
0000
0000
0000
0000
0000
0000
0000
0000
0000
0000
0000
0000
1000
0000
0010
0000
0000
0000
0010
0000
1000
0000
0000
0001
0000
0000
0000
0000
0000
0000
,
0000
0000
0000
0000
0000
0000
1000
0000
0001
0000
1000
0100
0000
0000
0000
0000
,
0000
0000
0010
0000
0010
0000
0000
0000
0001
0000
0010
0001
0000
0000
0000
0000
,
0000
0000
1000
0000
1000
0000
0000
0000
0010
0000
1000
0001
0000
0000
0000
0000
,
0000
0000
0000
0000
0010
0000
0000
0001
0010
0000
0000
0000
0110
0000
0000
0000
,
0000
0000
0000
0000
0001
0000
1000
0000
0001
0000
0010
0100
0000
0000
2000
0000
,
3020
0000
0230
0000
0302
0000
0103
0000
0010
0000
0100
0001
0000
0000
0020
0000
,
0230
0000
0320
0000
0032
0000
1003
0000
0010
0000
2000
0002
3000
0003
2000
0000
,
3020
0000
0230
0000
0310
0000
0010
0000
1000
0000
0001
0010
0000
0000
0000
0000
,
0001
0100
0010
0000
0000
0001
1000
0100
,
1100
0000
1000
0000
0001
0000
1000
0001
0000
0000
0000
0000
0000
0000
0000
0000
,
1000
0000
0100
0000
0010
0000
0100
1000
0000
0000
0000
0000
0000
0000
0000
0000
,
0010
0000
0100
0000
0010
0000
1000
0001
0000
0000
0000
0000
0000
0000
0000
0000
,
0010
0000
0100
0000
0010
0000
0001
1000
0000
0000
0000
0000
0000
0000
0000
0000
,
0100
0000
1000
0000
0001
0000
1000
0001
0000
0001
0000
0000
0000
0000
0000
0000
,
0100
0000
0001
0000
0010
0000
0001
0100
0000
0000
0000
0000
0000
0000
0000
0000
,
1000
0000
0010
0000
1000
0000
0001
0100
0000
0000
0000
0000
0000
0000
0000
0000
,
0010
0000
1000
0000
0010
0000
0100
0001
0000
0000
0000
0000
0000
0000
0000
0000
,
1000
0100
0010
0000
0000
0000
0010
0000
,
1000
0000
0001
0100
0001
0000
0000
0000
0000
0000
0000
0000
0001
0100
0000
0000
,
0010
1000
0001
0000
0000
0000
0001
0000
,
0100
0000
0001
1000
0001
0000
0000
0000
0000
0000
0000
0000
1000
0100
0000
0000
,
0010
0100
1000
0000
0000
0000
1100
0000
,
0001
0000
0100
0000
0010
0000
0000
0000
0000
0000
0000
0000
0010
0100
0000
0000
,
0001
0010
0100
0000
0000
0000
0110
0000
,
0001
0000
0001
1000
0001
0000
0000
0000
0000
0000
0000
0000
0001
0100
0000
0000
,
1020
0000
2030
0000
3002
0000
0003
2000
0000
0000
3200
0000
0300
0000
0000
0000
,
0120
0000
0230
0000
2300
0000
0000
3002
0000
0000
0203
0000
0300
0000
0000
0000
,
0001
0000
0010
0000
0001
0000
0000
1000
0000
0000
0000
0000
0001
0000
0000
0000
,
0100
0000
0100
0000
0100
0000
0000
0100
0000
0000
0000
0000
0001
1000
0000
0000
,
0100
0000
0000
0000
0000
0000
0000
0000
0100
0000
0000
0000
0000
0000
0000
0000
2002
0000
0000
0000
0000
0000
0000
3003
2002
0000
0000
0000
0000
0000
0000
0000
3003
0000
0000
0000
0000
0000
0000
0000
0000
0000
0000
0000
0000
0000
0000
0000
0000
0000
0000
0000
0000
0000
0000
0000
0002
0000
0000
0000
0000
0000
0000
0000
,
0023
0000
0032
0000
0203
0000
0000
0000
0300
0000
0002
2000
0003
0000
3200
0000
,
0320
0000
0230
0000
1300
0000
0000
0100
0000
0000
0000
0000
1000
0000
0000
0000
,
0001
0000
0100
0001
1000
0000
0000
0001
0000
0000
0000
0000
1000
0100
0000
0000
,
0100
0000
0100
0000
0010
0000
0000
0100
0000
0000
0000
0000
1000
0000
0000
0000
,
0001
0000
0100
0000
0010
0000
0000
0100
0000
0000
0000
0000
0010
0100
0000
0000
,
0001
0000
0001
0000
0010
0000
0000
0100
0000
0000
0000
0000
0010
0000
0000
0000
,
0100
0000
0100
0000
1000
0000
0000
0100
0000
0000
0000
0000
0010
0000
0000
0100
,
2000
0000
0000
0000
3001
0000
0000
1000
0000
0000
0000
0000
0001
0000
0000
0000
,
1000
0000
0100
1000
0001
0000
0000
0100
0000
0000
0000
0000
0001
0000
0000
0000
,
1000
0000
0100
0000
0010
0000
0000
1000
0000
0000
0000
0000
0010
0000
0000
0000
,
0001
0000
0100
0001
0010
0000
0000
0001
0000
0000
0000
0000
0010
0000
0001
1000
,
0000
0000
0000
0000
0000
0000
0000
00M0
;

//---------------dance-single - ----------------
#NOTES:
     dance-single:
     :
     Easy:
     4:
     0.254,0.381,0.191,0.436,0.000:
0000
0000
0000
0000
,
0000
0000
0000
0000
,
0000
0000
0000
0000
,
0000
0000
0000
0000
,
0220
0000
0000
0330
0220
0000
0000
0330
0000
0000
0000
0000
0000
0000
0000
0000
,
0022
0000
0000
0033
0022
0000
0000
0033
0000
0000
0000
0000
0000
0000
0000
0000
,
0202
0000
0000
0303
0202
0000
0000
0303
0000
0000
0000
0000
0000
0000
0000
0000
,
2200
0000
0000
3300
2200
0000
0000
3300
0000
0000
0000
0000
0000
0000
0000
0000
,
0002
1000
0003
1000
,
0020
1000
0030
1000
,
0200
0010
0300
0010
,
0200
1000
0300
1000
,
0002
0100
0003
0100
,
0020
1000
0030
1000
,
0200
0010
0300
0010
,
0000
0000
0010
0000
0000
0100
1000
0000
,
0001
0100
0001
0001
,
1000
0100
0010
0010
,
0100
1000
0000
1100
,
0001
0100
0000
0101
,
0010
0100
1000
1000
,
0010
0100
0001
0001
,
0010
0001
1000
1000
,
0000
0000
0001
0000
1000
0100
0010
0000
,
0220
0000
0000
0330
0220
0000
0000
0330
0100
0000
0000
0000
1000
0000
0000
0000
,
2002
0000
0000
3003
2002
0000
0000
3003
0001
0000
0000
0000
0100
0000
0000
0000
,
0202
0000
0000
0303
0202
0000
0000
0303
0001
0000
0000
0000
1000
0000
0000
0000
,
2200
0000
0000
3300
2200
0000
0000
3300
0001
0000
0000
0000
0100
0000
0000
0000
,
2020
0000
0000
3030
2020
0000
0000
3030
0100
0000
0000
0000
0001
0000
0000
0000
,
0022
0000
0000
0033
0022
0000
0000
0033
1000
0000
0000
0000
0010
0000
0000
0000
,
2002
0000
0000
3003
2002
0000
0000
3003
0100
0000
0000
0000
0010
0000
0000
0000
,
0202
0000
0000
0303
0202
0000
0000
0303
1000
0000
0000
0000
0100
0000
0000
0000
,
2000
0001
3000
0001
,
0200
0001
0300
0020
,
0100
1030
0000
1000
,
0002
1000
0003
1000
,
0200
0010
0300
0010
,
0200
1000
0300
1000
,
0002
0100
0003
0100
,
0000
0100
0000
1001
,
0100
0010
0100
0010
,
0001
0010
0001
0010
,
0100
0000
0100
0000
,
1000
0010
0100
0010
,
1000
0002
0003
1000
,
0100
0010
0000
0010
,
0100
1000
0000
1000
,
0001
0000
0100
0000
0000
0001
1000
0000
,
0100
1000
0000
1000
,
0010
0100
0000
0100
,
1000
0001
0000
0001
,
0010
0100
0000
0100
,
0012
1000
0003
1000
,
0010
0100
0000
0100
,
1000
0001
0000
0001
,
1000
0000
0100
0000
0000
0000
0100
1000
;
