#TITLE:Stadium Rave A;
#SUBTITLE:(Jellyfish Jam);
#ARTIST:Mark Governor;
#TITLETRANSLIT:;
#SUBTITLETRANSLIT:;
#ARTISTTRANSLIT:;
#GENRE:;
#CREDIT:;
#BANNER:Stadium Rave A-bn.png;
#BACKGROUND:Stadium Rave A-bg.png;
#LYRICSPATH:;
#CDTITLE:;
#MUSIC:Stadium Rave A.ogg;
#OFFSET:-0.200;
#SAMPLESTART:15.524;
#SAMPLELENGTH:14.220;
#SELECTABLE:YES;
#BPMS:0.000=125.000;
#STOPS:;
#BGCHANGES:0.000=Stadium Rave A.avi=1.000=0=0=0=StretchNoLoop====,
215.000=Jellyfish Jam-bg.png=1.000=0=0=0=StretchNoLoop====,
99999=-nosongbg-=1.000=0=0=0 // don't automatically add -songbackground-
;
#KEYSOUNDS:;

//---------------dance-single - nvwls300----------------
#NOTES:
     dance-single:
     nvwls300:
     Challenge:
     10:
     0.734,0.624,0.687,0.000,0.822:
0000
0000
0000
0000
,
0000
0000
0000
0000
,
0000
0000
1000
0001
1000
0001
0000
0000
1000
0001
1000
0001
0000
0000
0000
0000
,
0000
0000
1000
0001
1000
0001
0000
0000
1000
0001
1000
0001
0000
0000
0000
0000
,
0000
0000
1000
0100
1000
0001
0000
0000
1000
0100
1000
0001
0000
0001
1000
0001
,
0000
0000
1000
0100
1000
0001
0000
0000
1000
0100
1000
0001
0000
0001
0100
0001
,
0000
0000
1000
0100
0010
0001
0000
0000
1000
0100
0010
0001
0000
0001
0010
0001
,
0000
0000
1000
0010
0100
0001
0000
0000
1001
0000
0001
0000
0100
0000
0010
0000
,
1010
0000
0000
1010
0000
0100
0001
0000
0011
0000
0011
0000
0100
0000
1000
0000
,
1001
0000
0000
1001
0000
0100
0001
0000
1100
0000
1100
0000
0101
0000
0000
0000
,
0110
0000
0000
0110
0000
0001
0010
0000
0110
0000
0110
0000
1000
0000
0100
0000
,
0011
0000
0000
0011
0000
0001
1000
0000
1010
0000
1001
0000
0110
0000
0000
0000
,
1001
0000
0000
1001
0000
0100
1000
0000
1001
0000
1001
0000
0100
0000
1000
0000
,
1010
0000
0000
1010
0000
1000
0001
0000
0011
0000
1001
0000
0110
0000
0000
0000
,
0011
0000
0000
0011
0000
0001
0100
0000
1010
0000
1010
0000
0100
0000
0001
0000
,
0110
0000
0000
1001
0000
1000
0001
0000
0110
0000
0011
0000
1100
0000
0000
0000
,
0001
0000
0000
0001
0000
1000
0100
0000
0010
0000
0010
0000
11MM
0000
0000
0000
,
0001
0000
0000
0100
0000
0100
0001
0000
1000
0000
0001
0010
MM01
0010
0000
0000
,
1000
0000
0000
0001
0000
0001
0100
0000
1000
0000
1000
0000
M1M1
0000
0000
0000
,
1000
0000
0000
0010
0000
0010
0100
0000
0001
0000
0100
1000
01MM
1000
0000
0000
,
0001
0000
0000
0001
0000
1000
0100
0000
0010
0000
0010
0000
1MM1
0000
0000
0000
,
0001
0000
0000
0100
0000
0100
0001
0000
1000
0000
0001
0010
M10M
0010
0000
0000
,
1000
0000
0000
0001
0000
0001
0100
0000
1000
0000
1000
0000
M11M
0000
0000
0000
,
1000
0000
0000
0010
0000
0010
0100
0000
0001
0000
0001
0000
0100
0000
0010
0000
,
1010
0000
0000
0110
0000
0010
1000
0000
1001
0000
0011
0000
0100
0000
0010
0000
,
0011
0000
0000
1001
0000
0001
0010
0000
1100
0000
1100
0000
0011
0000
0000
0000
,
0110
0000
0000
0011
0000
0001
1000
0000
1010
0000
1001
0000
0100
0000
0001
0000
,
0110
0000
0000
0110
0000
0001
1000
0000
0011
0000
0011
0000
0101
0000
MMMM
0000
,
1000
0000
0100
0010
0000
0010
0001
0000
0100
0000
0001
1000
0000
1000
0010
0000
,
1000
0000
0100
0010
0000
0010
0001
0000
0100
0000
0001
1000
0000
0000
MMMM
0000
,
0001
0000
0100
0010
0000
0100
0001
0000
1000
0000
0100
0010
0000
0100
0010
0000
,
0001
0000
1000
0010
0000
1000
0001
0000
0010
0000
0100
0010
0000
0000
MMMM
0000
,
0000
0000
0001
0010
0001
0010
0000
0000
0100
0010
0100
0010
0000
0000
MMMM
0000
,
0000
0000
1000
0010
1000
0010
0000
0000
1000
0001
1000
0001
0000
0000
MMMM
0000
,
0000
0000
0100
0010
0100
0001
0000
0000
0001
0100
0010
1000
0000
0000
MMMM
0000
,
0000
0000
1000
0100
0010
0001
0000
0000
0110
0000
0000
0000
0000
1000
0100
0010
,
0001
0000
0010
0000
0001
0000
0000
0000
0000
0100
0000
0000
0000
0000
0000
0001
0000
0000
0000
0000
0000
0000
0000
0000
1000
0000
0000
0000
0000
0000
0010
0000
0000
0000
0000
0000
0010
0000
0000
0000
0000
0000
1000
0000
0000
0100
0000
0000
,
0010
0000
0000
0000
0000
0000
0100
0000
0000
0010
0000
0000
0000
0000
0000
0100
0000
0000
1000
0000
0000
0001
0000
0000
0100
0000
0000
0000
0000
0000
0010
0000
1000
0000
0010
0000
1000
0000
0000
0000
0000
0000
0001
0000
0000
0000
0000
0000
,
0010
0000
0001
1000
0100
0000
1000
0010
0000
1000
0001
1000
0100
0000
0001
0100
,
0010
0000
0000
0000
0000
0000
0100
0000
0000
0000
0000
0000
1000
0000
0000
0100
0000
0000
0010
0000
0000
0000
0000
0000
0001
0000
1000
0000
0001
0000
1000
0000
0000
0000
0000
0000
0001
0000
0000
0000
0000
0000
0100
0000
0000
0000
0000
0000
,
0000
0000
0000
0001
0000
0000
0100
0000
0000
0000
0000
0000
0001
0000
0000
1000
0000
0000
0100
0000
0000
1000
0000
0000
0001
0000
0000
0000
0000
0000
0001
0000
0010
0000
0001
0000
0010
0000
0000
0000
0000
0000
0100
0000
0000
0000
0000
0000
,
0010
0000
0000
0000
0000
0000
0100
0000
0000
1000
0000
0000
0000
0000
0000
0100
0000
0000
0010
0000
0000
0100
0000
0000
1000
0000
0001
0000
1000
0000
0001
0000
0000
0000
0000
0000
0100
0000
0000
0000
0000
0000
0001
0000
0000
0000
0000
0000
,
0010
0000
0100
0010
0000
0100
1000
0001
0010
0000
0001
0000
1000
0001
1000
0100
,
0010
0000
0000
0001
0000
0000
0100
0000
0000
0010
0000
0000
1000
0000
0000
0001
0010
0001
1000
0000
0000
0100
0000
0000
,
0001
0000
0000
0000
0000
0000
0001
0000
0000
0010
0000
0000
0000
0000
0000
0001
0000
0000
0000
0000
0000
0010
0000
0000
0000
0000
0000
0010
0000
0000
0001
0000
1000
0000
0001
0000
1000
0000
0000
0000
0000
0000
0001
0000
0000
0000
0000
0000
,
0100
0000
0001
0001
0010
0000
0001
0000
1000
0000
0001
0010
0000
1000
0100
0010
,
0001
0000
0000
0000
0000
0000
0001
0000
0000
0000
0000
0000
0100
0000
0000
0001
0000
0000
0010
0000
0001
0000
0010
0000
0000
0000
0000
0010
0000
0000
0100
0000
0000
0010
0000
0000
0000
0000
0000
0000
0000
0000
0001
0000
0000
0000
0000
0000
,
0100
0000
0000
0000
0000
0000
1000
0000
0000
0000
0000
0000
0100
0000
0010
0000
0100
0000
0010
0000
0000
0000
0000
0000
1000
0000
0000
0000
0000
0000
0100
0000
0000
0000
0000
0000
0001
0000
0000
0000
0000
0000
0100
0000
0000
0010
0000
0000
,
0000
0000
0100
1000
0010
0000
0100
0000
0001
0000
0100
0000
0010
0000
0000
0001
,
0000
1000
0000
0011
0000
0001
1000
0000
0010
0000
0001
0000
0100
0000
0000
0000
,
0100
0001
1000
0000
0010
0000
0001
0010
0100
0000
1000
0000
0001
0000
1000
0100
,
0010
0001
0010
0000
0100
0000
1000
0000
0110
0000
0000
0000
0000
0000
0000
0000
,
0011
0000
0000
1010
0000
0100
0010
0000
1010
0000
0101
0000
1000
0000
0100
0000
,
0101
0000
0000
1100
0000
0001
0100
0000
1010
0000
0110
0000
1001
0000
0000
0000
;

//---------------dance-single - nvwls300----------------
#NOTES:
     dance-single:
     nvwls300:
     Hard:
     9:
     0.515,0.468,0.135,0.000,0.513:
0000
0000
0000
0000
,
0000
0000
0000
0000
,
0000
0000
0001
1000
0001
1000
0000
0000
0001
1000
0001
1000
0000
0000
0000
0000
,
0000
0000
0001
1000
0001
1000
0000
0000
0001
1000
0001
1000
0000
0000
0000
0000
,
0000
0000
0001
0100
0001
0100
0000
0000
0001
0100
0001
0100
0000
0000
0000
0000
,
0000
0000
1000
0100
1000
0100
0000
0000
1000
0100
1000
0100
0000
0000
0000
0000
,
0000
0000
0010
0100
0010
0100
0000
0000
0010
0100
0010
0100
0000
0000
0000
0000
,
0000
0000
1000
0001
1000
0001
0000
0000
0011
0000
0000
0000
0000
0000
0000
0000
,
1000
0000
0000
0010
0000
0100
0001
0000
0010
0000
0010
0000
0100
0000
1000
0000
,
0001
0000
0000
1000
0000
0001
0100
0000
0010
0000
1000
0000
0010
0000
0000
0000
,
0100
0000
0000
0010
0000
0010
1000
0000
0001
0000
0001
0000
1000
0000
0100
0000
,
0010
0000
0000
0001
0000
0001
1000
0000
0010
0000
0100
0000
1000
0000
0000
0000
,
0001
0000
0000
0001
0000
1000
0100
0000
0010
0000
0010
0000
0100
0000
1000
0000
,
0010
0000
0000
0010
0000
0100
0001
0000
1000
0000
1000
0000
0100
0000
0000
0000
,
0010
0000
0000
0010
0000
0100
1000
0000
0001
0000
0001
0000
0100
0000
0010
0000
,
1000
0000
0000
1000
0000
0001
0010
0000
0100
0000
0100
0000
0001
0000
0000
0000
,
1000
0000
0000
0001
0000
0001
0100
0000
0010
0000
0010
0000
M00M
0000
0000
0000
,
0001
0000
0000
0100
0000
0100
0001
0000
1000
0000
0M00
0000
000M
0000
0000
0000
,
1000
0000
0000
0001
0000
0001
0100
0000
0010
0000
0010
0000
M00M
0000
0000
0000
,
0001
0000
0000
0010
0000
0010
0100
0000
0001
0000
M000
0000
000M
0000
0000
0000
,
0010
0000
0000
0001
0000
1000
0100
0000
0010
0000
0010
0000
MM00
0000
0000
0000
,
1000
0000
0000
0010
0000
0100
0001
0000
1000
0000
00M0
0000
0M00
0000
0000
0000
,
0100
0000
0000
0001
0000
1000
0001
0000
0100
0000
0010
0000
00MM
0000
0000
0000
,
0001
0000
0000
0010
0000
0010
0100
0000
1000
0000
0100
0000
0010
0000
0001
0000
,
1001
0000
0000
0010
0000
0010
1000
0000
0001
0000
0010
0000
0100
0000
0010
0000
,
0001
0000
0000
1000
0000
1000
0010
0000
0100
0000
0100
0000
0010
0000
0000
0000
,
0110
0000
0000
0001
0000
0001
1000
0000
0010
0000
0010
0000
0100
0000
0001
0000
,
0010
0000
0000
0010
0000
0001
1000
0000
0010
0000
0010
0000
0100
0000
M00M
0000
,
0000
0000
1010
0000
0000
0101
0000
0000
0000
0000
1010
0000
0000
0101
0000
0000
,
0000
0000
1010
0000
0000
0101
0000
0000
0000
0000
0110
0000
0000
0000
M0M0
0000
,
0000
0000
0001
0100
0000
0100
0001
0000
0000
0000
1000
0100
0000
0100
1000
0000
,
0000
0000
0001
0100
0000
0100
0001
0000
0000
0000
1000
0100
0000
0000
M00M
0000
,
0000
0000
0001
1000
0001
1000
0000
0000
0001
1000
0001
1000
0000
0000
0MM0
0000
,
0000
0000
0001
1000
0001
1000
0000
0000
0001
1000
0001
1000
0000
0000
M00M
0000
,
0000
0000
0001
0010
0001
0010
0000
0000
0100
1000
0100
1000
0000
0000
0MM0
0000
,
0000
0000
0100
0010
0100
0010
0000
0000
1001
0000
0000
0000
0000
0000
0000
0000
,
0001
0000
0000
0100
0000
0001
0000
0000
1000
0000
0010
0000
0010
0000
1000
0000
,
0001
0000
0000
0010
0000
0000
0100
0000
1000
0000
0010
0000
0010
0000
0100
0000
,
0010
0000
0000
0000
0001
0000
0000
1000
0000
0000
0001
0000
0100
0000
0001
0000
,
0010
0100
1000
1000
0010
1000
0100
0001
,
0000
0001
0000
0000
0001
0000
0100
0000
1000
0000
0010
0000
1000
0000
0100
0000
,
0010
0000
0000
0100
0000
0000
0100
0000
0001
0000
0100
0000
1000
0000
0100
0000
,
0010
0000
0000
0010
0000
0000
0100
0000
0001
0000
0100
0000
1000
0000
0001
0000
,
0100
0010
1000
0100
0010
0001
0001
0100
,
0001
0000
0000
0010
0000
0001
0000
0010
0000
0000
0001
0000
1000
0000
0010
0000
,
0100
0000
0001
0000
0010
0000
0001
0000
1000
0000
0000
0010
0000
0000
0100
0000
,
0001
0001
1000
0001
0000
1000
0000
0001
,
0100
0000
1000
0000
0100
0000
0010
0000
0100
0000
0001
0000
1000
0000
0000
0100
,
0000
0000
1000
0000
0010
0000
0100
0000
0001
0000
0100
0000
0010
0000
0000
0001
,
0000
1000
0000
0001
0000
0000
0100
0000
0010
0000
0100
0000
0001
0000
0000
0000
,
1000
0100
0010
0100
1000
0010
0100
0001
,
0100
0010
0100
0000
0001
0000
1000
0000
0100
0000
0000
0000
0000
0000
0000
0000
,
0110
0000
0000
0010
0000
0001
1000
0000
0010
0000
0010
0000
1000
0000
0100
0000
,
0110
0000
0000
0010
0000
0100
0010
0000
0001
0000
1000
0000
1001
0000
0000
0000
;

//---------------dance-single - nvwls300----------------
#NOTES:
     dance-single:
     nvwls300:
     Easy:
     5:
     0.292,0.260,0.213,0.000,0.000:
0000
0000
0000
0000
,
0000
0000
0000
0000
,
0000
0001
1000
0000
0001
0000
0000
0000
,
0000
0001
1000
0000
0001
0000
0000
0000
,
0000
0001
0100
0000
0001
0000
0000
0000
,
0000
0001
0100
0000
0001
0000
0000
0000
,
0000
0001
1000
0000
0100
0000
0000
0000
,
0000
1000
0001
0000
1001
0000
0000
0000
,
0010
1000
0100
0010
,
0001
1000
0011
0011
,
1000
0010
0100
0001
,
0010
0001
0011
1100
,
0001
0100
0010
1000
,
0001
0010
1100
1100
,
0001
0100
0010
1000
,
0100
0010
0110
1001
,
0010
0000
0000
0110
,
0001
0000
0000
0000
0000
1000
0100
0000
,
1100
0000
0000
0M11
,
0100
0000
0000
0000
0000
0001
10M0
0000
,
1001
0000
0000
M11M
,
1000
0000
0000
0000
0000
00M1
M100
0000
,
0101
0000
0000
1M1M
,
0001
0000
0000
0000
0000
0100
0010
1000
,
0001
0001
0010
0100
,
1000
1000
0011
1001
,
0010
0010
0100
0001
,
1000
0000
1000
0000
0101
0000
1001
0MM0
,
0000
0001
0000
0001
0000
0001
0000
0001
,
0000
0001
0000
0001
0000
0001
0000
M001
,
0000
0010
0000
0010
0000
0010
0000
0010
,
0000
0010
0000
0010
0000
0010
0000
0M10
,
0000
1000
0000
1000
0000
0001
0000
00M1
,
0000
1000
0000
1000
0000
0001
0000
00M1
,
0000
0100
0000
0010
0000
0100
0000
M01M
,
0000
0100
0000
0010
0100
0000
0000
0000
,
0001
0100
1000
0100
,
0010
0100
1000
0001
,
0100
0100
0010
1000
,
0100
0010
0100
0001
,
1000
0001
0100
0010
,
0010
0100
1000
0010
,
0100
0001
0100
0010
,
0100
1000
0100
0010
,
0010
0100
0010
0001
,
0010
0100
1000
1000
,
0010
1000
0100
0001
,
0100
1000
1000
0010
,
0100
1000
0100
0010
,
0001
0100
0001
0100
,
1000
0001
0010
0010
,
0100
1000
0001
0000
,
0010
0001
0100
0010
,
1000
1000
0101
1010
;
