#TITLE:Slats Slats Slats;
#SUBTITLE:5-Minute Stamina Challenge;
#ARTIST:Skrillex;
#TITLETRANSLIT:;
#SUBTITLETRANSLIT:;
#ARTISTTRANSLIT:;
#GENRE:;
#CREDIT:;
#BANNER:Slats Slats Slats 05-bn.png;
#BACKGROUND:Slats Slats Slats 05-bg.png;
#LYRICSPATH:;
#CDTITLE:;
#MUSIC:Slats Slats Slats 05.ogg.ogg;
#OFFSET:-4.320;
#SAMPLESTART:73.680;
#SAMPLELENGTH:15.000;
#SELECTABLE:YES;
#BPMS:0.000=128.000,28.750=170.667,29.750=128.000,136.000=64.000,140.000=128.000,204.000=64.000,208.000=128.000,272.000=64.000,276.000=128.000,340.000=64.000,344.000=128.000,408.000=64.000,412.000=128.000,476.000=64.000,480.000=128.000,544.000=64.000,548.000=128.000;
#STOPS:28.750=0.059
,29.250=0.059
,71.750=1.875
;
#SCROLLS:0.000=1.000;
#TIMESIGNATURES:0.000=4=4;
#BGCHANGES:;
#KEYSOUNDS:;

//---------------dance-single - Geriatric Patrick----------------
#NOTES:
     dance-single:
     Geriatric Patrick:
     Hard:
     9:
     0.672,0.551,0.025,0.019,1.000:
0000
0000
0000
0000
,
0000
0000
0000
0000
0000
0000
0000
0000
0000
0000
0000
0000
0001
1000
0001
1000
,
0002
1000
0000
1000
,
0000
0000
1000
0000
0003
0000
1000
0100
,
0010
0001
0001
0000
1001
0000
0010
0100
,
1000
0000
0010
0000
0100
0001
0100
0000
0020
0000
0000
0000
0130
0010
0100
0000
,
0100
0020
0000
0100
0000
0100
0000
0100
0030
0100
0010
0100
0010
0000
0100
0010
,
2000
0000
0000
0100
0000
0100
0000
0000
3001
0000
0100
0000
0010
0000
1000
0000
,
0100
0000
0010
0001
0010
0000
0100
0000
0100
0000
1000
0000
0010
0000
0100
0000
,
0010
0000
0000
1000
0001
0000
1000
0100
0000
1000
0100
0000
0010
0001
0000
0000
,
1001
0100
0010
0000
0010
0100
0001
0010
,
0100
1000
0010
0000
0010
0001
0100
0010
,
1000
0100
0010
0000
0010
0100
0001
0011
,
0100
1000
0010
0000
0010
0001
0100
1010
,
1000
0100
0010
0000
0110
0100
0001
0011
,
0100
1000
0010
0000
0011
0001
0100
1010
,
1000
0100
0010
0100
0001
0100
0010
0100
,
1000
0001
0100
0001
1000
0001
0010
0002
2000
0000
0000
0000
0000
0000
0000
3003
,
0100
0000
1000
0000
0001
0010
0000
0100
1000
0000
0100
0010
0000
0100
1000
0000
,
0001
0000
0010
0000
0001
1000
0000
1000
0000
0001
0010
0000
0010
0100
0000
0100
,
1000
0000
0100
1000
0000
0001
0100
0001
1000
0000
0001
0010
0000
0001
1000
0100
,
0000
1000
0000
0001
0000
0100
0000
0001
1000
0010
0000
1000
0010
0000
0100
0010
,
0000
1000
0001
0000
1000
0001
0000
0010
0100
0000
0010
0100
0000
1000
0010
0000
,
1000
0100
0000
0010
0000
0100
1000
0010
0000
1000
0001
0000
0001
0010
0000
0001
,
0100
0000
0100
0010
0000
0100
0000
0100
0001
0000
0100
0010
0000
0100
0001
0000
,
1000
0100
0000
0010
0000
0100
0000
0010
0100
1000
0000
0100
0010
0000
0100
1000
,
0000
0000
0001
0000
1000
0010
0000
0100
0001
0000
0100
0010
0000
0100
0001
0000
,
1000
0000
0010
0000
1000
0001
0000
0001
0000
1000
0010
1000
0000
0100
0000
0100
,
0001
0000
0100
0001
0000
1000
0100
1000
0001
0000
1000
0010
0000
1000
0001
0100
,
0000
0001
0000
1000
0000
0100
0000
1000
0001
0010
0000
0001
0010
0000
0100
0010
,
0000
0001
1000
0000
0001
1000
0000
0010
0100
0000
0010
0100
0000
0001
0010
0000
,
0001
0100
0000
0010
0000
0100
0001
0010
0000
0001
1000
0000
1000
0010
0000
1000
,
0100
0000
0100
0010
0000
0100
0000
0100
1000
0000
0100
0010
0000
0100
1000
0000
,
0001
0100
0000
0010
0000
0100
0000
0010
0100
0001
0000
0100
0010
0000
0100
0001
,
0000
0000
0000
0000
,
0100
0000
1000
0000
0001
0010
0000
0100
1000
0000
0100
0010
0000
0100
1000
0000
,
0001
0000
0010
0000
0001
1000
0000
1000
0000
0001
0010
0000
0010
0100
0000
0100
,
1000
0000
0100
1000
0000
0001
0100
0001
1000
0000
0001
0010
0000
0001
1000
0100
,
0000
1000
0000
0001
0000
0100
0000
0001
1000
0010
0000
1000
0010
0000
0100
0010
,
0000
1000
0001
0000
1000
0001
0000
0010
0100
0000
0010
0100
0000
1000
0010
0000
,
1000
0100
0000
0010
0000
0100
1000
0010
0000
1000
0001
0000
0001
0010
0000
0001
,
0100
0000
0100
0010
0000
0100
0000
0100
0001
0000
0100
0010
0000
0100
0001
0000
,
1000
0100
0000
0010
0000
0100
0000
0010
0100
1000
0000
0100
0010
0000
0100
1000
,
0000
0000
0001
0000
1000
0010
0000
0100
0001
0000
0100
0010
0000
0100
0001
0000
,
1000
0000
0010
0000
1000
0001
0000
0001
0000
1000
0010
1000
0000
0100
0000
0100
,
0001
0000
0100
0001
0000
1000
0100
1000
0001
0000
1000
0010
0000
1000
0001
0100
,
0000
0001
0000
1000
0000
0100
0000
1000
0001
0010
0000
0001
0010
0000
0100
0010
,
0000
0001
1000
0000
0001
1000
0000
0010
0100
0000
0010
0100
0000
0001
0010
0000
,
0001
0100
0000
0010
0000
0100
0001
0010
0000
0001
1000
0000
1000
0010
0000
1000
,
0100
0000
0100
0010
0000
0100
0000
0100
1000
0000
0100
0010
0000
0100
1000
0000
,
0001
0100
0000
0010
0000
0100
0000
0010
0100
0001
0000
0100
0010
0000
0100
0001
,
0000
0000
0000
0000
,
0100
0000
1000
0000
0001
0010
0000
0100
1000
0000
0100
0010
0000
0100
1000
0000
,
0001
0000
0010
0000
0001
1000
0000
1000
0000
0001
0010
0000
0010
0100
0000
0100
,
1000
0000
0100
1000
0000
0001
0100
0001
1000
0000
0001
0010
0000
0001
1000
0100
,
0000
1000
0000
0001
0000
0100
0000
0001
1000
0010
0000
1000
0010
0000
0100
0010
,
0000
1000
0001
0000
1000
0001
0000
0010
0100
0000
0010
0100
0000
1000
0010
0000
,
1000
0100
0000
0010
0000
0100
1000
0010
0000
1000
0001
0000
0001
0010
0000
0001
,
0100
0000
0100
0010
0000
0100
0000
0100
0001
0000
0100
0010
0000
0100
0001
0000
,
1000
0100
0000
0010
0000
0100
0000
0010
0100
1000
0000
0100
0010
0000
0100
1000
,
0000
0000
0001
0000
1000
0010
0000
0100
0001
0000
0100
0010
0000
0100
0001
0000
,
1000
0000
0010
0000
1000
0001
0000
0001
0000
1000
0010
1000
0000
0100
0000
0100
,
0001
0000
0100
0001
0000
1000
0100
1000
0001
0000
1000
0010
0000
1000
0001
0100
,
0000
0001
0000
1000
0000
0100
0000
1000
0001
0010
0000
0001
0010
0000
0100
0010
,
0000
0001
1000
0000
0001
1000
0000
0010
0100
0000
0010
0100
0000
0001
0010
0000
,
0001
0100
0000
0010
0000
0100
0001
0010
0000
0001
1000
0000
1000
0010
0000
1000
,
0100
0000
0100
0010
0000
0100
0000
0100
1000
0000
0100
0010
0000
0100
1000
0000
,
0001
0100
0000
0010
0000
0100
0000
0010
0100
0001
0000
0100
0010
0000
0100
0001
,
0000
0000
0000
0000
,
0100
0000
1000
0000
0001
0010
0000
0100
1000
0000
0100
0010
0000
0100
1000
0000
,
0001
0000
0010
0000
0001
1000
0000
1000
0000
0001
0010
0000
0010
0100
0000
0100
,
1000
0000
0100
1000
0000
0001
0100
0001
1000
0000
0001
0010
0000
0001
1000
0100
,
0000
1000
0000
0001
0000
0100
0000
0001
1000
0010
0000
1000
0010
0000
0100
0010
,
0000
1000
0001
0000
1000
0001
0000
0010
0100
0000
0010
0100
0000
1000
0010
0000
,
1000
0100
0000
0010
0000
0100
1000
0010
0000
1000
0001
0000
0001
0010
0000
0001
,
0100
0000
0100
0010
0000
0100
0000
0100
0001
0000
0100
0010
0000
0100
0001
0000
,
1000
0100
0000
0010
0000
0100
0000
0010
0100
1000
0000
0100
0010
0000
0100
1000
,
0000
0000
0001
0000
1000
0010
0000
0100
0001
0000
0100
0010
0000
0100
0001
0000
,
1000
0000
0010
0000
1000
0001
0000
0001
0000
1000
0010
1000
0000
0100
0000
0100
,
0001
0000
0100
0001
0000
1000
0100
1000
0001
0000
1000
0010
0000
1000
0001
0100
,
0000
0001
0000
1000
0000
0100
0000
1000
0001
0010
0000
0001
0010
0000
0100
0010
,
0000
0001
1000
0000
0001
1000
0000
0010
0100
0000
0010
0100
0000
0001
0010
0000
,
0001
0100
0000
0010
0000
0100
0001
0010
0000
0001
1000
0000
1000
0010
0000
1000
,
0100
0000
0100
0010
0000
0100
0000
0100
1000
0000
0100
0010
0000
0100
1000
0000
,
0001
0100
0000
0010
0000
0100
0000
0010
0100
0001
0000
0100
0010
0000
0100
0001
,
0000
0000
0000
0000
,
0100
0000
1000
0000
0001
0010
0000
0100
1000
0000
0100
0010
0000
0100
1000
0000
,
0001
0000
0010
0000
0001
1000
0000
1000
0000
0001
0010
0000
0010
0100
0000
0100
,
1000
0000
0100
1000
0000
0001
0100
0001
1000
0000
0001
0010
0000
0001
1000
0100
,
0000
1000
0000
0001
0000
0100
0000
0001
1000
0010
0000
1000
0010
0000
0100
0010
,
0000
1000
0001
0000
1000
0001
0000
0010
0100
0000
0010
0100
0000
1000
0010
0000
,
1000
0100
0000
0010
0000
0100
1000
0010
0000
1000
0001
0000
0001
0010
0000
0001
,
0100
0000
0100
0010
0000
0100
0000
0100
0001
0000
0100
0010
0000
0100
0001
0000
,
1000
0100
0000
0010
0000
0100
0000
0010
0100
1000
0000
0100
0010
0000
0100
1000
,
0000
0000
0001
0000
1000
0010
0000
0100
0001
0000
0100
0010
0000
0100
0001
0000
,
1000
0000
0010
0000
1000
0001
0000
0001
0000
1000
0010
1000
0000
0100
0000
0100
,
0001
0000
0100
0001
0000
1000
0100
1000
0001
0000
1000
0010
0000
1000
0001
0100
,
0000
0001
0000
1000
0000
0100
0000
1000
0001
0010
0000
0001
0010
0000
0100
0010
,
0000
0001
1000
0000
0001
1000
0000
0010
0100
0000
0010
0100
0000
0001
0010
0000
,
0001
0100
0000
0010
0000
0100
0001
0010
0000
0001
1000
0000
1000
0010
0000
1000
,
0100
0000
0100
0010
0000
0100
0000
0100
1000
0000
0100
0010
0000
0100
1000
0000
,
0001
0100
0000
0010
0000
0100
0000
0010
0100
0001
0000
0100
0010
0000
0100
0001
,
0000
0000
0000
0000
,
0100
0000
1000
0000
0001
0010
0000
0100
1000
0000
0100
0010
0000
0100
1000
0000
,
0001
0000
0010
0000
0001
1000
0000
1000
0000
0001
0010
0000
0010
0100
0000
0100
,
1000
0000
0100
1000
0000
0001
0100
0001
1000
0000
0001
0010
0000
0001
1000
0100
,
0000
1000
0000
0001
0000
0100
0000
0001
1000
0010
0000
1000
0010
0000
0100
0010
,
0000
1000
0001
0000
1000
0001
0000
0010
0100
0000
0010
0100
0000
1000
0010
0000
,
1000
0100
0000
0010
0000
0100
1000
0010
0000
1000
0001
0000
0001
0010
0000
0001
,
0100
0000
0100
0010
0000
0100
0000
0100
0001
0000
0100
0010
0000
0100
0001
0000
,
1000
0100
0000
0010
0000
0100
0000
0010
0100
1000
0000
0100
0010
0000
0100
1000
,
0000
0000
0001
0000
1000
0010
0000
0100
0001
0000
0100
0010
0000
0100
0001
0000
,
1000
0000
0010
0000
1000
0001
0000
0001
0000
1000
0010
1000
0000
0100
0000
0100
,
0001
0000
0100
0001
0000
1000
0100
1000
0001
0000
1000
0010
0000
1000
0001
0100
,
0000
0001
0000
1000
0000
0100
0000
1000
0001
0010
0000
0001
0010
0000
0100
0010
,
0000
0001
1000
0000
0001
1000
0000
0010
0100
0000
0010
0100
0000
0001
0010
0000
,
0001
0100
0000
0010
0000
0100
0001
0010
0000
0001
1000
0000
1000
0010
0000
1000
,
0100
0000
0100
0010
0000
0100
0000
0100
1000
0000
0100
0010
0000
0100
1000
0000
,
0001
0100
0000
0010
0000
0100
0000
0010
0100
0001
0000
0100
0010
0000
0100
0001
,
0000
0000
0000
0000
,
0100
0000
1000
0000
0001
0010
0000
0100
1000
0000
0100
0010
0000
0100
1000
0000
,
0001
0000
0010
0000
0001
1000
0000
1000
0000
0001
0010
0000
0010
0100
0000
0100
,
1000
0000
0100
1000
0000
0001
0100
0001
1000
0000
0001
0010
0000
0001
1000
0100
,
0000
1000
0000
0001
0000
0100
0000
0001
1000
0010
0000
1000
0010
0000
0100
0010
,
0000
1000
0001
0000
1000
0001
0000
0010
0100
0000
0010
0100
0000
1000
0010
0000
,
1000
0100
0000
0010
0000
0100
1000
0010
0000
1000
0001
0000
0001
0010
0000
0001
,
0100
0000
0100
0010
0000
0100
0000
0100
0001
0000
0100
0010
0000
0100
0001
0000
,
1000
0100
0000
0010
0000
0100
0000
0010
0100
1000
0000
0100
0010
0000
0100
1000
,
0000
0000
0001
0000
1000
0010
0000
0100
0001
0000
0100
0010
0000
0100
0001
0000
,
1000
0000
0010
0000
1000
0001
0000
0001
0000
1000
0010
1000
0000
0100
0000
0100
,
0001
0000
0100
0001
0000
1000
0100
1000
0001
0000
1000
0010
0000
1000
0001
0100
,
0000
0001
0000
1000
0000
0100
0000
1000
0001
0010
0000
0001
0010
0000
0100
0010
,
0000
0001
1000
0000
0001
1000
0000
0010
0100
0000
0010
0100
0000
0001
0010
0000
,
0001
0100
0000
0010
0000
0100
0001
0010
0000
0001
1000
0000
1000
0010
0000
1000
,
0100
0000
0100
0010
0000
0100
0000
0100
1000
0000
0100
0010
0000
0100
1000
0000
,
0001
0100
0000
0010
0000
0100
0000
0010
0100
0001
0000
0100
0010
0000
0100
0001
,
0000
0000
0000
0000
,
0100
0000
1000
0000
0001
0010
0000
0100
1000
0000
0100
0010
0000
0100
1000
0000
,
0001
0000
0010
0000
0001
1000
0000
1000
0000
0001
0010
0000
0010
0100
0000
0100
,
1000
0000
0100
1000
0000
0001
0100
0001
1000
0000
0001
0010
0000
0001
1000
0100
,
0000
1000
0000
0001
0000
0100
0000
0001
1000
0010
0000
1000
0010
0000
0100
0010
,
0000
1000
0001
0000
1000
0001
0000
0010
0100
0000
0010
0100
0000
1000
0010
0000
,
1000
0100
0000
0010
0000
0100
1000
0010
0000
1000
0001
0000
0001
0010
0000
0001
,
0100
0000
0100
0010
0000
0100
0000
0100
0001
0000
0100
0010
0000
0100
0001
0000
,
1000
0100
0000
0010
0000
0100
0000
0010
0100
1000
0000
0100
0010
0000
0100
1000
,
0000
0000
0001
0000
1000
0010
0000
0100
0001
0000
0100
0010
0000
0100
0001
0000
,
1000
0000
0010
0000
1000
0001
0000
0001
0000
1000
0010
1000
0000
0100
0000
0100
,
0001
0000
0100
0001
0000
1000
0100
1000
0001
0000
1000
0010
0000
1000
0001
0100
,
0000
0001
0000
1000
0000
0100
0000
1000
0001
0010
0000
0001
0010
0000
0100
0010
,
0000
0001
1000
0000
0001
1000
0000
0010
0100
0000
0010
0100
0000
0001
0010
0000
,
0001
0100
0000
0010
0000
0100
0001
0010
0000
0001
1000
0000
1000
0010
0000
1000
,
0100
0000
0100
0010
0000
0100
0000
0100
1000
0000
0100
0010
0000
0100
1000
0000
,
0001
0100
0000
0010
0000
0100
0000
0010
0100
0001
0000
0100
0010
0000
0100
0001
,
0100
0M10
0100
0M10
,
0100
0M10
0100
0M10
,
0100
0M10
0100
0M10
,
0100
0M10
0100
0M10
,
0100
0M10
0100
0M10
,
0100
0M10
0100
0000
,
M10M
0000
0000
0000
;

//---------------dance-single - Geriatric Patrick----------------
#NOTES:
     dance-single:
     Geriatric Patrick:
     Challenge:
     11:
     0.984,0.801,0.060,0.025,1.000:
0000
0000
0000
0000
,
0000
0000
0000
0000
0000
0000
0000
0000
0000
0000
0000
0000
0001
1000
0001
0001
,
2000
0001
0000
0001
,
0000
0000
0001
0000
3000
0000
0001
0100
,
0010
1000
1000
0000
1001
0000
0010
0100
,
1000
0000
0010
0000
0100
0001
0100
0000
0020
0000
0000
0000
0130
0020
0100
0000
,
0130
0020
0000
0100
0000
0100
0000
0100
0000
0130
0010
0100
0020
0000
0130
0010
,
2000
0000
0000
0100
0000
0100
0000
0000
3001
0000
0100
0000
0010
0000
1000
0000
,
0100
0000
0010
0001
0010
0000
0100
0000
0100
0000
1000
0000
0010
0000
0100
0000
,
0001
0000
0000
0010
0100
0000
0001
1000
0000
0100
0001
0000
0010
1000
0000
0000
,
1001
0100
0010
0000
0010
0100
0001
0010
,
0100
1000
0010
0000
0010
0001
0100
0010
,
1000
0100
0010
0000
0010
0100
0001
0011
,
0100
1000
0010
0000
0010
0001
0100
1010
,
1000
0100
0010
0000
0110
0100
0001
0011
,
0100
1000
0010
0000
0011
0001
0100
1010
,
1000
0100
0010
0100
0001
0100
0010
0100
,
1000
0001
0100
0001
1000
0001
0010
0002
2000
0000
0000
0000
0000
0000
0000
3003
,
0001
0100
0010
1000
0001
0010
0001
1000
0010
1000
0001
0010
0100
1000
0010
0100
,
0001
0010
0100
1000
0010
0100
0001
1000
0100
0010
0001
0010
0100
1000
0100
0010
,
0001
0100
0010
1000
0001
0010
0100
0010
0001
1000
0010
0100
0001
1000
0100
0010
,
0001
1000
0010
0100
0001
1000
0010
0100
0001
0010
0100
1000
0010
0100
0010
1000
,
0100
0010
0001
0010
0100
1000
0100
0010
0001
0010
0100
1000
0010
0100
0001
1000
,
0100
0010
0000
0100
0000
0100
0010
0001
1000
0010
0100
0001
0010
0100
1000
0001
,
1000
0100
0010
0001
0100
0010
1000
0001
0010
0100
1000
0010
0100
0001
0010
0100
,
1000
0001
1000
0010
0100
0001
0100
0010
1000
0100
0010
0001
0010
0100
1000
0001
,
1000
0100
0010
0001
1000
0010
1000
0001
0010
0001
1000
0010
0100
0001
0010
0100
,
1000
0010
0100
0001
0010
0100
1000
0001
0100
0010
1000
0010
0100
0001
0100
0010
,
1000
0100
0010
0001
1000
0010
0100
0010
1000
0001
0010
0100
1000
0001
0100
0010
,
1000
0001
0010
0100
1000
0001
0010
0100
1000
0010
0100
0001
0010
0100
0010
0001
,
0100
0010
1000
0010
0100
0001
0100
0010
1000
0010
0100
0001
0010
0100
1000
0001
,
0100
0010
0000
0100
0000
0100
0010
1000
0001
0010
0100
1000
0010
0100
0001
1000
,
0001
0100
0010
1000
0100
0010
0001
1000
0010
0100
0001
0010
0100
1000
0010
0100
,
0001
1000
0001
0010
0100
1000
0100
0010
0001
0100
0010
1000
0010
0100
0001
0010
,
0000
0000
0000
0000
,
0001
0100
0010
1000
0001
0010
0001
1000
0010
1000
0001
0010
0100
1000
0010
0100
,
0001
0010
0100
1000
0010
0100
0001
1000
0100
0010
0001
0010
0100
1000
0100
0010
,
0001
0100
0010
1000
0001
0010
0100
0010
0001
1000
0010
0100
0001
1000
0100
0010
,
0001
1000
0010
0100
0001
1000
0010
0100
0001
0010
0100
1000
0010
0100
0010
1000
,
0100
0010
0001
0010
0100
1000
0100
0010
0001
0010
0100
1000
0010
0100
0001
1000
,
0100
0010
0000
0100
0000
0100
0010
0001
1000
0010
0100
0001
0010
0100
1000
0001
,
1000
0100
0010
0001
0100
0010
1000
0001
0010
0100
1000
0010
0100
0001
0010
0100
,
1000
0001
1000
0010
0100
0001
0100
0010
1000
0100
0010
0001
0010
0100
1000
0001
,
1000
0100
0010
0001
1000
0010
1000
0001
0010
0001
1000
0010
0100
0001
0010
0100
,
1000
0010
0100
0001
0010
0100
1000
0001
0100
0010
1000
0010
0100
0001
0100
0010
,
1000
0100
0010
0001
1000
0010
0100
0010
1000
0001
0010
0100
1000
0001
0100
0010
,
1000
0001
0010
0100
1000
0001
0010
0100
1000
0010
0100
0001
0010
0100
0010
0001
,
0100
0010
1000
0010
0100
0001
0100
0010
1000
0010
0100
0001
0010
0100
1000
0001
,
0100
0010
0000
0100
0000
0100
0010
1000
0001
0010
0100
1000
0010
0100
0001
1000
,
0001
0100
0010
1000
0100
0010
0001
1000
0010
0100
0001
0010
0100
1000
0010
0100
,
0001
1000
0001
0010
0100
1000
0100
0010
0001
0100
0010
1000
0010
0100
0001
0010
,
0000
0000
0000
0000
,
0001
0100
0010
1000
0001
0010
0001
1000
0010
1000
0001
0010
0100
1000
0010
0100
,
0001
0010
0100
1000
0010
0100
0001
1000
0100
0010
0001
0010
0100
1000
0100
0010
,
0001
0100
0010
1000
0001
0010
0100
0010
0001
1000
0010
0100
0001
1000
0100
0010
,
0001
1000
0010
0100
0001
1000
0010
0100
0001
0010
0100
1000
0010
0100
0010
1000
,
0100
0010
0001
0010
0100
1000
0100
0010
0001
0010
0100
1000
0010
0100
0001
1000
,
0100
0010
0000
0100
0000
0100
0010
0001
1000
0010
0100
0001
0010
0100
1000
0001
,
1000
0100
0010
0001
0100
0010
1000
0001
0010
0100
1000
0010
0100
0001
0010
0100
,
1000
0001
1000
0010
0100
0001
0100
0010
1000
0100
0010
0001
0010
0100
1000
0001
,
1000
0100
0010
0001
1000
0010
1000
0001
0010
0001
1000
0010
0100
0001
0010
0100
,
1000
0010
0100
0001
0010
0100
1000
0001
0100
0010
1000
0010
0100
0001
0100
0010
,
1000
0100
0010
0001
1000
0010
0100
0010
1000
0001
0010
0100
1000
0001
0100
0010
,
1000
0001
0010
0100
1000
0001
0010
0100
1000
0010
0100
0001
0010
0100
0010
0001
,
0100
0010
1000
0010
0100
0001
0100
0010
1000
0010
0100
0001
0010
0100
1000
0001
,
0100
0010
0000
0100
0000
0100
0010
1000
0001
0010
0100
1000
0010
0100
0001
1000
,
0001
0100
0010
1000
0100
0010
0001
1000
0010
0100
0001
0010
0100
1000
0010
0100
,
0001
1000
0001
0010
0100
1000
0100
0010
0001
0100
0010
1000
0010
0100
0001
0010
,
0000
0000
0000
0000
,
0001
0100
0010
1000
0001
0010
0001
1000
0010
1000
0001
0010
0100
1000
0010
0100
,
0001
0010
0100
1000
0010
0100
0001
1000
0100
0010
0001
0010
0100
1000
0100
0010
,
0001
0100
0010
1000
0001
0010
0100
0010
0001
1000
0010
0100
0001
1000
0100
0010
,
0001
1000
0010
0100
0001
1000
0010
0100
0001
0010
0100
1000
0010
0100
0010
1000
,
0100
0010
0001
0010
0100
1000
0100
0010
0001
0010
0100
1000
0010
0100
0001
1000
,
0100
0010
0000
0100
0000
0100
0010
0001
1000
0010
0100
0001
0010
0100
1000
0001
,
1000
0100
0010
0001
0100
0010
1000
0001
0010
0100
1000
0010
0100
0001
0010
0100
,
1000
0001
1000
0010
0100
0001
0100
0010
1000
0100
0010
0001
0010
0100
1000
0001
,
1000
0100
0010
0001
1000
0010
1000
0001
0010
0001
1000
0010
0100
0001
0010
0100
,
1000
0010
0100
0001
0010
0100
1000
0001
0100
0010
1000
0010
0100
0001
0100
0010
,
1000
0100
0010
0001
1000
0010
0100
0010
1000
0001
0010
0100
1000
0001
0100
0010
,
1000
0001
0010
0100
1000
0001
0010
0100
1000
0010
0100
0001
0010
0100
0010
0001
,
0100
0010
1000
0010
0100
0001
0100
0010
1000
0010
0100
0001
0010
0100
1000
0001
,
0100
0010
0000
0100
0000
0100
0010
1000
0001
0010
0100
1000
0010
0100
0001
1000
,
0001
0100
0010
1000
0100
0010
0001
1000
0010
0100
0001
0010
0100
1000
0010
0100
,
0001
1000
0001
0010
0100
1000
0100
0010
0001
0100
0010
1000
0010
0100
0001
0010
,
0000
0000
0000
0000
,
0001
0100
0010
1000
0001
0010
0001
1000
0010
1000
0001
0010
0100
1000
0010
0100
,
0001
0010
0100
1000
0010
0100
0001
1000
0100
0010
0001
0010
0100
1000
0100
0010
,
0001
0100
0010
1000
0001
0010
0100
0010
0001
1000
0010
0100
0001
1000
0100
0010
,
0001
1000
0010
0100
0001
1000
0010
0100
0001
0010
0100
1000
0010
0100
0010
1000
,
0100
0010
0001
0010
0100
1000
0100
0010
0001
0010
0100
1000
0010
0100
0001
1000
,
0100
0010
0000
0100
0000
0100
0010
0001
1000
0010
0100
0001
0010
0100
1000
0001
,
1000
0100
0010
0001
0100
0010
1000
0001
0010
0100
1000
0010
0100
0001
0010
0100
,
1000
0001
1000
0010
0100
0001
0100
0010
1000
0100
0010
0001
0010
0100
1000
0001
,
1000
0100
0010
0001
1000
0010
1000
0001
0010
0001
1000
0010
0100
0001
0010
0100
,
1000
0010
0100
0001
0010
0100
1000
0001
0100
0010
1000
0010
0100
0001
0100
0010
,
1000
0100
0010
0001
1000
0010
0100
0010
1000
0001
0010
0100
1000
0001
0100
0010
,
1000
0001
0010
0100
1000
0001
0010
0100
1000
0010
0100
0001
0010
0100
0010
0001
,
0100
0010
1000
0010
0100
0001
0100
0010
1000
0010
0100
0001
0010
0100
1000
0001
,
0100
0010
0000
0100
0000
0100
0010
1000
0001
0010
0100
1000
0010
0100
0001
1000
,
0001
0100
0010
1000
0100
0010
0001
1000
0010
0100
0001
0010
0100
1000
0010
0100
,
0001
1000
0001
0010
0100
1000
0100
0010
0001
0100
0010
1000
0010
0100
0001
0010
,
0000
0000
0000
0000
,
0001
0100
0010
1000
0001
0010
0001
1000
0010
1000
0001
0010
0100
1000
0010
0100
,
0001
0010
0100
1000
0010
0100
0001
1000
0100
0010
0001
0010
0100
1000
0100
0010
,
0001
0100
0010
1000
0001
0010
0100
0010
0001
1000
0010
0100
0001
1000
0100
0010
,
0001
1000
0010
0100
0001
1000
0010
0100
0001
0010
0100
1000
0010
0100
0010
1000
,
0100
0010
0001
0010
0100
1000
0100
0010
0001
0010
0100
1000
0010
0100
0001
1000
,
0100
0010
0000
0100
0000
0100
0010
0001
1000
0010
0100
0001
0010
0100
1000
0001
,
1000
0100
0010
0001
0100
0010
1000
0001
0010
0100
1000
0010
0100
0001
0010
0100
,
1000
0001
1000
0010
0100
0001
0100
0010
1000
0100
0010
0001
0010
0100
1000
0001
,
1000
0100
0010
0001
1000
0010
1000
0001
0010
0001
1000
0010
0100
0001
0010
0100
,
1000
0010
0100
0001
0010
0100
1000
0001
0100
0010
1000
0010
0100
0001
0100
0010
,
1000
0100
0010
0001
1000
0010
0100
0010
1000
0001
0010
0100
1000
0001
0100
0010
,
1000
0001
0010
0100
1000
0001
0010
0100
1000
0010
0100
0001
0010
0100
0010
0001
,
0100
0010
1000
0010
0100
0001
0100
0010
1000
0010
0100
0001
0010
0100
1000
0001
,
0100
0010
0000
0100
0000
0100
0010
1000
0001
0010
0100
1000
0010
0100
0001
1000
,
0001
0100
0010
1000
0100
0010
0001
1000
0010
0100
0001
0010
0100
1000
0010
0100
,
0001
1000
0001
0010
0100
1000
0100
0010
0001
0100
0010
1000
0010
0100
0001
0010
,
0000
0000
0000
0000
,
0001
0100
0010
1000
0001
0010
0001
1000
0010
1000
0001
0010
0100
1000
0010
0100
,
0001
0010
0100
1000
0010
0100
0001
1000
0100
0010
0001
0010
0100
1000
0100
0010
,
0001
0100
0010
1000
0001
0010
0100
0010
0001
1000
0010
0100
0001
1000
0100
0010
,
0001
1000
0010
0100
0001
1000
0010
0100
0001
0010
0100
1000
0010
0100
0010
1000
,
0100
0010
0001
0010
0100
1000
0100
0010
0001
0010
0100
1000
0010
0100
0001
1000
,
0100
0010
0000
0100
0000
0100
0010
0001
1000
0010
0100
0001
0010
0100
1000
0001
,
1000
0100
0010
0001
0100
0010
1000
0001
0010
0100
1000
0010
0100
0001
0010
0100
,
1000
0001
1000
0010
0100
0001
0100
0010
1000
0100
0010
0001
0010
0100
1000
0001
,
1000
0100
0010
0001
1000
0010
1000
0001
0010
0001
1000
0010
0100
0001
0010
0100
,
1000
0010
0100
0001
0010
0100
1000
0001
0100
0010
1000
0010
0100
0001
0100
0010
,
1000
0100
0010
0001
1000
0010
0100
0010
1000
0001
0010
0100
1000
0001
0100
0010
,
1000
0001
0010
0100
1000
0001
0010
0100
1000
0010
0100
0001
0010
0100
0010
0001
,
0100
0010
1000
0010
0100
0001
0100
0010
1000
0010
0100
0001
0010
0100
1000
0001
,
0100
0010
0000
0100
0000
0100
0010
1000
0001
0010
0100
1000
0010
0100
0001
1000
,
0001
0100
0010
1000
0100
0010
0001
1000
0010
0100
0001
0010
0100
1000
0010
0100
,
0001
1000
0001
0010
0100
1000
0100
0010
0001
0100
0010
1000
0010
0100
0001
0010
,
0000
0000
0000
0000
,
0001
0100
0010
1000
0001
0010
0001
1000
0010
1000
0001
0010
0100
1000
0010
0100
,
0001
0010
0100
1000
0010
0100
0001
1000
0100
0010
0001
0010
0100
1000
0100
0010
,
0001
0100
0010
1000
0001
0010
0100
0010
0001
1000
0010
0100
0001
1000
0100
0010
,
0001
1000
0010
0100
0001
1000
0010
0100
0001
0010
0100
1000
0010
0100
0010
1000
,
0100
0010
0001
0010
0100
1000
0100
0010
0001
0010
0100
1000
0010
0100
0001
1000
,
0100
0010
0000
0100
0000
0100
0010
0001
1000
0010
0100
0001
0010
0100
1000
0001
,
1000
0100
0010
0001
0100
0010
1000
0001
0010
0100
1000
0010
0100
0001
0010
0100
,
1000
0001
1000
0010
0100
0001
0100
0010
1000
0100
0010
0001
0010
0100
1000
0001
,
1000
0100
0010
0001
1000
0010
1000
0001
0010
0001
1000
0010
0100
0001
0010
0100
,
1000
0010
0100
0001
0010
0100
1000
0001
0100
0010
1000
0010
0100
0001
0100
0010
,
1000
0100
0010
0001
1000
0010
0100
0010
1000
0001
0010
0100
1000
0001
0100
0010
,
1000
0001
0010
0100
1000
0001
0010
0100
1000
0010
0100
0001
0010
0100
0010
0001
,
0100
0010
1000
0010
0100
0001
0100
0010
1000
0010
0100
0001
0010
0100
1000
0001
,
0100
0010
0000
0100
0000
0100
0010
1000
0001
0010
0100
1000
0010
0100
0001
1000
,
0001
0100
0010
1000
0100
0010
0001
1000
0010
0100
0001
0010
0100
1000
0010
0100
,
0001
1000
0001
0010
0100
1000
0100
0010
0001
0100
0010
1000
0010
0100
0001
0010
,
M100
1001
010M
1001
,
M100
1001
M100
1001
,
010M
1001
010M
1001
,
M100
1001
M100
1001
,
010M
1001
M100
1001
,
010M
1001
M100
0000
,
M10M
0000
0000
0000
;

//---------------dance-single - ----------------
#NOTES:
     dance-single:
     :
     Medium:
     7:
     0.517,0.401,0.041,0.013,0.038:
0000
0000
0000
0000
,
0000
0000
0000
0000
0000
0000
0001
0010
,
0002
1000
0000
1000
,
0000
0000
1000
0000
0003
0000
1000
0100
,
0010
0001
0001
0000
1001
0000
0010
0100
,
1000
0010
0100
0100
0002
0000
0103
0000
,
0002
0000
0000
0100
0000
0100
0000
0100
0003
0000
0001
0000
0100
0000
0010
0000
,
2000
0000
0000
0100
0000
0100
0000
0000
3001
0000
0100
0000
0010
0000
1000
0000
,
0100
0010
0010
0100
0100
1000
0010
0100
,
0010
0000
0000
1000
0000
0000
0100
0000
0000
0100
0000
0000
0010
0000
0000
0000
,
1001
0001
0010
0000
0010
0100
1000
0010
,
0100
0001
0010
0000
0010
0001
0100
0010
,
1000
0100
0010
0000
0010
0100
1000
0010
,
0100
0001
0010
0000
0010
0001
0100
0010
,
1000
0100
0010
0000
0010
0100
1000
0010
,
0100
0001
0010
0000
0010
0001
0100
0010
,
1000
0100
0010
0100
0001
0100
0010
0100
,
4000
0004
0000
0000
0000
0000
0000
0000
0000
0000
0000
0000
0000
0000
0000
3003
,
0100
1000
0010
0100
0001
0010
0100
1000
,
0001
0100
0010
1000
0100
0010
0001
0010
,
0100
1000
0010
1000
0100
0010
0001
1000
,
0010
0100
0001
0010
0001
0100
0010
1000
,
0100
0010
0001
0100
0010
1000
0100
0010
,
0001
0000
0000
0001
0000
0000
0100
0000
0010
0000
1000
0000
0010
0000
0100
0000
,
0001
0010
0001
0100
0010
1000
0100
0010
,
0001
1000
0010
0100
0001
0010
0100
0010
,
0001
1000
0010
0100
0001
0010
0100
1000
,
0001
0100
0010
1000
0100
0010
0001
0010
,
0100
1000
0010
1000
0100
0010
0001
1000
,
0010
0100
0001
0010
0001
0100
0010
1000
,
0100
0010
0001
0100
0010
1000
0100
0010
,
0001
0000
0000
0001
0000
0000
0100
0000
0010
0000
1000
0000
0010
0000
0100
0000
,
0001
0010
0001
0100
0010
1000
0100
0010
,
0001
1000
0010
0100
0001
0010
0100
1000
,
0000
0000
0000
0000
,
0010
1000
0100
0010
0001
0100
0010
1000
,
0001
0010
0100
1000
0010
0100
0001
0100
,
0010
1000
0100
1000
0010
0100
0001
1000
,
0100
0010
0001
0100
0001
0010
0100
1000
,
0010
0100
0001
0010
0100
1000
0010
0100
,
0001
0000
0000
0001
0000
0000
0010
0000
0100
0000
1000
0000
0100
0000
0010
0000
,
0001
0100
0001
0010
0100
1000
0010
0100
,
0001
1000
0100
0010
0001
0100
0010
0100
,
0001
1000
0100
0010
0001
0100
0010
1000
,
0001
0010
0100
1000
0010
0100
0001
0100
,
0010
1000
0100
1000
0010
0100
0001
1000
,
0100
0010
0001
0100
0001
0010
0100
1000
,
0010
0100
0001
0010
0100
1000
0010
0100
,
0001
0000
0000
0001
0000
0000
0010
0000
0100
0000
1000
0000
0100
0000
0010
0000
,
0001
0100
0001
0010
0100
1000
0010
0100
,
0001
1000
0100
0010
0001
0100
0010
1000
,
0000
0000
0000
0000
,
0100
0001
0010
0100
1000
0010
0100
0001
,
1000
0100
0010
0001
0100
0010
1000
0010
,
0100
0001
0010
0001
0100
0010
1000
0001
,
0010
0100
1000
0010
1000
0100
0010
0001
,
0100
0010
1000
0100
0010
0001
0100
0010
,
1000
0000
0000
1000
0000
0000
0100
0000
0010
0000
0001
0000
0010
0000
0100
0000
,
1000
0010
1000
0100
0010
0001
0100
0010
,
1000
0001
0010
0100
1000
0010
0100
0010
,
1000
0001
0010
0100
1000
0010
0100
0001
,
1000
0100
0010
0001
0100
0010
1000
0010
,
0100
0001
0010
0001
0100
0010
1000
0001
,
0010
0100
1000
0010
1000
0100
0010
0001
,
0100
0010
1000
0100
0010
0001
0100
0010
,
1000
0000
0000
1000
0000
0000
0100
0000
0010
0000
0001
0000
0010
0000
0100
0000
,
1000
0010
1000
0100
0010
0001
0100
0010
,
1000
0001
0010
0100
1000
0010
0100
0001
,
0000
0000
0000
0000
,
0010
0001
0100
0010
1000
0100
0010
0001
,
1000
0010
0100
0001
0010
0100
1000
0100
,
0010
0001
0100
0001
0010
0100
1000
0001
,
0100
0010
1000
0100
1000
0010
0100
0001
,
0010
0100
1000
0010
0100
0001
0010
0100
,
1000
0000
0000
1000
0000
0000
0010
0000
0100
0000
0001
0000
0100
0000
0010
0000
,
1000
0100
1000
0010
0100
0001
0010
0100
,
1000
0001
0100
0010
1000
0100
0010
0100
,
1000
0001
0100
0010
1000
0100
0010
0001
,
1000
0010
0100
0001
0010
0100
1000
0100
,
0010
0001
0100
0001
0010
0100
1000
0001
,
0100
0010
1000
0100
1000
0010
0100
0001
,
0010
0100
1000
0010
0100
0001
0010
0100
,
1000
0000
0000
1000
0000
0000
0010
0000
0100
0000
0001
0000
0100
0000
0010
0000
,
1000
0100
1000
0010
0100
0001
0010
0100
,
1000
0001
0100
0010
1000
0100
0010
0001
,
0000
0000
0000
0000
,
0100
1000
0010
0100
0001
0010
0100
1000
,
0001
0100
0010
1000
0100
0010
0001
0010
,
0100
1000
0010
1000
0100
0010
0001
1000
,
0010
0100
0001
0010
0001
0100
0010
1000
,
0100
0010
0001
0100
0010
1000
0100
0010
,
0001
0000
0000
0001
0000
0000
0100
0000
0010
0000
1000
0000
0010
0000
0100
0000
,
0001
0010
0001
0100
0010
1000
0100
0010
,
0001
1000
0010
0100
0001
0010
0100
0010
,
0001
1000
0010
0100
0001
0010
0100
1000
,
0001
0100
0010
1000
0100
0010
0001
0010
,
0100
1000
0010
1000
0100
0010
0001
1000
,
0010
0100
0001
0010
0001
0100
0010
1000
,
0100
0010
0001
0100
0010
1000
0100
0010
,
0001
0000
0000
0001
0000
0000
0100
0000
0010
0000
1000
0000
0010
0000
0100
0000
,
0001
0010
0001
0100
0010
1000
0100
0010
,
0001
1000
0010
0100
0001
0010
0100
1000
,
0000
0000
0000
0000
,
0010
1000
0100
0010
0001
0100
0010
1000
,
0001
0010
0100
1000
0010
0100
0001
0100
,
0010
1000
0100
1000
0010
0100
0001
1000
,
0100
0010
0001
0100
0001
0010
0100
1000
,
0010
0100
0001
0010
0100
1000
0010
0100
,
0001
0000
0000
0001
0000
0000
0010
0000
0100
0000
1000
0000
0100
0000
0010
0000
,
0001
0100
0001
0010
0100
1000
0010
0100
,
0001
1000
0100
0010
0001
0100
0010
0100
,
0001
1000
0100
0010
0001
0100
0010
1000
,
0001
0010
0100
1000
0010
0100
0001
0100
,
0010
1000
0100
1000
0010
0100
0001
1000
,
0100
0010
0001
0100
0001
0010
0100
1000
,
0010
0100
0001
0010
0100
1000
0010
0100
,
0001
0000
0000
0001
0000
0000
0010
0000
0100
0000
1000
0000
0100
0000
0010
0000
,
0001
0100
0001
0010
0100
1000
0010
0100
,
0001
1000
0100
0010
0001
0100
0010
1000
,
0000
0000
0000
0000
,
0100
0001
0010
0100
1000
0010
0100
0001
,
1000
0100
0010
0001
0100
0010
1000
0010
,
0100
0001
0010
0001
0100
0010
1000
0001
,
0010
0100
1000
0010
1000
0100
0010
0001
,
0100
0010
1000
0100
0010
0001
0100
0010
,
1000
0000
0000
1000
0000
0000
0100
0000
0010
0000
0001
0000
0010
0000
0100
0000
,
1000
0010
1000
0100
0010
0001
0100
0010
,
1000
0001
0010
0100
1000
0010
0100
0010
,
1000
0001
0010
0100
1000
0010
0100
0001
,
1000
0100
0010
0001
0100
0010
1000
0010
,
0100
0001
0010
0001
0100
0010
1000
0001
,
0010
0100
1000
0010
1000
0100
0010
0001
,
0100
0010
1000
0100
0010
0001
0100
0010
,
1000
0000
0000
1000
0000
0000
0100
0000
0010
0000
0001
0000
0010
0000
0100
0000
,
1000
0010
1000
0100
0010
0001
0100
0010
,
1000
0001
0010
0100
1000
0010
0100
0001
,
0000
0000
0000
0000
,
0010
0001
0100
0010
1000
0100
0010
0001
,
1000
0010
0100
0001
0010
0100
1000
0100
,
0010
0001
0100
0001
0010
0100
1000
0001
,
0100
0010
1000
0100
1000
0010
0100
0001
,
0010
0100
1000
0010
0100
0001
0010
0100
,
1000
0000
0000
1000
0000
0000
0010
0000
0100
0000
0001
0000
0100
0000
0010
0000
,
1000
0100
1000
0010
0100
0001
0010
0100
,
1000
0001
0100
0010
1000
0100
0010
0100
,
1000
0001
0100
0010
1000
0100
0010
0001
,
1000
0010
0100
0001
0010
0100
1000
0100
,
0010
0001
0100
0001
0010
0100
1000
0001
,
0100
0010
1000
0100
1000
0010
0100
0001
,
0010
0100
1000
0010
0100
0001
0010
0100
,
1000
0000
0000
1000
0000
0000
0010
0000
0100
0000
0001
0000
0100
0000
0010
0000
,
1000
0100
1000
0010
0100
0001
0010
0100
,
1000
0001
0100
0010
1000
0100
0010
0001
,
0100
1001
0100
1001
,
0100
1001
0100
1001
,
0100
1001
0100
1001
,
0100
1001
0100
1001
,
0100
1001
0100
1001
,
0100
1001
0100
0000
,
0100
0000
0000
0000
;

//---------------dance-single - ----------------
#NOTES:
     dance-single:
     :
     Easy:
     4:
     0.271,0.225,0.003,0.009,0.000:
0000
0000
0000
0000
,
0000
0000
0000
0000
,
0002
1000
0000
1000
,
0000
1000
0003
1000
,
0010
0001
0000
0001
,
0010
1000
0100
0100
,
0100
0100
0100
0100
,
2000
0000
3001
0010
,
0100
1000
0001
0100
,
0010
0000
1000
0001
0000
0001
1000
0000
,
1001
0000
0010
0100
,
1000
1000
0010
0100
,
0001
0001
0010
0100
,
1000
1000
0010
0100
,
0001
0010
0100
1000
,
0010
0100
0001
0010
,
0100
0100
1000
1000
,
0002
0000
0000
0000
0000
0000
0000
0000
0000
0000
0000
0000
0000
0000
0000
0003
,
1000
0100
0010
0001
,
0100
0100
0010
0010
,
1000
0100
1000
0010
,
0100
0001
0010
0001
,
0100
0010
0001
0010
,
1000
1000
0001
0100
,
1000
0100
0001
1000
,
0001
0100
0010
1000
,
0001
0010
0100
1000
,
0010
0010
0100
0100
,
0001
0010
0001
0100
,
0010
1000
0100
1000
,
0010
0100
1000
0100
,
0001
0001
1000
0010
,
0001
0010
1000
0001
,
1000
0010
0100
0001
,
0100
0000
0000
0000
,
1000
0010
0100
0001
,
0010
0010
0100
0100
,
1000
0010
1000
0100
,
0010
0001
0100
0001
,
0010
0100
0001
0100
,
1000
1000
0001
0010
,
1000
0010
0001
1000
,
0001
0010
0100
1000
,
0001
0100
0010
1000
,
0100
0100
0010
0010
,
0001
0100
0001
0010
,
0100
1000
0010
1000
,
0100
0010
1000
0010
,
0001
0001
1000
0100
,
0001
0100
1000
0001
,
1000
0100
0010
0001
,
0010
0000
0000
0000
,
0001
0010
0100
1000
,
0010
0010
0100
0100
,
0001
0010
0001
0100
,
0010
1000
0100
1000
,
0010
0100
1000
0100
,
0001
0001
1000
0010
,
0001
0010
1000
0001
,
1000
0010
0100
0001
,
1000
0100
0010
0001
,
0100
0100
0010
0010
,
1000
0100
1000
0010
,
0100
0001
0010
0001
,
0100
0010
0001
0010
,
1000
1000
0001
0100
,
1000
0100
0001
1000
,
0001
0100
0010
1000
,
0010
0000
0000
0000
,
0001
0100
0010
1000
,
0100
0100
0010
0010
,
0001
0100
0001
0010
,
0100
1000
0010
1000
,
0100
0010
1000
0010
,
0001
0001
1000
0100
,
0001
0100
1000
0001
,
1000
0100
0010
0001
,
1000
0010
0100
0001
,
0010
0010
0100
0100
,
1000
0010
1000
0100
,
0010
0001
0100
0001
,
0010
0100
0001
0100
,
1000
1000
0001
0010
,
1000
0010
0001
1000
,
0001
0010
0100
1000
,
0100
0000
0000
0000
,
1000
0100
0010
0001
,
0100
0100
0010
0010
,
1000
0100
1000
0010
,
0100
0001
0010
0001
,
0100
0010
0001
0010
,
1000
1000
0001
0100
,
1000
0100
0001
1000
,
0001
0100
0010
1000
,
0001
0010
0100
1000
,
0010
0010
0100
0100
,
0001
0010
0001
0100
,
0010
1000
0100
1000
,
0010
0100
1000
0100
,
0001
0001
1000
0010
,
0001
0010
1000
0001
,
1000
0010
0100
0001
,
0100
0000
0000
0000
,
1000
0010
0100
0001
,
0010
0010
0100
0100
,
1000
0010
1000
0100
,
0010
0001
0100
0001
,
0010
0100
0001
0100
,
1000
1000
0001
0010
,
1000
0010
0001
1000
,
0001
0010
0100
1000
,
0001
0100
0010
1000
,
0100
0100
0010
0010
,
0001
0100
0001
0010
,
0100
1000
0010
1000
,
0100
0010
1000
0010
,
0001
0001
1000
0100
,
0001
0100
1000
0001
,
1000
0100
0010
0001
,
0010
0000
0000
0000
,
0001
0010
0100
1000
,
0010
0010
0100
0100
,
0001
0010
0001
0100
,
0010
1000
0100
1000
,
0010
0100
1000
0100
,
0001
0001
1000
0010
,
0001
0010
1000
0001
,
1000
0010
0100
0001
,
1000
0100
0010
0001
,
0100
0100
0010
0010
,
1000
0100
1000
0010
,
0100
0001
0010
0001
,
0100
0010
0001
0010
,
1000
1000
0001
0100
,
1000
0100
0001
1000
,
0001
0100
0010
1000
,
0010
0000
0000
0000
,
0001
0100
0010
1000
,
0100
0100
0010
0010
,
0001
0100
0001
0010
,
0100
1000
0010
1000
,
0100
0010
1000
0010
,
0001
0001
1000
0100
,
0001
0100
1000
0001
,
1000
0100
0010
0001
,
1000
0010
0100
0001
,
0010
0010
0100
0100
,
1000
0010
1000
0100
,
0010
0001
0100
0001
,
0010
0100
0001
0100
,
1000
1000
0001
0010
,
1000
0010
0001
1000
,
0001
0010
0100
1000
,
0100
0010
0100
0010
,
0100
0010
0100
0010
,
0100
0010
0100
0010
,
0100
0010
0100
0010
,
0100
0010
0100
0010
,
0100
0010
0100
0000
,
0100
0000
0000
0000
;
