#TITLE:Shut Me Up;
#SUBTITLE:;
#ARTIST:Mindless Self Indulgence;
#TITLETRANSLIT:;
#SUBTITLETRANSLIT:;
#ARTISTTRANSLIT:;
#GENRE:;
#CREDIT:;
#BANNER:Shut Me Up-bn.png;
#BACKGROUND:shut me up-bg.png;
#LYRICSPATH:;
#CDTITLE:;
#MUSIC:Shut Me Up.ogg;
#OFFSET:0.055;
#SAMPLESTART:89.497;
#SAMPLELENGTH:10.900;
#SELECTABLE:YES;
#BPMS:0.000=174.000,108.000=87.000,109.000=348.000,111.000=174.000,123.000=348.000,129.000=174.000,141.000=87.000,142.000=348.000,144.000=174.000,156.000=348.000,162.000=174.000,174.500=43.500,175.000=174.000,187.250=-174.001,195.500=174.000,278.000=87.000,279.000=348.000,281.000=174.000,293.000=348.000,299.000=174.000,311.000=87.000,312.000=348.000,314.000=174.000,326.000=348.000,332.000=174.000;
#STOPS:32.000=0.345
,33.000=0.345
,94.000=0.345
,95.000=0.345
,109.938=0.172
,110.938=0.172
,125.000=0.172
,128.000=0.172
,142.938=0.172
,143.938=0.172
,158.000=0.172
,161.000=0.172
,174.000=0.259
,174.250=0.259
,187.000=0.603
,203.750=0.603
,264.000=0.345
,265.000=0.345
,279.938=0.172
,280.938=0.172
,295.000=0.172
,298.000=0.172
,312.938=0.172
,313.938=0.172
,328.000=0.172
,331.000=0.172
;
#SCROLLS:0.000=1.000;
#TIMESIGNATURES:;
#BGCHANGES:0.000=Shut Me Up v2.avi=1.000=0=0=0=StretchNoLoop====,
328.000=shut me up-bg.png=1.000=0=0=1=Centered====,
99999=-nosongbg-=1.000=0=0=0 // don't automatically add -songbackground-
;
#KEYSOUNDS:;

//---------------dance-single - Geriatric Patrick----------------
#NOTES:
     dance-single:
     Geriatric Patrick:
     Challenge:
     9:
     0.656,0.780,0.761,0.000,0.013:
0000
0000
0000
0000
,
0000
0000
0000
0000
,
0000
0000
0000
0000
,
0000
0000
0000
0000
,
0000
0000
0000
0000
,
0000
0000
0000
0000
,
0000
0000
0000
0000
,
0000
0000
0000
0000
,
0110
0011
1001
1000
,
0100
1010
0001
0100
,
0001
0000
1010
1000
0100
0000
1000
0000
,
0100
0011
1000
0100
,
1000
0000
0011
0001
0100
0000
1000
0000
,
0100
1001
0010
1000
,
0010
0000
1001
1000
0100
0000
0001
0000
,
0100
1001
0010
0001
,
0010
0000
1001
0001
0100
0000
0101
0000
,
0M01
1001
0100
0110
,
0M10
1010
1001
0001
,
0100
0011
1000
0100
,
1000
0000
1010
1000
0100
0000
0110
0000
,
0M10
0011
1000
1001
,
M001
0011
1001
0100
,
0010
0110
1001
0011
,
1100
0100
0010
0001
0010
0001
0100
0100
,
0010
1000
0001
0010
0001
1000
0010
0100
,
1000
0100
0100
0001
0100
0100
0010
0100
,
0101
1000
0110
0000
0110
0000
0001
0010
,
0100
1000
0100
1000
0010
0010
0100
0001
,
1000
0100
1000
0001
0100
0010
0001
0010
,
0010
1000
0010
0010
0100
0010
1010
0000
,
0000
0001
1010
1000
,
0001
0000
1010
0010
0100
0001
0100
0001
,
0010
0010
0100
1000
0001
0100
0001
1000
,
0100
0010
1000
0010
0010
0001
0010
0010
,
0100
0010
0011
1000
0110
0000
0110
0000
,
0001
0100
0010
1000
0010
1000
0100
0100
,
0010
0001
1000
0010
1000
0001
0010
0100
,
0001
0100
0100
1000
0100
0100
0010
0100
,
1100
0000
0001
0110
,
0100
0000
0001
0000
1001
1000
0001
1000
,
0010
0100
1000
0000
1100
0000
1100
0000
,
1100
0010
0100
0010
1000
0100
0010
0001
,
1000
0000
0000
0000
0001
0000
0000
0000
0010
0000
0000
0000
0000
0000
0000
0000
0100
0000
0100
0000
0100
0011
0000
0011
1000
0000
0000
0000
0001
0000
0000
0000
,
1000
0001
0010
0100
0001
0000
0101
0000
,
0101
0000
0101
0010
0100
0010
0001
0100
,
1000
0100
0010
0001
0100
0000
0101
0000
,
0000
0000
0000
0000
,
0000
0000
0000
0000
,
0000
0000
0000
0000
,
0000
0000
0000
0000
,
1001
1000
0001
1000
0001
0010
00M0
0000
,
1000
0010
1000
0010
1000
0001
M000
000M
,
1010
0010
1000
0010
1000
0001
000M
0000
,
0100
1000
0100
1000
0100
0010
0M00
00M0
,
1001
0001
1000
0001
1000
0010
00M0
0000
,
0001
0010
0001
0010
0001
1000
000M
M000
,
0011
0010
0001
0010
0001
1000
M000
0000
,
0100
0001
0100
0001
0100
0010
0M00
00M0
,
1010
M0M0
1010
M0M0
1010
M000
1001
M00M
,
1001
000M
0011
00MM
0011
00M0
1010
00M0
,
0110
0100
0010
0100
0010
0001
000M
0000
,
0100
1000
0100
1000
0100
0010
0M00
00M0
,
0011
00MM
0011
00MM
0011
000M
1001
M00M
,
1001
M000
1010
M0M0
1010
00M0
0011
00M0
,
0110
0100
0010
0100
0010
1000
M000
0000
,
0101
0000
0110
0000
1001
0100
0010
1000
,
0010
1000
0100
0100
0010
0001
1000
0010
,
1000
0001
0010
0100
0001
0100
0100
1000
,
0100
0100
0010
0100
1100
0001
0110
0000
,
0110
0000
1000
0010
0100
0001
0100
0001
,
0010
0010
0100
1000
0001
0100
0001
1000
,
0100
0010
1000
0010
0010
0001
0010
0010
,
0100
0010
0011
0000
0000
0000
1000
0000
,
0011
0000
0001
0000
1000
0000
0011
0010
,
0100
1000
0100
1000
0010
0010
0100
0001
,
1000
0100
1000
0001
0100
0010
0001
0010
,
0010
1000
0010
0010
0100
0010
1010
0001
,
0110
0000
0110
0000
1000
0100
0010
0001
,
0010
0001
0100
0100
0010
1000
0001
0010
,
0001
1000
0010
0100
1000
0100
0100
0001
,
0100
0100
0010
0100
0101
0000
0000
0000
,
1000
0110
0010
1000
,
1100
0000
0000
0000
;

//---------------dance-single - Geriatric Patrick----------------
#NOTES:
     dance-single:
     Geriatric Patrick:
     Hard:
     8:
     0.638,0.669,0.734,0.072,0.004:
0000
0000
0000
0000
,
0000
0000
0000
0000
,
0000
0000
0000
0000
,
0000
0000
0000
0000
,
0000
0000
0000
0000
,
0000
0000
0000
0000
,
0000
0000
0000
0000
,
0000
0000
0000
0000
,
1100
0000
0110
0000
1001
1000
0001
1000
,
0001
0010
0000
0000
1000
0010
1000
0010
,
1000
0001
0000
0000
1000
0010
1000
0010
,
1000
0001
0000
0000
0100
1000
0100
1000
,
0100
0010
0000
0000
1000
0001
1000
0001
,
1000
0010
0000
0000
0001
0010
0001
0010
,
0001
1000
0000
0000
0001
0010
0001
0010
,
0001
1000
0000
0000
0100
0001
0100
0001
,
0100
0010
0000
0000
1010
0000
1010
0000
,
1010
1001
1001
0011
,
0011
0000
1010
0000
0110
0000
0100
0010
,
0100
1000
0100
1000
0000
0000
0010
0100
,
0101
0001
0100
0001
1000
0000
1010
0000
,
1000
1001
0001
0011
,
0001
0000
1010
0000
0001
0000
0100
0010
,
0100
0001
0100
0001
1001
0000
1010
0000
,
0101
0001
0010
0100
0010
0100
1000
0001
,
0100
0010
0100
0001
0010
0100
1000
0100
,
0010
0001
0001
1000
0001
0001
0100
0001
,
1001
0100
1010
0000
0101
0000
1001
1000
,
0010
0100
0010
0100
0001
1000
0100
0010
,
0100
1000
0010
0100
0001
0100
0010
1000
,
1000
0001
1000
1000
0100
1000
1001
0000
,
0000
0010
1001
1000
,
0010
0000
1001
0001
0010
0100
0010
0100
,
1000
0001
0100
0010
0100
0001
0010
0100
,
1000
0100
0010
0001
0001
1000
0001
0001
,
0100
0001
1001
0100
1010
0000
0101
0000
,
1001
1000
0010
0100
0010
0100
0001
1000
,
0100
0010
0100
1000
0010
0100
0001
0100
,
0010
1000
1000
0001
1000
1000
0100
1000
,
1001
0000
0010
1001
,
1000
0010
0220
0000
,
0000
0000
1000
1000
,
1000
0300
0000
0030
2002
0000
0000
0000
,
0000
0000
0000
0000
0000
0000
0000
0000
3013
0010
0010
0000
0220
0000
0000
0000
,
0000
0000
0000
0001
,
0001
0000
0001
0030
0000
0300
2002
0000
,
0000
0000
0000
3113
,
0000
0000
0000
0000
,
0000
0000
0000
0000
,
0000
0000
0000
0000
,
0000
0000
0000
0000
,
0100
1000
0010
1010
,
0100
0000
0001
0000
0010
0000
0011
0001
,
1000
0100
1000
0010
0001
0000
1010
0000
,
1001
0000
0011
0000
1001
0000
1100
1000
,
0001
0010
0100
0101
,
1000
0000
0010
0000
0100
0000
1010
1000
,
0001
0100
0001
0010
1000
0000
0011
0000
,
1001
0000
0101
0000
1001
0001
0010
0000
,
0110
0110
0110
1001
,
1001
0011
0011
1010
,
0011
0000
1000
0100
0001
0100
0001
0100
,
0000
0000
1000
0100
0101
0100
1000
0100
,
0010
0110
0010
1001
,
0001
0011
0001
1010
,
0001
0000
0010
0100
0001
0100
0001
0100
,
1100
0000
0011
0000
1001
0001
0010
0100
,
0010
0100
1000
0001
0100
0010
0100
0001
,
0010
0100
1000
0100
0010
0001
0001
1000
,
0001
0001
0100
0001
1001
0100
1010
0000
,
0101
0000
1001
1000
0010
0100
0010
0100
,
0001
1000
0100
0010
0100
1000
0010
0100
,
0001
0100
0010
1000
1000
0001
1000
1000
,
0100
1000
1001
0000
0000
0000
0010
0000
,
1001
0000
1000
0000
0010
0000
1001
0001
,
0010
0100
0010
0100
1000
0001
0100
0010
,
0100
0001
0010
0100
1000
0100
0010
0001
,
0001
1000
0001
0001
0100
0001
1001
0100
,
1010
0000
0101
0000
1001
1000
0010
0100
,
0010
0100
0001
1000
0100
0010
0100
1000
,
0010
0100
0001
0100
0010
1000
1000
0001
,
1000
1000
0100
1000
1001
0000
0000
0000
,
0010
1001
1000
0010
,
0101
0000
0000
0000
;

//---------------dance-single - Geriatric Patrick----------------
#NOTES:
     dance-single:
     Geriatric Patrick:
     Medium:
     6:
     0.462,0.594,0.555,0.054,0.004:
0000
0000
0000
0000
,
0000
0000
0000
0000
,
0000
0000
0000
0000
,
0000
0000
0000
0000
,
0000
0000
0000
0000
,
0000
0000
0000
0000
,
0000
0000
0000
0000
,
0000
0000
0000
0000
,
0100
0001
1001
1000
,
0100
0010
0100
1000
,
0001
0000
0100
0100
0001
0000
0010
0000
,
0100
1000
0100
0010
,
0001
0000
1000
1000
0001
0000
0100
0000
,
0010
1000
0010
0100
,
0001
0000
0010
0010
0001
0000
1000
0000
,
0010
0100
0010
1000
,
0100
0000
0010
0010
0100
0000
0100
0000
,
0100
1100
1100
0110
,
0110
0000
0011
0000
0110
0000
1000
0001
,
1000
0001
1000
0001
0000
0000
1000
0001
,
1000
0001
1000
0001
0100
0000
0100
0000
,
0100
0101
0101
0110
,
0110
0000
1010
0000
0110
0000
0001
1000
,
0001
1000
0001
1000
0100
0000
0001
0000
,
0110
0000
0001
0000
1000
0000
0001
0010
,
0000
0000
0100
0000
1000
0000
0010
0100
,
0000
0110
0000
0001
0000
1000
0000
0000
,
0110
0011
0011
1000
,
0010
0000
0100
0000
0001
0010
0000
0000
,
0001
0000
0100
0000
0001
1000
0000
0000
,
0001
1000
0001
0110
,
0000
0000
0110
0000
,
0000
0110
1000
0001
,
1000
0010
0000
0000
0100
0000
0001
0000
,
0010
0100
0000
0110
0000
1000
0000
0001
,
0000
0110
1010
1010
,
0001
0000
0010
0000
0100
0000
1000
0010
,
0000
0000
1000
0000
0100
0000
1000
0001
,
0000
1000
0001
1000
,
0110
0000
0000
0110
,
0000
0000
0120
0000
,
0000
0000
1000
1000
,
1000
0030
2002
0000
,
0000
0000
0000
0000
0000
0000
0000
0000
3013
0010
0010
0000
0120
0000
0000
0000
,
0000
0000
0000
0001
,
0001
0001
0030
2002
,
0000
0000
0000
3103
,
0000
0000
0000
0000
,
0000
0000
0000
0000
,
0000
0000
0000
0000
,
0000
0000
0000
0000
,
1000
0001
1000
0001
1000
0010
0000
0000
,
0010
0100
0010
0100
0010
1000
0000
0000
,
0010
0100
0010
0100
0010
1000
0000
0000
,
0001
0100
0001
0100
0001
1000
0000
0000
,
1000
0001
1000
0001
1000
0010
0000
0000
,
0010
0100
0010
0100
0010
1000
0000
0000
,
0010
0100
0010
0100
0010
1000
0000
0000
,
0001
0100
0001
0100
0001
1000
0000
0000
,
1001
1001
1001
1010
,
1010
0110
0110
1100
,
0110
0000
0001
1000
0100
1000
0100
1000
,
0000
0000
0001
1000
0100
1000
0100
1000
,
0001
1001
1001
1010
,
1010
0110
0110
1100
,
0110
0000
1000
0001
1000
0001
1000
0001
,
0100
1000
0110
1000
,
0001
0000
1000
0010
0000
0000
0100
0000
,
0001
0000
0010
0100
0000
0110
0000
1000
,
0000
0001
0000
0000
0110
0000
1010
0000
,
1010
0001
0010
0100
,
1000
0010
0000
0000
1000
0000
0100
0000
,
1000
0001
0000
0000
1000
0000
0001
0000
,
1000
0110
0000
0000
,
0110
0000
0000
0110
,
0001
0000
1000
0000
0001
0010
0000
0000
,
0100
0000
1000
0000
0010
0100
0000
0110
,
0000
0001
0000
1000
0000
0000
0110
0000
,
0011
0011
1000
0010
,
0100
0000
0001
0010
0000
0000
0001
0000
,
0100
0000
0001
1000
0000
0000
0001
0000
,
1000
0001
0110
0000
,
0000
0110
0000
0000
,
1MMM
0000
0000
0000
;

//---------------dance-single - Geriatric Patrick----------------
#NOTES:
     dance-single:
     Geriatric Patrick:
     Easy:
     4:
     0.384,0.520,0.116,0.358,0.004:
0000
0000
0000
0000
,
0000
0000
0000
0000
,
0000
0000
0000
0000
,
0000
0000
0000
0000
,
0000
0000
0000
0000
,
0000
0000
0000
0000
,
0000
0000
0000
0000
,
0000
0000
0000
0000
,
1000
0001
0100
0001
,
0010
0000
0100
1000
,
0100
0000
0100
1000
,
0100
0000
0010
0001
,
0100
0000
0010
1000
,
0001
0000
0010
0100
,
0010
0000
0010
0100
,
0010
0000
0001
1000
,
0010
0000
0200
0302
,
0203
0320
2030
3002
,
2003
3020
0230
0301
,
0001
0001
0000
0001
,
1000
0001
0020
0230
,
2300
3200
0320
0032
,
2003
3020
2030
3100
,
0010
0100
1000
0110
,
0001
0010
0100
0001
,
0100
0010
0001
1000
,
0001
0010
0100
0010
,
1000
1001
1001
0001
,
0010
0100
1000
0001
,
0100
1000
0100
0010
,
1000
1000
0001
0010
,
0000
0000
0010
0000
,
0000
1000
0010
0100
,
1000
0100
0010
1000
,
0001
1000
0010
0100
,
0010
0001
1001
1001
,
0001
0010
0100
0001
,
1000
0100
0001
0100
,
0010
0001
0001
1000
,
0010
0000
0000
0010
,
0000
0000
0200
0000
,
0000
0000
0001
0001
,
0001
0300
2000
0000
,
0000
0000
0000
0000
3000
0000
0000
0000
0110
0110
0110
0000
0002
0000
0000
0000
,
0000
0000
0000
1000
,
1000
1000
0003
0020
,
0000
0000
0000
0130
,
0000
0000
0000
0000
,
0000
0000
0000
0000
,
0000
0000
0000
0000
,
0000
0000
0000
0000
,
0100
0100
0100
0010
,
1000
0001
1000
0010
,
0100
0100
0100
0001
,
1000
0100
1000
0001
,
0010
0010
0010
0100
,
1000
0001
1000
0010
,
0100
0100
0100
0001
,
1000
0100
1000
0001
,
0200
0320
2030
3002
,
0023
0230
2300
3020
,
2030
3001
0001
0001
,
0000
0010
0100
0010
,
0002
0203
0320
2030
,
3002
0023
0230
0302
,
0203
1300
1000
1000
,
0100
0110
0001
0010
,
0100
0001
0100
0010
,
0001
1000
0001
0010
,
0100
0010
1000
1001
,
1001
0001
0010
0100
,
1000
0001
0100
1000
,
0100
0010
1000
1000
,
0001
0010
0000
0000
,
0010
0000
0000
1000
,
0010
0100
1000
0100
,
0010
1000
0001
1000
,
0010
0100
0010
0001
,
1001
1001
0001
0010
,
0100
0001
1000
0100
,
0001
0100
0010
0001
,
0001
1000
0010
0000
,
0000
0010
0000
0000
,
0100
0000
0000
0000
;

//---------------dance-single - Geriatric Patrick----------------
#NOTES:
     dance-single:
     Geriatric Patrick:
     Beginner:
     2:
     0.257,0.297,0.000,0.036,0.004:
0000
0000
0000
0000
,
0000
0000
0000
0000
,
0000
0000
0000
0000
,
0000
0000
0000
0000
,
0000
0000
0000
0000
,
0000
0000
0000
0000
,
0000
0000
0000
0000
,
0000
0000
0000
0000
,
1000
1000
0001
0000
,
0001
0000
0010
0000
,
0010
0000
0100
0000
,
0010
0000
0001
0000
,
0001
0000
1000
0000
,
1000
0000
0010
0000
,
0010
0000
0100
0000
,
0010
0000
1000
0000
,
1000
0000
0001
0000
,
0100
0000
0010
0000
,
1000
0000
1000
0000
,
0001
0000
0001
0000
,
0001
0000
1000
0000
,
0100
0000
0010
0000
,
0001
0000
0001
0000
,
1000
0000
0100
1000
,
0001
0001
0001
0001
,
0010
0010
0010
0010
,
0100
0100
0100
0100
,
1000
0001
0001
1000
,
1000
1000
1000
0010
,
0010
0010
0010
0100
,
0100
0100
0100
0001
,
0000
0000
0001
0000
,
0000
0001
0001
0001
,
0001
0010
0010
0010
,
0010
0100
0100
0100
,
0100
1000
0001
0001
,
1000
1000
1000
1000
,
0010
0010
0010
0010
,
0100
0100
0100
0100
,
0001
0000
0000
0001
,
0000
0000
0002
0000
,
0000
0000
0010
0010
,
0010
0003
0200
0000
,
0000
0000
0000
0000
0000
0000
0000
0000
1300
1000
1000
0000
0002
0000
0000
0000
,
0000
0000
0000
0010
,
0010
0010
0003
2000
,
0000
0000
0000
3100
,
0000
0000
0000
0000
,
0000
0000
0000
0000
,
0000
0000
0000
0000
,
0000
0000
0000
0000
,
1000
0000
1000
0000
,
0010
0000
0010
0000
,
0100
0000
0010
0000
,
1000
0000
1000
0000
,
0001
0000
0001
0000
,
0010
0000
0010
0000
,
0100
0000
0010
0000
,
0001
0000
0001
0000
,
1000
0000
0100
0000
,
0010
0000
0001
0000
,
0001
0000
1000
0000
,
1000
0000
1000
0000
,
0001
0000
0100
0000
,
0010
0000
1000
0000
,
1000
0000
0001
0000
,
0100
0001
1000
1000
,
1000
1000
0010
0010
,
0010
0010
0100
0100
,
0100
0100
0001
1000
,
1000
0001
0001
0001
,
0001
0010
0010
0010
,
0010
0100
0100
0100
,
0100
1000
0000
0000
,
1000
0000
0000
1000
,
1000
1000
1000
0010
,
0010
0010
0010
0100
,
0100
0100
0100
0001
,
1000
1000
0001
0001
,
0001
0001
0010
0010
,
0010
0010
0100
0100
,
0100
0100
1000
0000
,
0000
1000
0000
0000
,
0100
0000
0000
0000
;
