#VERSION:0.83;
#TITLE:Robot Tune;
#SUBTITLE:;
#ARTIST:French Class;
#TITLETRANSLIT:;
#SUBTITLETRANSLIT:;
#ARTISTTRANSLIT:;
#GENRE:;
#CREDIT:;
#MUSIC:Robot Tune.ogg;
#BANNER:Robot Tune-bn.png;
#BACKGROUND:Robot Tune-bg.png;
#JACKET:;
#DISCIMAGE:;
#CDIMAGE:;
#SELECTABLE:YES;
#LYRICSPATH:;
#CDTITLE:;
#SAMPLESTART:20.600;
#SAMPLELENGTH:11.700;
#OFFSET:1.16;
#BPMS:0.000000=166.000000;
#STOPS:;
#WARPS:;
#DELAYS:;
#SPEEDS:;
#SCROLLS:0.000000=1.000000;
#TICKCOUNTS:;
#TIMESIGNATURES:0.000000=4=4;
#LABELS:;
#COMBOS:;
#FAKES:;
#BGCHANGES:3.75=Toxic Waste Chase.mp4=1.000000=0=0=1=====,
99999=-nosongbg-=1.000000=0=0=0=====
;
#FGCHANGES:;
#ATTACKS:;
#KEYSOUNDS:;

//---------------dance-single - Geriatric Patrick---------------
#NOTEDATA:;
#CHARTNAME:;
#CHARTSTYLE:;
#CREDIT:;
#STEPSTYPE:dance-single;
#DESCRIPTION:Geriatric Patrick;
#DIFFICULTY:Challenge;
#METER:10;
#METERF:10;
#RADARVALUES:0.724,1.000,0.173,0.141,0.334;
#NOTES:
// measure 0
0000
0000
0000
0000
,  // measure 1
0100
0000
0001
0010
0100
0000
0101
0000
,  // measure 2
0100
0010
0000
0100
1000
0010
0100
1000
,  // measure 3
0000
0000
1000
0001
1000
0000
1100
0000
,  // measure 4
0001
1000
0000
0001
0100
1000
0002
0000
,  // measure 5
0003
0000
0010
1000
0001
0000
1000
0010
,  // measure 6
0000
0001
0010
0001
1000
0010
0100
1000
,  // measure 7
0000
0000
0100
0010
0100
0000
0001
0100
,  // measure 8
0010
0001
1000
0100
0001
1000
0010
0100
,  // measure 9
00M1
00M1
00M1
00M1
,  // measure 10
00M1
00M1
00M1
00M1
,  // measure 11
1M00
0000
1M00
0001
1M00
0000
1M00
0000
,  // measure 12
1M00
0010
0M00
0010
1M00
0001
2M00
0000
,  // measure 13
310M
0000
100M
0010
100M
0000
010M
0010
,  // measure 14
000M
1000
001M
1000
010M
0010
010M
1000
,  // measure 15
01M0
0000
0M01
0100
00M1
0000
0M10
0001
,  // measure 16
10M0
0010
1000
0001
0010
0001
1MM0
0001
,  // measure 17
0100
0000
0010
0100
1000
0000
0101
0000
,  // measure 18
1000
0010
0000
0001
0010
0001
0100
0010
,  // measure 19
0000
0000
0001
0010
0001
0000
0101
0000
,  // measure 20
0010
0001
0000
1000
0010
0100
2000
0000
,  // measure 21
3000
0000
0001
1000
0100
0000
0001
0010
,  // measure 22
0000
1000
0010
1000
0001
0100
1000
0100
,  // measure 23
0110
0000
1100
0000
0110
0000
0101
0001
,  // measure 24
1000
0010
0001
0010
0100
0010
0001
0010
,  // measure 25
1000
0000
1000
0001
0010
0000
0110
0000
,  // measure 26
0010
0001
0000
1000
0010
1000
0001
0100
,  // measure 27
0000
0000
1000
0010
1000
0000
0110
0000
,  // measure 28
0001
0010
0000
1000
0001
1000
0020
0000
,  // measure 29
0030
0000
0001
0010
0100
0000
0001
1000
,  // measure 30
0000
0010
0100
0010
0001
0010
0100
1000
,  // measure 31
1001
M00M
1100
MM00
1001
M00M
1100
0100
,  // measure 32
0010
0001
100M
0001
010M
0001
001M
0001
,  // measure 33
2000
0010
0001
0010
,  // measure 34
0001
0000
0010
0000
3001
0010
0100
1000
,  // measure 35
0200
0010
0001
0010
,  // measure 36
1000
0000
0010
0000
0301
0100
1000
0100
,  // measure 37
0020
0001
0000
1000
0000
0001
0000
1000
,  // measure 38
0000
0001
0000
1030
0010
0100
1000
0010
,  // measure 39
0110
0101
0011
0101
,  // measure 40
0010
1000
0100
1000
0001
0010
0100
0010
,  // measure 41
0001
1000
0100
0010
0001
1000
0010
1000
0001
0100
0010
1000
0001
0010
0100
0000
,  // measure 42
1000
0001
0100
0001
1000
0100
0010
0001
1000
0010
0100
0010
1000
0001
0100
0000
,  // measure 43
0010
1000
0001
0010
0100
1000
0001
0100
0010
0100
0001
1000
0100
0010
0001
0000
,  // measure 44
1000
0010
0100
0001
1000
0001
0010
0100
1000
0001
1000
0010
0100
0001
1000
0000
,  // measure 45
0100
1000
0100
0010
0001
1000
0010
1000
0001
0100
0010
1000
0001
0010
0000
0000
,  // measure 46
0001
1000
0010
0100
0001
1000
0001
0100
0010
1000
0001
0010
0100
1000
0001
0000
,  // measure 47
1000
0010
0100
0010
1000
0001
0010
0100
1000
0100
0010
0001
1000
0010
0000
0000
,  // measure 48
0100
0001
1000
0100
0010
0001
1000
0010
0100
0001
1000
0100
0010
0001
1000
0010
,  // measure 49
0200
00M0
0000
00M0
0000
00M0
0000
00M0
,  // measure 50
0000
00M0
0000
00M0
0000
00M0
0302
0M00
,  // measure 51
2003
000M
0000
000M
0000
000M
0000
000M
,  // measure 52
0000
000M
0000
000M
0000
000M
3002
M000
,  // measure 53
0023
000M
0000
000M
0000
000M
0100
0M00
,  // measure 54
0100
0M00
0100
0M00
0100
0M00
0032
00M0
,  // measure 55
2003
000M
0100
0M00
0100
0M00
0100
0M00
,  // measure 56
3020
M000
0100
0M00
0100
0M00
0100
0M00
,  // measure 57
1030
0100
0010
0100
0001
0100
0010
0100
,  // measure 58
1000
0100
0010
0100
0001
0100
1000
0100
,  // measure 59
0010
0001
1000
0001
0100
0001
0010
0001
,  // measure 60
1000
0001
0100
0001
0010
0001
0100
0001
,  // measure 61
1000
0010
0100
0010
0001
0010
1000
0010
,  // measure 62
0100
0010
0001
0010
1000
0010
0001
0010
,  // measure 63
0100
0001
0010
0001
0100
0001
0010
0001
,  // measure 64
0100
1000
0001
1000
0100
1000
0001
1000
,  // measure 65
0100
0000
0001
0010
0100
0000
0101
0000
,  // measure 66
1000
0010
0000
0010
0100
0010
1000
0100
,  // measure 67
0000
0000
0010
1000
0010
0000
0110
0000
,  // measure 68
0001
0010
0000
0100
0001
0100
2000
0000
,  // measure 69
3000
0000
0001
0010
0100
0000
1000
0010
,  // measure 70
0000
0010
0100
0010
0001
0010
0100
1000
,  // measure 71
0000
0000
0100
0010
0100
0000
0010
0100
,  // measure 72
0001
0010
0001
0100
1000
0001
1000
0100
,  // measure 73
0001
0000
1000
0010
0100
0000
1001
0000
,  // measure 74
0100
0010
0000
0001
0010
0001
0100
1000
,  // measure 75
0000
0000
0001
1000
0001
0000
0110
0000
,  // measure 76
0001
0010
0000
1000
0010
1000
0200
0000
,  // measure 77
0310
0001
1000
0010
0100
0001
0010
0100
1000
0001
0100
0010
1000
0001
0000
0000
,  // measure 78
1000
0010
0100
0001
0010
0100
1000
0001
0100
0010
1000
0100
0010
0001
1000
0000
,  // measure 79
0001
0100
0010
1000
0001
0010
0100
1000
0010
0100
0001
1000
0100
0010
0001
0000
,  // measure 80
0010
0100
1000
0010
0100
0001
1000
0100
0010
0001
1000
0010
0100
0001
0010
0000
,  // measure 81
0100
0000
0100
0010
0100
0000
1000
0000
,  // measure 82
0001
0010
0000
0010
0100
0010
0001
1000
,  // measure 83
0000
0000
0001
0010
0001
0000
1000
0000
,  // measure 84
0100
0010
0000
1000
0001
0010
0200
0000
,  // measure 85
0300
0000
1000
0010
0100
0000
0001
0010
,  // measure 86
0000
1000
0010
1000
0001
0010
0100
0010
,  // measure 87
0000
0000
1000
0001
0100
0000
1000
0001
,  // measure 88
0100
0010
1000
0010
0001
0010
0100
0010
;

//---------------dance-single - Geriatric Patrick---------------
#NOTEDATA:;
#CHARTNAME:;
#CHARTSTYLE:;
#CREDIT:;
#STEPSTYPE:dance-single;
#DESCRIPTION:Geriatric Patrick;
#DIFFICULTY:Hard;
#METER:8;
#METERF:8;
#RADARVALUES:0.545,0.523,0.141,0.204,0.000;
#NOTES:
// measure 0
0000
0000
0000
0000
,  // measure 1
1000
0000
0100
0010
0100
0000
1000
0000
,  // measure 2
0001
0010
0000
0010
0100
0010
0001
1000
,  // measure 3
0000
0000
0001
0010
0001
0000
1000
0000
,  // measure 4
0100
0010
0000
1000
0010
1000
0002
0000
,  // measure 5
0003
0000
0010
0100
0010
0000
1000
0010
,  // measure 6
0000
0010
0100
0010
1000
0010
0100
0001
,  // measure 7
0000
0000
1000
0100
1000
0000
0001
0100
,  // measure 8
0001
0010
0100
0010
0001
1000
0100
1000
,  // measure 9
0001
0001
0001
0001
,  // measure 10
0001
0001
0001
0001
,  // measure 11
1000
0000
1000
0001
1000
0000
1000
0000
,  // measure 12
1000
0000
1000
0000
1000
0001
2000
0000
,  // measure 13
3000
0000
1000
0010
1000
0000
0100
0010
,  // measure 14
0000
1000
0010
1000
0100
0010
0100
1000
,  // measure 15
0000
0000
0001
0100
0001
0000
0010
0001
,  // measure 16
1M00
00M0
0M00
00M0
0M00
00M0
1M01
0000
,  // measure 17
0100
0000
0001
0010
0100
0000
0001
0000
,  // measure 18
1000
0010
0000
0001
0010
0001
0100
0010
,  // measure 19
0000
0000
1000
0010
1000
0000
0001
0000
,  // measure 20
1000
0010
0000
1000
0001
0010
0200
0000
,  // measure 21
0300
0000
0001
1000
0100
0000
0001
0010
,  // measure 22
0000
1000
0100
1000
0001
0100
0001
0010
,  // measure 23
0100
0011
0110
0011
,  // measure 24
1000
0010
1000
0001
1000
0100
1000
0001
,  // measure 25
0100
0000
1000
0010
0100
0000
0110
0000
,  // measure 26
1000
0001
0000
1000
0010
1000
0001
0100
,  // measure 27
0000
0000
0001
0010
0100
0000
0110
0000
,  // measure 28
1000
0010
0000
0001
0010
0001
0200
0000
,  // measure 29
0300
0000
0001
1000
0001
0000
0100
0010
,  // measure 30
0000
0010
0100
0010
1000
0001
1000
0000
,  // measure 31
0011
1100
0011
1100
,  // measure 32
0010
0001
1000
0001
0100
0001
0010
0001
,  // measure 33
2000
0010
0000
0010
,  // measure 34
0000
0000
0010
0000
3001
0010
0100
1000
,  // measure 35
0002
0010
1000
0010
,  // measure 36
1000
0000
0010
0000
0103
0010
1000
0100
,  // measure 37
0020
0001
0000
0001
0000
0001
0000
0001
,  // measure 38
0000
0001
0000
0031
1000
0010
0100
0001
,  // measure 39
0100
1100
0101
1100
,  // measure 40
0001
0100
0010
1000
0100
1000
0010
0100
,  // measure 41
0001
0010
0100
0001
,  // measure 42
1000
0000
0100
0000
0010
0001
1000
0010
,  // measure 43
0100
0001
0010
1000
,  // measure 44
0100
0000
0010
0000
0001
1000
0010
0100
,  // measure 45
0001
0100
1000
0010
,  // measure 46
0100
0000
0001
0000
1000
0001
0010
0100
,  // measure 47
1000
1010
0101
1010
,  // measure 48
0001
0010
0001
1000
0001
0010
0100
1000
,  // measure 49
0020
0000
0000
0000
,  // measure 50
0000
0000
0000
0230
,  // measure 51
0302
0000
0000
0000
,  // measure 52
0000
0000
0000
0023
,  // measure 53
0230
0000
0000
000M
,  // measure 54
000M
000M
000M
230M
,  // measure 55
302M
000M
000M
000M
,  // measure 56
203M
000M
000M
000M
,  // measure 57
3002
1000
1000
1000
,  // measure 58
1000
1000
1000
0023
,  // measure 59
0230
0010
0010
0010
,  // measure 60
0010
0010
0010
2300
,  // measure 61
3002
1000
1000
1000
,  // measure 62
1000
1000
1000
0203
,  // measure 63
0320
0100
0100
0100
,  // measure 64
2030
0001
0001
0001
,  // measure 65
3100
0000
1000
0010
0100
0000
0001
0000
,  // measure 66
1000
0010
0000
0010
0100
0010
1000
0100
,  // measure 67
0000
0000
0010
0001
0010
0000
0100
0000
,  // measure 68
0001
0010
0000
1000
0001
1000
0200
0000
,  // measure 69
0300
0000
0001
0010
0100
0000
1000
0010
,  // measure 70
0000
0010
0100
0010
1000
0010
0100
0001
,  // measure 71
0000
0000
0100
0010
0100
0000
0001
0100
,  // measure 72
0010
1000
0001
1000
0100
1000
0001
0010
,  // measure 73
0100
0000
1000
0001
0100
0000
0101
0000
,  // measure 74
1000
0010
0000
0001
0010
0001
1000
0100
,  // measure 75
0000
0000
0001
1000
0001
0000
0101
0000
,  // measure 76
1000
0010
0000
0001
0100
0001
2000
0000
,  // measure 77
3100
1000
0010
1000
0001
0010
0100
0000
,  // measure 78
0010
0001
1000
0010
1000
0001
0100
0001
,  // measure 79
1000
0100
0010
0001
0100
0001
1000
0000
,  // measure 80
0100
1000
0001
0100
0001
0010
0100
1000
,  // measure 81
0100
0000
0010
0001
0010
0000
0100
0000
,  // measure 82
0010
0001
0000
0010
0100
0010
0001
1000
,  // measure 83
0000
0000
0001
0010
0001
0000
1000
0000
,  // measure 84
0100
0010
0000
1000
0001
0010
0200
0000
,  // measure 85
0300
0000
1000
0010
0100
0000
0001
0010
,  // measure 86
0000
1000
0010
1000
0001
0010
0100
0010
,  // measure 87
0000
0000
1000
0001
0100
0000
1000
0001
,  // measure 88
0100
0010
1000
0010
0100
0001
0010
0001
;

//---------------dance-single - Geriatric Patrick---------------
#NOTEDATA:;
#CHARTNAME:;
#CHARTSTYLE:;
#CREDIT:;
#STEPSTYPE:dance-single;
#DESCRIPTION:Geriatric Patrick;
#DIFFICULTY:Easy;
#METER:3;
#METERF:3;
#RADARVALUES:0.184,0.174,0.008,0.071,0.000;
#NOTES:
// measure 0
0000
0000
0000
0000
,  // measure 1
0000
1000
0000
0001
,  // measure 2
0000
1000
0000
0001
,  // measure 3
0000
0100
0000
0001
,  // measure 4
0000
0001
0000
0100
,  // measure 5
0000
0010
0000
0100
,  // measure 6
0000
0010
0000
0010
,  // measure 7
0000
1000
0000
0001
,  // measure 8
0000
0010
0000
0001
,  // measure 9
0000
1000
0000
0100
,  // measure 10
0000
1000
0000
0010
,  // measure 11
0000
0001
0000
0100
,  // measure 12
0000
0001
0000
1000
,  // measure 13
0000
0100
0000
0010
,  // measure 14
0000
0100
0000
0100
,  // measure 15
0000
1000
0000
0001
,  // measure 16
0001
0000
0000
1001
,  // measure 17
0000
0010
0000
0100
,  // measure 18
0000
0010
0000
1000
,  // measure 19
0000
0001
0000
0010
,  // measure 20
0000
0001
0000
0100
,  // measure 21
0000
1000
0000
0010
,  // measure 22
0000
0010
0000
1000
,  // measure 23
0000
0001
0000
0001
,  // measure 24
0000
0010
0000
0100
,  // measure 25
0000
1000
0000
0001
,  // measure 26
0000
0100
0000
0001
,  // measure 27
0000
1000
0000
0100
,  // measure 28
0000
0010
0000
0100
,  // measure 29
0000
1000
0000
1000
,  // measure 30
0000
0001
0000
0100
,  // measure 31
0000
0001
0000
0001
,  // measure 32
0000
0010
0000
0100
,  // measure 33
0200
0000
0000
0000
,  // measure 34
0000
0000
0300
0000
,  // measure 35
0200
0000
0000
0000
,  // measure 36
0000
0000
0300
0000
,  // measure 37
2000
0000
0000
0000
,  // measure 38
0000
0000
3000
0000
,  // measure 39
2000
0000
0000
0000
,  // measure 40
0000
0000
3000
0000
,  // measure 41
0001
0000
0001
0000
,  // measure 42
0001
0000
0001
0000
,  // measure 43
0100
0000
0100
0000
,  // measure 44
0100
0000
0100
0000
,  // measure 45
0010
0000
0010
0000
,  // measure 46
0010
0000
0010
0000
,  // measure 47
0100
0000
0100
0000
,  // measure 48
0100
0000
0100
0000
,  // measure 49
0002
0000
0000
0000
,  // measure 50
0000
0000
0000
0003
,  // measure 51
2000
0000
0000
0000
,  // measure 52
0000
0000
0000
3000
,  // measure 53
0002
0000
0000
0000
,  // measure 54
0000
0000
0000
0003
,  // measure 55
0200
0000
0000
0000
,  // measure 56
0320
0000
0000
0000
,  // measure 57
0130
0000
0100
0000
,  // measure 58
0100
0000
0100
0000
,  // measure 59
0001
0000
0001
0000
,  // measure 60
0001
0000
0001
0000
,  // measure 61
0010
0000
0010
0000
,  // measure 62
0010
0000
0010
0000
,  // measure 63
1000
0000
1000
0000
,  // measure 64
0010
0000
0010
0000
,  // measure 65
0100
0100
0000
0001
,  // measure 66
0000
0100
0000
0001
,  // measure 67
0000
1000
0000
0100
,  // measure 68
0000
1000
0000
0100
,  // measure 69
0000
0010
0000
0100
,  // measure 70
0000
0010
0000
0001
,  // measure 71
0000
1000
0000
0010
,  // measure 72
0000
0100
0000
0010
,  // measure 73
0000
1000
0000
0100
,  // measure 74
0000
1000
0000
0010
,  // measure 75
0000
0001
0000
0100
,  // measure 76
0000
0010
0000
1000
,  // measure 77
0000
0001
0000
0010
,  // measure 78
0000
0010
0000
0001
,  // measure 79
0000
1000
0000
1000
,  // measure 80
0000
0010
0000
0100
,  // measure 81
0000
0001
0000
1000
,  // measure 82
0000
0001
0000
1000
,  // measure 83
0000
1000
0000
0001
,  // measure 84
0000
1000
0000
0100
,  // measure 85
0000
1000
0000
0010
,  // measure 86
0000
0010
0000
1000
,  // measure 87
0000
0001
0000
0010
,  // measure 88
0000
0100
0000
1000
;

//---------------dance-single - Geriatric Patrick---------------
#NOTEDATA:;
#CHARTNAME:;
#CHARTSTYLE:;
#CREDIT:;
#STEPSTYPE:dance-single;
#DESCRIPTION:Geriatric Patrick;
#DIFFICULTY:Beginner;
#METER:1;
#METERF:1;
#RADARVALUES:0.100,0.104,0.031,0.031,0.000;
#NOTES:
// measure 0
0000
0000
0000
0000
,  // measure 1
1000
0000
0000
0000
,  // measure 2
1000
0000
0000
0000
,  // measure 3
0001
0000
0000
0000
,  // measure 4
0001
0000
0000
0000
,  // measure 5
0100
0000
0000
0000
,  // measure 6
0100
0000
0000
0000
,  // measure 7
0001
0000
0000
0000
,  // measure 8
0001
0000
0000
0000
,  // measure 9
1000
0000
0000
0000
,  // measure 10
1000
0000
0000
0000
,  // measure 11
0001
0000
0000
0000
,  // measure 12
0001
0000
0000
0000
,  // measure 13
1000
0000
0000
0000
,  // measure 14
1000
0000
0000
0000
,  // measure 15
0010
0000
0000
0000
,  // measure 16
0010
0000
0000
0000
,  // measure 17
1000
0000
0000
0000
,  // measure 18
1000
0000
0000
0000
,  // measure 19
0100
0000
0000
0000
,  // measure 20
0100
0000
0000
0000
,  // measure 21
0010
0000
0000
0000
,  // measure 22
0010
0000
0000
0000
,  // measure 23
0001
0000
0000
0000
,  // measure 24
0001
0000
0000
0000
,  // measure 25
0100
0000
0000
0000
,  // measure 26
0100
0000
0000
0000
,  // measure 27
0001
0000
0000
0000
,  // measure 28
0001
0000
0000
0000
,  // measure 29
1000
0000
0000
0000
,  // measure 30
1000
0000
0000
0000
,  // measure 31
0100
0000
0000
0000
,  // measure 32
0100
0000
0000
0000
,  // measure 33
1001
0000
0000
0000
,  // measure 34
0000
0000
0000
0000
,  // measure 35
1001
0000
0000
0000
,  // measure 36
0000
0000
0000
0000
,  // measure 37
1001
0000
0000
0000
,  // measure 38
0000
0000
0000
0000
,  // measure 39
1001
0000
0000
0000
,  // measure 40
0000
0000
0000
0000
,  // measure 41
0100
0000
0000
0000
,  // measure 42
0010
0000
0000
0000
,  // measure 43
0100
0000
0000
0000
,  // measure 44
0010
0000
0000
0000
,  // measure 45
0001
0000
0000
0000
,  // measure 46
1000
0000
0000
0000
,  // measure 47
0001
0000
0000
0000
,  // measure 48
0100
0000
0000
0000
,  // measure 49
0002
0000
0000
0000
,  // measure 50
0003
0000
0000
0000
,  // measure 51
2000
0000
0000
0000
,  // measure 52
3000
0000
0000
0000
,  // measure 53
0200
0000
0000
0000
,  // measure 54
0300
0000
0000
0000
,  // measure 55
0020
0000
0000
0000
,  // measure 56
0030
0000
0000
0000
,  // measure 57
0001
0000
0000
0000
,  // measure 58
0001
0000
0000
0000
,  // measure 59
0100
0000
0000
0000
,  // measure 60
0100
0000
0000
0000
,  // measure 61
0010
0000
0000
0000
,  // measure 62
0010
0000
0000
0000
,  // measure 63
1000
0000
0000
0000
,  // measure 64
0001
0000
0000
0000
,  // measure 65
1000
0000
0000
0000
,  // measure 66
1000
0000
0000
0000
,  // measure 67
0100
0000
0000
0000
,  // measure 68
0100
0000
0000
0000
,  // measure 69
0010
0000
0000
0000
,  // measure 70
0010
0000
0000
0000
,  // measure 71
0001
0000
0000
0000
,  // measure 72
0001
0000
0000
0000
,  // measure 73
0100
0000
0000
0000
,  // measure 74
0001
0000
0000
0000
,  // measure 75
0100
0000
0000
0000
,  // measure 76
0001
0000
0000
0000
,  // measure 77
1000
0000
0000
0000
,  // measure 78
0001
0000
0000
0000
,  // measure 79
1000
0000
0000
0000
,  // measure 80
0001
0000
0000
0000
,  // measure 81
0010
0000
0000
0000
,  // measure 82
0010
0000
0000
0000
,  // measure 83
0100
0000
0000
0000
,  // measure 84
0100
0000
0000
0000
,  // measure 85
1000
0000
0000
0000
,  // measure 86
1000
0000
0000
0000
,  // measure 87
0001
0000
0000
0000
,  // measure 88
0001
0000
0100
0000
;

//---------------dance-single - Geriatric Patrick---------------
#NOTEDATA:;
#CHARTNAME:;
#CHARTSTYLE:;
#CREDIT:;
#STEPSTYPE:dance-single;
#DESCRIPTION:Geriatric Patrick;
#DIFFICULTY:Medium;
#METER:5;
#METERF:5;
#RADARVALUES:0.336,0.348,0.047,0.071,0.000;
#NOTES:
// measure 0
0000
0000
0000
0000
,  // measure 1
1000
0010
1000
0100
,  // measure 2
1000
0010
1000
0001
,  // measure 3
0000
1000
0010
0100
,  // measure 4
0010
1000
0001
0001
,  // measure 5
0000
0010
0001
1000
,  // measure 6
0010
0100
0010
1000
,  // measure 7
0000
0001
0100
0001
,  // measure 8
0010
0010
0100
0100
,  // measure 9
1000
1000
1000
1000
,  // measure 10
1000
1000
1000
1000
,  // measure 11
0000
0001
0001
0001
,  // measure 12
0001
0001
0001
0001
,  // measure 13
0000
0010
0010
0010
,  // measure 14
0010
0010
0010
0010
,  // measure 15
0000
0100
0100
0100
,  // measure 16
1000
0000
0000
1000
,  // measure 17
0010
0100
0010
0010
,  // measure 18
1000
0001
0010
0100
,  // measure 19
0000
0001
0010
0100
,  // measure 20
0010
0010
0001
0100
,  // measure 21
0000
1000
0010
1000
,  // measure 22
0001
0001
0010
0010
,  // measure 23
0000
1000
0100
1000
,  // measure 24
0010
0100
0001
0010
,  // measure 25
0100
0100
0010
0001
,  // measure 26
0100
0010
0100
1000
,  // measure 27
0000
0001
0010
0010
,  // measure 28
0001
0100
0010
0001
,  // measure 29
0000
1000
0001
1000
,  // measure 30
0100
0010
1000
0010
,  // measure 31
0000
1001
1001
1001
,  // measure 32
0010
0100
0001
0001
,  // measure 33
2000
0000
0000
0000
,  // measure 34
0000
0000
3010
0100
,  // measure 35
0002
0000
0000
0000
,  // measure 36
0000
0000
0013
0100
,  // measure 37
2000
0000
0000
0000
,  // measure 38
0000
0000
3001
0010
,  // measure 39
0200
0000
0000
0000
,  // measure 40
0000
0000
1300
0010
,  // measure 41
0100
0001
0010
0100
,  // measure 42
0001
0010
0100
0010
,  // measure 43
0001
1000
0010
0100
,  // measure 44
1000
0001
0010
0001
,  // measure 45
1000
0010
0100
0100
,  // measure 46
1000
0001
0010
0100
,  // measure 47
0001
0001
1000
1000
,  // measure 48
0001
0100
0010
0100
,  // measure 49
2000
0000
0000
0000
,  // measure 50
0000
0000
0000
3010
,  // measure 51
0200
0000
0000
0000
,  // measure 52
0000
0000
0000
0301
,  // measure 53
0020
0000
0000
0000
,  // measure 54
0000
0000
0000
0130
,  // measure 55
2000
0000
0000
0000
,  // measure 56
3020
0000
0000
0000
,  // measure 57
0130
0100
0100
0100
,  // measure 58
0100
0100
0100
0001
,  // measure 59
0010
0010
0010
0010
,  // measure 60
0010
0010
0010
0100
,  // measure 61
1000
1000
1000
1000
,  // measure 62
1000
1000
1000
0010
,  // measure 63
0100
0100
0100
0100
,  // measure 64
1000
1000
1000
1000
,  // measure 65
0100
0010
0100
0100
,  // measure 66
1000
0001
0100
0010
,  // measure 67
0000
0001
0010
0100
,  // measure 68
0010
0010
0001
0100
,  // measure 69
0000
1000
0010
1000
,  // measure 70
0001
0001
0010
0010
,  // measure 71
0000
1000
0010
1000
,  // measure 72
0100
0010
0001
0100
,  // measure 73
0010
0010
0100
0001
,  // measure 74
0010
0100
0010
1000
,  // measure 75
0000
0001
0010
0010
,  // measure 76
0001
0100
0010
0001
,  // measure 77
0000
1000
0001
1000
,  // measure 78
0100
0010
1000
0010
,  // measure 79
0000
1001
1001
1001
,  // measure 80
0100
0010
1000
1000
,  // measure 81
0001
0010
0001
0100
,  // measure 82
0001
0010
0001
1000
,  // measure 83
0000
0001
0100
0010
,  // measure 84
0100
0001
1000
1000
,  // measure 85
0000
0100
1000
0001
,  // measure 86
0100
0010
0100
0001
,  // measure 87
0000
1000
0100
1000
,  // measure 88
0010
0010
0100
0100
;
