#TITLE:Paper Planes;
#SUBTITLE:;
#ARTIST:M.I.A.;
#TITLETRANSLIT:;
#SUBTITLETRANSLIT:;
#ARTISTTRANSLIT:;
#GENRE:;
#CREDIT:;
#BANNER:Paper Planes-bn.png;
#BACKGROUND:Paper Planes-bg.png;
#LYRICSPATH:;
#CDTITLE:;
#MUSIC:Paper Planes.ogg;
#OFFSET:-0.244;
#SAMPLESTART:66.980;
#SAMPLELENGTH:16.360;
#SELECTABLE:YES;
#BPMS:0.000=86.000,81.500=172.000,83.500=86.000,84.000=-86.000,90.250=86.000,101.500=172.000,103.500=86.000,104.000=-86.000,110.250=86.000,121.500=172.000,123.500=86.000,124.000=-86.000,130.250=86.000,141.500=172.000,143.500=86.000,144.000=-86.000,150.250=86.000,225.500=172.000,227.500=86.000,228.000=-86.000,234.250=86.000,245.500=172.000,247.500=86.000,248.000=-86.000,254.250=86.000,265.500=172.000,267.500=86.000,268.000=-86.000,274.250=86.000,285.500=172.000,287.500=86.000,288.000=-86.000,294.250=86.000;
#STOPS:81.938=0.174
,82.438=0.174
,82.938=0.174
,83.438=0.174
,96.500=0.349
,101.938=0.174
,102.438=0.174
,102.938=0.174
,103.438=0.174
,116.500=0.349
,121.938=0.174
,122.438=0.174
,122.938=0.174
,123.438=0.174
,136.500=0.349
,141.938=0.174
,142.438=0.174
,142.938=0.174
,143.438=0.174
,156.500=0.349
,225.938=0.174
,226.438=0.174
,226.938=0.174
,227.438=0.174
,240.500=0.349
,245.938=0.174
,246.438=0.174
,246.938=0.174
,247.438=0.174
,260.500=0.349
,265.938=0.174
,266.438=0.174
,266.938=0.174
,267.438=0.174
,280.500=0.349
,285.938=0.174
,286.438=0.174
,286.938=0.174
,287.438=0.174
,300.500=0.349
;
#SCROLLS:0.000=1.000;
#TIMESIGNATURES:0.000=4=4;
#BGCHANGES:0.000=Paper Planes-bg.png=1.000=0=0=0=StretchNoLoop====,
8.000=Paper Planes.avi=1.000=0=0=1=====,
320.000=Paper Planes-bg.png=1.000=0=0=1=====,
99999=-nosongbg-=1.000=0=0=0 // don't automatically add -songbackground-
;
#KEYSOUNDS:;

//---------------dance-single - Geriatric Patrick----------------
#NOTES:
     dance-single:
     Geriatric Patrick:
     Hard:
     9:
     0.530,0.690,0.364,0.313,0.425:
0000
0000
0000
0000
,
0000
0000
0000
0000
,
1000
1000
1000
1000
,
1000
0000
0000
0000
1000
0000
0000
0000
1000
0000
0000
0000
1000
0001
0101
0000
,
0010
0000
0100
0000
0001
1000
0001
0000
0010
0000
0100
0000
1000
0000
0100
0010
,
0001
1000
0001
0010
1000
0100
0010
0100
0001
1000
0001
0010
0100
0000
0001
1000
,
0010
1000
0100
0000
1010
0000
0001
0000
0010
1000
0100
0000
1010
0000
0000
0100
,
0001
0000
0100
0000
0001
0000
1000
0100
0001
0100
1000
0001
0100
0000
0001
0000
,
0011
0000
0100
0000
1000
0001
1000
0000
1010
0000
0100
0000
0001
0000
1000
0010
,
0100
0100
0001
0010
0100
1000
0010
1000
0100
0100
0010
0100
1000
0000
0001
0100
,
0010
0010
0100
0000
0001
0000
0100
0000
1000
1000
0100
0000
0010
0000
0000
0100
,
0001
0000
1000
0000
0001
0000
1000
0010
0100
0010
1000
0100
0001
0000
0000
0000
,
1000
0000
0010
0000
0100
0000
0010
0000
1000
0001
0010
0000
0100
0000
0000
0000
,
0001
0100
1000
0010
0100
0000
1000
0100
0010
1000
0001
0000
0100
0000
0000
0000
,
0001
0010
1000
0010
0100
0001
0000
0100
0010
1000
0010
0000
0001
0000
0000
0000
,
1000
0010
0001
0000
0100
0010
0001
0000
0100
0001
0010
0000
1000
0000
0000
0000
,
0001
0000
1000
0000
1010
0000
0100
0000
0001
0100
0010
0000
1010
0000
0000
0000
,
0100
0001
1000
0001
0010
0000
1000
0001
0100
0001
1000
0000
0011
0000
0000
0000
,
0100
1000
0010
0100
0001
0001
0000
0100
0010
1000
0010
0000
0101
0000
0000
0000
,
0001
0010
0100
0000
0100
0010
0001
0000
0010
0100
0010
0000
1001
0000
0000
0000
,
0100
0001
0010
0100
0010
0001
1MM1
0000
1MM1
0000
1MM1
0000
1MM1
0000
1000
0010
,
0000
0000
0000
0000
,
0000
0000
0000
0000
,
0000
0000
0000
0000
,
0000
0000
0000
0000
1100
0000
0001
0000
0001
0000
0010
0200
1000
0000
0000
0300
,
1000
0100
0010
0001
1000
0001
MM11
0000
MM11
0000
11MM
0000
11MM
0000
0001
0100
,
0000
0000
0000
0000
,
0000
0000
0000
0000
,
0000
0000
0000
0000
,
0000
0000
0000
0000
0110
0000
0100
0000
0001
0000
0100
0020
1000
0000
0000
0030
,
0100
0001
0010
0001
1000
0001
MM11
0000
M11M
0000
MM11
0000
11MM
0000
0001
0010
,
0000
0000
0000
0000
,
0000
0000
0000
0000
,
0000
0000
0000
0000
,
0000
0000
0000
0000
1010
0000
0001
0000
0100
0000
0001
0020
0100
0000
0000
0030
,
0001
0100
0010
1000
0100
1000
1M1M
0000
M1M1
0000
1MM1
0000
M1M1
0000
0010
1000
,
0000
0000
0000
0000
,
0000
0000
0000
0000
,
0000
0000
0000
0000
,
0000
0000
0000
0000
1001
0000
1000
0000
0001
0000
0001
2000
0001
0000
3000
0000
,
0002
0203
2300
3200
0302
0000
0003
0000
,
2000
3200
0320
2030
3002
0023
0230
0300
,
0100
0010
0001
0000
2000
0000
3020
0000
0032
0000
0000
0000
0003
0000
0000
0000
,
2000
0000
3020
0000
0230
0000
2300
0000
3100
0010
1000
0000
0101
0000
0000
0000
,
2000
3020
0032
0023
2030
0000
3000
0000
,
0002
0023
0230
0302
2003
3200
0320
0030
,
0100
0010
1000
0000
0002
0000
0023
0000
2030
0000
0000
0000
3000
0000
0000
0000
,
0002
0000
0023
0000
0230
0000
0302
0000
0103
0010
0001
0000
1100
0000
0000
0000
,
0010
0001
1000
0100
0001
0010
0100
0000
0001
0001
0100
0000
1000
0000
0000
0000
,
0001
0100
0010
1000
0100
1000
0010
0000
0100
0000
0001
0010
0100
0000
0000
0001
,
1000
0000
1000
0001
0010
0100
0001
0000
0010
0100
1000
0000
0011
0000
0000
1000
,
0001
0100
0001
1000
0100
0000
0010
0000
1000
0001
0100
0000
1100
0000
0000
0000
,
0001
0010
0100
1000
0010
0010
0100
0000
0001
0001
0100
0000
1100
0000
0000
0000
,
0001
0010
0100
1000
0010
0010
0100
0000
0010
0000
0001
0100
1000
0000
0000
0001
,
1000
0000
1000
0001
0010
0010
0100
0000
1000
0010
0001
0000
0110
0000
0000
0001
,
0010
0100
0001
0100
0010
0000
0001
0000
0010
0100
1000
0000
1010
0000
0000
0000
,
0001
0100
0010
1000
0100
1000
1M1M
0000
M11M
0000
1M1M
0000
M11M
0000
0001
0010
,
0000
0000
0000
0000
,
0000
0000
0000
0000
,
0000
0000
0000
0000
,
0000
0000
0000
0000
0101
0000
1000
0000
1000
0000
0010
0200
0001
0000
0000
0300
,
0001
1000
0010
1000
0001
0100
M11M
0000
M1M1
0000
1M1M
0000
M1M1
0000
1000
0100
,
0000
0000
0000
0000
,
0000
0000
0000
0000
,
0000
0000
0000
0000
,
0000
0000
0000
0000
0110
0000
0100
0000
1000
0000
0100
0020
0001
0000
0000
0030
,
0100
1000
0010
1000
0001
0100
M11M
0000
M1M1
0000
M11M
0000
M1M1
0000
1000
0010
,
0000
0000
0000
0000
,
0000
0000
0000
0000
,
0000
0000
0000
0000
,
0000
0000
0000
0000
0011
0000
1000
0000
0100
0000
1000
0020
0100
0000
0000
0030
,
1000
0010
0001
0010
0100
0010
MM11
0000
1M1M
0000
MM11
0000
1M1M
0000
0010
0001
,
0000
0000
0000
0000
,
0000
0000
0000
0000
,
0000
0000
0000
0000
,
0000
0000
0000
0000
1001
0000
0001
0000
1000
0000
1000
0002
1000
0000
0003
0000
,
0020
0001
0000
0001
,
0000
0001
0000
0032
,
0203
0001
0000
0001
,
0000
0000
0000
0000
0001
0000
0000
0000
0000
0000
0000
0000
0001
0000
0000
0300
,
0M00
0000
0000
0000
;

//---------------dance-single - Geriatric Patrick----------------
#NOTES:
     dance-single:
     Geriatric Patrick:
     Medium:
     7:
     0.348,0.434,0.256,0.045,0.026:
0000
0000
0000
0000
,
0000
0000
0000
0000
,
0100
0100
0100
0100
,
0100
0000
0100
0000
0100
0000
0100
0010
,
1000
0001
0010
0010
0001
1000
0001
0010
,
0100
1000
0010
1000
0100
0100
0010
0100
,
1000
0001
0010
0001
1000
0001
0010
0000
,
1000
0100
1000
1000
0001
0100
0001
0010
,
0100
1000
0010
0010
0100
0010
1000
0001
,
0010
0100
0010
0010
0001
0100
0001
1000
,
0100
0010
0001
0010
0100
0010
0001
0000
,
1000
0010
0100
0010
1000
1000
0001
0000
,
0010
0010
0001
0010
0001
0001
0100
0000
,
1000
0010
1000
1000
0001
0010
0100
0000
,
0001
1000
0010
0000
0001
1000
0010
0000
,
0100
0001
0010
0001
0100
0001
1000
0000
,
0100
0100
0010
0001
0100
0100
0010
0000
,
0001
0010
0100
0100
1000
0010
0100
0000
,
1000
0001
0010
0000
1000
0100
0010
0000
,
1000
0001
0100
0001
1000
0001
0010
0000
,
1000
0010
0100
0110
0110
0110
0110
0001
,
0000
M00M
0000
0000
0000
0000
0000
0000
,
0000
0000
0000
0000
,
0000
0000
0000
0000
,
0000
0000
0000
0000
1001
0000
1000
0000
0010
0000
0000
0010
0000
0000
0000
0000
,
1000
0100
1000
1001
1001
1001
1001
0010
,
0000
0MM0
0000
0000
0000
0000
0000
0000
,
0000
0000
0000
0000
,
0000
0000
0000
0000
,
0000
0000
0000
0000
0110
0000
0100
0000
1000
0000
0000
1000
0000
0000
0000
0000
,
0001
0010
0100
1100
1100
1100
1100
0001
,
0000
00MM
0000
0000
0000
0000
0000
0000
,
0000
0000
0000
0000
,
0000
0000
0000
0000
,
0000
0000
0000
0000
0011
0000
0010
0000
0100
0000
0000
0100
0000
0000
0000
0000
,
0001
0100
0001
0011
0011
0011
0011
0100
,
0000
MM00
0000
0000
0000
0000
0000
0000
,
0000
0000
0000
0000
,
0000
0000
0000
0000
,
0000
0000
0000
0000
1100
0000
1000
0000
0001
0000
0000
0001
0000
0000
0000
0000
,
1000
0100
0010
0100
2000
0000
3000
0000
,
0001
0100
0010
0100
0001
1000
0010
0000
,
0100
0100
0001
0010
0002
0000
0003
0000
,
1000
0100
0010
0001
0010
0100
1000
0000
,
0001
0010
1000
0010
0002
0000
0003
0000
,
1000
0100
0010
0100
0001
0100
0010
0000
,
1000
1000
0010
0100
0002
0000
0003
0000
,
1000
0100
0010
1000
0010
0100
1000
0000
,
0001
0010
0100
0100
1000
0010
0100
0000
,
1000
0001
0010
0010
0100
1000
0001
0000
,
1000
0100
0010
0100
1000
0001
0010
0000
,
1000
1000
0010
1000
0001
0010
0100
0000
,
0001
0100
0010
0010
1000
0100
0010
0000
,
1000
0001
0100
0100
0001
0010
0100
0000
,
0001
1000
0010
1000
0100
1000
0010
0000
,
0100
0100
0001
0100
0001
0001
1000
0000
,
0001
0100
0001
0011
0011
0011
0011
0100
,
0000
M00M
0000
0000
0000
0000
0000
0000
,
0000
0000
0000
0000
,
0000
0000
0000
0000
,
0000
0000
0000
0000
1001
0000
0001
0000
0010
0000
0000
0010
0000
0000
0000
0000
,
0100
0010
0001
0110
0110
0110
0110
0001
,
0000
MM00
0000
0000
0000
0000
0000
0000
,
0000
0000
0000
0000
,
0000
0000
0000
0000
,
0000
0000
0000
0000
1100
0000
1000
0000
0001
0000
0000
0001
0000
0000
0000
0000
,
1000
0100
1000
1010
1010
1010
1010
0001
,
0000
0MM0
0000
0000
0000
0000
0000
0000
,
0000
0000
0000
0000
,
0000
0000
0000
0000
,
0000
0000
0000
0000
0110
0000
0100
0000
1000
0000
0000
1000
0000
0000
0000
0000
,
0001
0010
0100
1001
1001
1001
1001
0010
,
0000
M00M
0000
0000
0000
0000
0000
0000
,
0000
0000
0000
0000
,
0000
0000
0000
0000
,
0000
0000
0000
0000
1001
0000
0001
0000
0100
0000
0000
0100
0000
0000
0000
0000
,
0020
1000
0000
1000
,
0000
1000
0000
2030
,
3200
0010
0000
0010
,
0000
0010
0000
0010
,
0300
0000
0000
0000
;
