#TITLE:Open Your Eyes;
#SUBTITLE:;
#ARTIST:Guano Apes;
#TITLETRANSLIT:;
#SUBTITLETRANSLIT:;
#ARTISTTRANSLIT:;
#GENRE:;
#CREDIT:;
#BANNER:Open Your Eyes-bn.png;
#BACKGROUND:Open Your Eyes-bg.png;
#LYRICSPATH:;
#CDTITLE:;
#MUSIC:Open Your Eyes.ogg;
#OFFSET:1.120;
#SAMPLESTART:62.040;
#SAMPLELENGTH:17.100;
#SELECTABLE:YES;
#BPMS:0.000=111.475;
#STOPS:;
#SCROLLS:0.000=1.000;
#TIMESIGNATURES:0.000=4=4;
#BGCHANGES:0.000=Open Your Eyes-bg.png=1.000=0=0=0=StretchNoLoop====,
19.500=Open Your Eyes.avi=1.000=0=0=0=StretchNoLoop====,
344.000=Open Your Eyes-bg.png=1.000=0=0=0=StretchNoLoop====,
99999=-nosongbg-=1.000=0=0=0 // don't automatically add -songbackground-
;
#KEYSOUNDS:;

//---------------dance-single - Geriatric Patrick----------------
#NOTES:
     dance-single:
     Geriatric Patrick:
     Challenge:
     10:
     0.800,0.841,1.000,0.033,0.650:
0000
0000
0000
0000
,
0000
0000
0000
0000
,
0000
0000
0000
0000
,
0000
0000
0000
0000
,
0000
0000
0000
0000
0000
0000
0011
1000
,
0100
0000
0000
0000
0110
0000
0100
0000
1000
0001
0100
0000
0101
0000
0001
0000
,
1000
0000
0000
0000
1100
0000
0100
0000
0010
0001
0010
0000
0110
0000
0100
0000
,
1000
0000
0100
0000
0110
0000
0010
0000
0100
1000
0001
0000
1001
0000
0001
0000
,
0100
0000
0000
0000
0011
0000
0001
0000
0010
0100
0010
0001
1000
0010
1000
0001
,
0010
0000
0100
0000
0110
0000
0010
0000
0100
1000
0001
0000
0101
0000
0100
0000
,
0010
0000
0000
0000
1001
0000
0001
0000
0010
0100
1000
0000
1010
0000
0010
0000
,
0100
0000
0010
0000
1001
0000
0001
0000
0010
0100
0010
0000
0011
0000
0001
0000
,
0100
0000
0000
0000
0011
0000
0001
0000
1000
0001
0010
0001
0100
0010
0001
0010
,
1000
0000
0010
0000
1010
0000
0010
0100
0001
0000
0100
0001
0010
0000
0000
0000
,
0100
0000
0010
0000
0011
0000
0001
1000
0010
1000
0001
0010
0100
0000
0000
0000
,
0001
0000
0100
0000
0110
0000
0100
0001
1000
0000
0001
0100
0010
0000
0000
0000
,
1000
0000
0100
0000
1001
0000
0001
0010
0100
0000
0101
0000
0010
0000
0011
0000
,
1000
0010
0100
0010
1010
1000
0001
0010
0100
1000
0100
0010
0011
0001
1000
0010
,
0100
0001
0010
0001
0101
0100
0010
1000
0001
0010
0001
1000
1100
0000
0000
0000
,
0001
1000
0100
1000
1001
0001
0100
0010
1000
0100
1000
0001
0011
0010
0100
1000
,
0010
0100
0001
0100
0110
0010
1000
0001
0100
0000
1001
0000
0100
0000
0011
0000
,
1000
0100
0010
0001
0101
0100
0010
0100
0001
1000
0100
1000
1001
0001
0100
0010
,
1000
0001
0010
0100
1100
1000
0001
1000
0100
0010
1000
0010
0110
0000
0000
0000
,
0001
1000
0010
0100
0101
0001
0010
0001
1000
0010
0100
0010
1010
1000
0100
0010
,
0001
0100
0010
1000
1001
0001
0100
0001
1000
0000
0101
0000
1000
0000
0110
0000
,
1000
0001
0010
0100
1100
1000
0010
0100
1000
0100
0010
1000
1001
0001
0010
0100
,
1000
0001
0100
0010
0110
0100
0001
0010
0100
0010
0001
1000
1010
0000
0000
0000
,
0001
1000
0100
0010
0011
0001
1000
0010
0100
0010
1000
0001
0101
0000
1000
0000
,
1100
0001
0100
0011
0100
0001
1002
0000
0000
0023
0000
0000
,
0230
0000
0000
0000
1310
0000
0100
0000
1000
0001
1000
0000
0110
0000
0100
0000
,
1000
0000
0000
0000
0011
0000
1000
0000
0010
0100
0010
0000
1001
0000
1000
0000
,
0010
0000
0100
0000
1010
0000
0001
0000
0010
0100
0010
0000
1001
0000
0001
0000
,
0100
0000
0000
0000
0011
0000
0100
0000
1000
0000
0001
0010
0001
1000
0001
0010
,
0100
1000
0100
0000
1010
0000
1000
0000
0001
0100
0001
0000
0110
0000
0100
0000
,
0001
0000
0000
0000
1010
0000
0001
0000
0010
0100
0010
0000
1001
0000
0001
0000
,
0100
0000
0010
0000
0011
0000
0100
0000
0001
1000
0001
0000
1100
0000
0100
0000
,
0010
0000
0000
0000
1001
0000
0010
0000
0100
0001
0100
0000
1010
0000
1000
0000
,
0100
0000
0000
0000
0011
0000
0001
0000
1000
0100
0000
0100
0010
0000
0000
0000
,
1000
0000
0000
0000
0011
0000
0001
0000
1000
0010
0000
0010
0100
0001
0100
0010
,
1000
0000
0000
0000
0101
0000
0001
0000
1000
0100
0000
0100
0010
0000
0100
0000
,
0001
0000
0000
0000
0110
0000
0100
1000
0001
0000
0101
0000
0010
0000
0011
0000
,
1000
0010
0100
0001
0011
0010
0100
1000
0010
1000
0001
0010
0110
0100
1000
0001
,
0100
0001
0010
0100
1100
1000
0010
0100
0001
0100
0010
1000
0110
0010
1000
0001
,
0100
0001
0010
0100
1100
1000
0010
0100
0001
0100
0010
1000
1001
0001
0010
0100
,
1000
0100
0010
0001
0101
0100
0010
1000
0001
0000
0110
0000
0001
0000
1010
0000
,
0001
0010
0100
0010
0011
0001
1000
0010
0100
0001
1000
0100
1001
1000
0100
0010
,
0001
0100
0010
0100
0101
0001
0010
0100
1000
0001
0100
0010
1010
1000
0001
0010
,
0100
1000
0010
1000
1100
0100
0010
0001
0100
0010
1000
0001
1010
1000
0001
0010
,
0100
1000
0001
1000
1100
0100
0010
0001
1000
0000
0101
0000
1000
0000
0110
0000
,
1000
0001
0010
0100
1100
1000
0001
0100
0001
0010
0100
1000
0011
0001
1000
0010
,
0100
0001
1000
0100
0110
0010
0001
1000
0001
0100
0010
1000
0101
0001
0010
0100
,
1000
0001
0100
0010
1010
1000
0001
0010
0001
1000
0010
0100
1001
0000
0100
0000
,
1010
0010
0001
1100
0100
0010
1002
0000
0000
0023
0000
0000
,
0230
0000
0000
0000
0311
0000
0001
0000
1000
0010
1000
0000
0110
0000
0100
0000
,
0001
0000
0000
0000
1010
0000
1000
0000
0001
0010
0100
0000
0110
0000
0001
0000
,
1000
0000
0001
0000
0101
0000
1000
0000
0100
0010
0100
0000
1001
0000
1000
0000
,
0010
0000
0000
0000
0110
0000
0001
0000
1000
0100
0010
0001
0100
0001
1000
0100
,
1000
0000
0100
0000
0011
0000
0001
0000
0100
0010
0100
0000
1010
0000
1000
0000
,
0001
0000
0000
0000
0110
0000
1000
0000
0100
1000
0001
0000
0101
0000
0001
0000
,
0010
0000
0100
0000
0011
0000
0001
0000
1000
0100
1000
0000
0110
0000
0100
0000
,
1000
0000
0000
0000
1001
0000
0100
0000
0000
1000
0001
0100
0010
0100
0001
1000
,
11M0
1100
0001
11M0
1100
0000
M111
0110
,
0000
M110
0111
0000
11M0
1100
0001
1100
,
11M0
0000
1011
1M10
0000
1010
1M11
0000
,
0110
M110
0001
0110
M110
0000
1011
1010
,
000M
1010
1011
0M00
1100
1100
00M1
1100
,
1100
000M
0111
0110
000M
0110
0111
0000
,
11M0
1100
0001
1M10
1010
0000
1011
1M10
,
0000
11M0
1101
0000
1111
0000
111M
0000
,
11MM
0000
0000
0000
0011
0000
0001
0000
0100
0010
0100
0000
0011
0000
0010
0000
,
1000
0000
0000
0000
0101
0000
0001
0000
0010
1000
0010
0000
0110
0000
0001
0000
,
1000
0000
0001
0000
1100
0000
0010
0000
0001
0100
0001
0000
1010
0000
0010
0000
,
0001
0000
0000
0000
1010
0000
0001
0000
0010
0000
0100
1000
0010
1000
0100
0010
,
0001
0100
0001
0000
1001
0000
1000
0000
0100
0010
1000
0000
1010
0000
0100
0000
,
1000
0000
0000
0000
0011
0000
0001
0000
1000
0010
0100
0000
1100
0000
0010
0000
,
0100
0000
0010
0000
1001
0000
1000
0000
0001
0010
0100
0000
0101
0000
0100
0000
,
1000
0000
0000
0000
0011
0000
0010
0000
0100
0000
0001
0100
0010
0000
0100
0000
,
1000
0000
0000
0000
0110
0000
0100
0000
1000
0001
0100
0000
1100
0000
0010
0000
,
1000
0000
0000
0000
0101
0000
1000
0000
0100
1000
0010
0000
0011
0000
0100
0000
,
0001
0000
0001
0000
1010
0000
1000
0000
0100
0010
1000
0000
0110
0000
0001
0000
,
0100
0000
0000
0000
1001
0000
1000
0000
0100
0000
1000
0001
0100
0010
0001
0010
,
0100
0001
0100
0000
1010
0000
0010
0000
0100
0001
0010
0000
1010
0000
0100
0000
,
1000
0000
0000
0000
0110
0000
1000
0000
0001
0100
1000
0000
0011
0000
0100
0000
,
0001
0000
0100
0000
1010
0000
0100
0000
1000
0100
0001
0000
0110
0000
0001
0000
,
1000
0000
0000
0000
0101
0000
1000
0000
0000
0001
0100
0010
0001
0010
0100
0001
,
1MM1
1MM1
0010
1MM1
1MM1
0000
1M11
1MM1
;

//---------------dance-single - Geriatric Patrick----------------
#NOTES:
     dance-single:
     Geriatric Patrick:
     Hard:
     9:
     0.612,0.677,0.365,0.049,0.566:
0000
0000
0000
0000
,
0000
0000
0000
0000
,
0000
0000
0000
0000
,
0000
0000
0000
0000
,
0000
0000
0000
0000
,
1001
0000
0000
0000
0001
0000
0010
0000
0001
1000
0000
0000
0010
0000
1000
0000
,
1100
0000
0000
0000
0010
0000
0100
0000
1000
0100
0000
0000
0010
0000
0001
0000
,
0101
0000
0000
0000
1000
0000
0100
0000
0010
0001
0000
0000
1000
0000
0010
0000
,
0110
0000
0000
0000
0001
0000
1000
0000
0000
0001
0010
0001
1000
0100
1000
0000
,
0010
0000
0000
0000
0101
0000
0000
0000
1000
0100
0000
0000
0001
0000
0010
0000
,
0110
0000
0000
0000
0001
0000
1000
0000
0001
0100
0000
0000
0010
0000
1000
0000
,
1100
0000
0000
0000
0010
0000
0100
0000
1000
0100
0000
0000
0010
0000
0001
0000
,
1001
0000
0000
0000
0010
0000
1000
0000
0000
0100
1000
0001
0010
0001
1000
0001
,
0100
0101
0000
0011
,
0000
0101
0000
1010
,
0000
0101
0000
0011
,
0000
0000
0101
0000
1000
0010
0001
0010
,
1000
0100
0010
0001
0100
0001
0010
0100
1000
0001
0100
0010
1000
0010
0100
0001
,
0010
0100
1000
0001
0100
0001
1000
0100
0010
0001
0100
0001
0010
0000
0000
0000
,
0001
1000
0010
0100
0001
0100
0010
1000
0001
0010
0100
1000
0010
1000
0100
0010
,
0001
0100
0010
1000
0001
1000
0010
0100
0001
0000
0100
0000
1000
0000
0010
0000
,
0001
0010
0100
1000
0010
1000
0100
0010
0001
1000
0010
0100
0001
0100
0010
1000
,
0100
0010
0001
1000
0010
1000
0001
0010
0100
1000
0001
1000
0100
0000
0000
0000
,
0010
0001
1000
0010
0100
0010
1000
0001
0010
0100
1000
0010
0100
0010
1000
0001
,
0010
0100
1000
0001
0100
0001
1000
0100
0010
0000
1000
0000
0010
0000
0001
0000
,
1000
0010
0100
0001
0010
0001
0100
0010
1000
0001
0010
0100
1000
0100
0010
0001
,
0100
0010
1000
0001
0010
0001
1000
0010
0100
0001
0010
0001
1000
0000
0000
0000
,
0001
0010
0100
1000
0010
1000
0100
0010
0001
0100
0010
1000
0010
0000
1000
0000
,
0001
0100
0100
1000
0100
0100
0020
0000
0000
2030
0000
0000
,
3200
0000
0000
0000
0310
0000
0100
0000
1000
0100
0000
0000
0010
0000
0100
0000
,
1100
0000
0000
0000
0010
0000
0100
0000
0001
0100
0000
0000
0010
0000
1000
0000
,
1100
0000
0000
0000
0010
0000
0001
0000
0010
0100
0000
0000
0001
0000
0100
0000
,
1100
0000
0000
0000
0001
0000
1000
0000
0100
0000
0010
0001
1000
0001
0010
0100
,
1000
0100
1000
0000
0010
0000
0100
0000
0001
0100
0000
0000
0010
0000
1000
0000
,
1001
0000
0000
0000
0010
0000
0100
0000
1000
0100
0000
0000
0001
0000
1000
0000
,
1100
0000
0000
0000
0010
0000
0001
0000
0010
0100
0000
0000
0010
0000
0001
0000
,
1001
0000
0000
0000
0010
0000
1000
0000
0100
0000
1000
0010
1000
0000
0001
0000
,
0100
0110
0000
0011
,
0000
0110
0000
1010
,
0000
0110
0000
1001
,
0000
0000
0110
0000
0001
0010
1000
0010
,
0001
0100
0010
1000
0001
0010
0100
1000
0001
0100
0010
0100
0001
1000
0100
1000
,
0010
0100
0001
1000
0100
0010
0001
1000
0010
0000
0010
0000
0101
0000
0000
0000
,
1000
0001
0010
0100
1000
0001
0100
0010
1000
0001
0010
0001
0100
0001
0010
0001
,
1000
0100
0010
0001
1000
0010
0100
0001
1000
0000
0100
0000
0001
0000
0010
0000
,
1000
0010
0100
0001
1000
0100
0010
0001
1000
0010
0100
0010
1000
0100
0010
0100
,
1000
0001
0100
0010
1000
0001
0010
0100
1000
0000
0001
0000
0101
0000
0000
0000
,
0010
1000
0001
0010
0100
1000
0001
0100
0010
1000
0001
0010
0100
1000
0010
0100
,
0001
0100
0010
1000
0001
0010
0100
1000
0010
0000
0100
0000
1000
0000
0100
0000
,
0001
0010
0100
1000
0010
0100
0001
0010
0100
0010
0001
1000
0010
1000
0001
0010
,
0100
1000
0010
0100
0001
0010
0100
1000
0010
1000
0100
0010
0001
0000
0000
0000
,
1000
0010
0100
0001
0010
0001
0100
0010
1000
0100
0010
0001
0100
0000
0001
0000
,
1000
0100
0100
0001
0100
0100
0020
0000
0000
0032
0000
0000
,
0203
0000
0000
0000
0301
0000
0010
0000
0100
1000
0000
0000
0010
0000
0100
0000
,
0101
0000
0000
0000
0010
0000
1000
0000
0010
0100
0000
0000
0001
0000
0010
0000
,
0110
0000
0000
0000
1000
0000
0010
0000
0100
0001
0000
0000
0010
0000
0001
0000
,
0101
0000
0000
0000
0010
0000
0100
0000
0000
1000
0010
1000
0001
0010
0100
1000
,
0001
0100
0001
0000
0010
0000
0001
0000
1000
0100
0000
0000
0001
0000
0010
0000
,
0110
0000
0000
0000
1000
0000
0010
0000
1000
0100
0000
0000
0010
0000
0001
0000
,
1001
0000
1000
0000
0010
0000
0100
0000
0001
0100
0000
0000
0010
0000
0100
0000
,
1100
0000
0000
0000
0001
0000
0100
0000
0000
0100
0010
1000
0001
1000
0010
1000
,
0100
0100
0010
0100
0100
0000
1001
0001
,
0000
0100
1001
0000
0010
0010
0100
0010
,
0010
0000
0101
1000
0000
1000
0101
0000
,
1000
1000
0100
1000
1000
0000
0110
1000
,
0000
0001
0011
0000
0100
0100
0010
0100
,
0100
0000
1010
0001
0000
0001
0110
0000
,
1000
1000
0001
1000
1000
0000
0110
0100
,
0000
0100
0110
0001
0020
0000
0032
0000
,
0203
0000
0000
0000
0310
0000
0100
0000
0001
0100
0000
0000
0010
0000
1000
0000
,
1001
0000
0000
0000
0010
0000
0100
0000
1000
0100
0000
0000
0010
0000
0100
0000
,
1100
0000
0000
0000
0010
0000
1000
0000
0001
0100
0000
0000
1000
0000
0100
0000
,
0110
0000
0000
0000
1000
0000
0001
0000
0100
0000
0001
1000
0010
1000
0001
0010
,
0100
0010
0100
0000
1000
0000
0100
0000
1000
0010
0000
0000
0100
0000
0010
0000
,
1010
0000
0000
0000
0001
0000
0010
0000
0100
1000
0000
0000
0001
0000
1000
0000
,
1010
0000
0000
0000
0100
0000
0010
0000
1000
0001
0000
0000
0010
0000
0100
0000
,
1100
0000
0000
0000
0010
0000
0001
0000
0100
0000
0001
0010
0001
0000
1000
0000
,
0100
0000
0000
0000
0011
0000
0010
0000
0100
1000
0000
0000
0011
0000
0001
0000
,
0100
0000
0000
0000
1010
0000
1000
0000
0001
0010
0000
0000
0110
0000
0100
0000
,
1000
0000
0000
0000
1001
0000
0001
0000
0100
0001
0000
0000
0110
0000
0100
0000
,
0001
0000
0000
0000
1010
0000
0001
0000
0000
0000
1000
0010
1000
0001
0100
0000
,
0001
0000
0000
0000
0110
0000
0100
0000
0001
0010
0000
0000
0011
0000
0100
0000
,
1000
0000
0000
0000
0011
0000
0001
0000
0100
0010
0000
0000
0110
0000
1000
0000
,
0001
0000
0000
0000
1010
0000
1000
0000
0001
0010
0000
0000
1100
0000
0001
0000
,
0100
0000
0000
0000
0110
0000
0001
0000
0000
0000
1000
0010
1000
0010
1000
0000
,
0001
0001
0010
0100
0100
0000
0011
0100
;

//---------------dance-single - ----------------
#NOTES:
     dance-single:
     :
     Medium:
     7:
     0.406,0.350,0.207,0.261,0.000:
0000
0000
0000
0000
,
0000
0000
0000
0000
,
0000
0000
0000
0000
,
0000
0000
0000
0000
,
0000
0000
0000
0000
,
0100
0000
0110
0000
0001
0010
0100
1000
,
0010
0000
1010
0000
1000
0100
0010
0001
,
0100
0000
0101
0000
0001
0010
0100
0010
,
0001
0000
1001
0000
1000
0010
1000
0010
,
1000
0000
0110
0000
0010
1000
0100
0010
,
0001
0000
0011
0000
0010
0100
1000
0010
,
0100
0000
1010
0000
1000
0001
0010
0001
,
1000
0000
1001
0000
0010
0100
0001
0100
,
1000
1100
0000
1100
,
0000
1100
0000
1100
,
0000
0110
0000
0110
,
0000
0101
0000
0011
,
1000
0000
0010
1000
0001
0010
0100
1000
,
0001
0000
1000
0100
0010
0000
0110
0000
,
1000
0000
0010
0100
0001
1000
0100
0010
,
0001
0000
0010
0100
1000
0001
1000
0001
,
0100
0000
0001
0010
0100
1000
0001
0100
,
0010
0000
0100
0001
0010
0100
1000
0010
,
0100
0000
0010
1000
0001
0010
0100
1000
,
0001
0000
1000
0100
0010
0001
1000
0001
,
0010
0000
0001
0100
0010
1000
0001
0010
,
0100
0000
0010
0001
0100
0010
1000
0100
,
0010
0000
0100
1000
0001
0100
0010
0000
,
0100
0100
1010
0110
,
0101
0000
0000
0020
0000
0100
0130
2000
,
0000
0000
3000
0020
0000
1000
1030
0200
,
0000
0000
0300
0002
0000
1000
1003
0020
,
0000
0100
1030
0002
0000
0010
0013
0002
,
0000
0000
0003
2000
0000
0010
3010
0200
,
0000
0000
0300
0002
0000
1000
1003
0200
,
0000
0000
0300
0020
0000
0100
0130
0002
,
0000
0000
1003
0200
0000
0010
0310
0200
,
0000
1300
0000
1100
,
0000
0001
0000
1001
,
0000
0010
0000
0110
,
0000
0001
0000
0011
,
1000
0000
0010
1000
0100
0010
0001
0100
,
0001
0000
0010
0100
1000
1000
0010
0100
,
0001
0000
1000
0100
0010
0001
1000
0010
,
1000
0000
0001
0010
0100
0100
1000
0001
,
0100
0000
1000
0010
0100
0001
0010
0100
,
0010
0000
0001
0100
0010
1000
0100
0010
,
0001
0000
1000
0010
0100
0001
1000
0100
,
1000
0000
0001
0010
0100
1000
0001
1000
,
0100
0000
1000
0010
0100
0001
0010
0001
,
0100
0000
0010
0100
0001
0010
0100
0010
,
0001
0000
1000
0010
0100
0001
1000
0001
,
0100
0100
0011
0110
,
1100
0000
0000
0020
0000
1000
1030
0002
,
0000
0000
0003
0020
0000
0100
0130
2000
,
0000
0000
3000
0020
0000
0100
0130
0002
,
0000
0010
1003
0200
0000
1000
1300
0200
,
0000
0000
0300
0020
0000
0100
0130
2000
,
0000
0000
3000
0020
0000
0001
0031
0200
,
0000
0000
0300
2000
0000
0010
3010
0200
,
0000
0000
1300
0020
0000
0130
0010
0200
,
0001
0301
0000
1000
1000
0000
0100
0100
,
0000
0010
0010
0000
1000
1000
0000
0010
,
0010
0000
0100
0100
0000
0001
0001
0000
,
0010
0010
0000
0100
0100
0000
1000
1000
,
0000
0010
0010
0000
0001
0001
0000
0010
,
0010
0000
0100
0100
0000
1000
1000
0000
,
0010
0010
0000
0100
0100
0000
0010
0010
,
0000
0100
0100
0000
1010
0000
1001
0000
,
1100
0000
0001
1000
0100
0010
0001
0010
,
0100
0000
0010
0001
1000
0010
0100
0001
,
1000
0000
0100
0010
1000
0100
0010
0100
,
1000
0000
0100
0010
0001
0100
0010
1000
,
0100
1000
0001
0010
0100
1000
0001
0100
,
0001
0000
1000
0100
0010
0001
1000
0010
,
0100
0000
1000
0100
0010
0001
0100
0010
,
0100
0000
0001
0010
0100
1000
0010
0100
,
0001
0000
0000
0120
0000
1030
0001
0020
,
0000
0000
0030
1002
0000
0013
0100
2000
,
0000
0000
3000
1020
0000
1030
0001
2000
,
0000
3010
0100
0002
0000
0013
0001
0020
,
0000
0000
0030
2001
0000
3010
0100
2000
,
0000
3000
0000
0012
0000
1003
0100
0002
,
0000
0000
0003
0021
0000
0130
0001
0200
,
0000
0000
1300
0020
0000
0130
0010
0200
,
1000
1300
0000
0001
0001
0000
1001
1001
;
