#TITLE:Nyan Cat;
#SUBTITLE:;
#ARTIST:Some Japanese Guy;
#TITLETRANSLIT:;
#SUBTITLETRANSLIT:;
#ARTISTTRANSLIT:;
#GENRE:;
#CREDIT:;
#BANNER:Nyan Cat-bn.png;
#BACKGROUND:Nyan Cat-bg.png;
#LYRICSPATH:;
#CDTITLE:;
#MUSIC:Nyan Cat.ogg;
#OFFSET:-0.810;
#SAMPLESTART:4.180;
#SAMPLELENGTH:13.240;
#SELECTABLE:YES;
#BPMS:0.000=141.880;
#STOPS:;
#SCROLLS:0.000=1.000;
#TIMESIGNATURES:0.000=4=4;
#BGCHANGES:8.000=Nyan Cat.avi=1.000=0=0=0=StretchNoLoop====,
99999=-nosongbg-=1.000=0=0=0 // don't automatically add -songbackground-
;
#KEYSOUNDS:;

//---------------dance-single - Geriatric Patrick----------------
#NOTES:
     dance-single:
     Geriatric Patrick:
     Challenge:
     11:
     1.000,0.818,0.070,0.000,1.000:
0000
0000
0000
0000
,
0000
0000
0000
0000
,
0011
0000
0001
0000
1000
0010
0000
0001
0100
0001
0100
0000
1000
0000
0001
0000
,
0010
0000
0001
0100
0010
0100
0001
0100
0010
1000
0001
1000
0100
1000
0001
1000
,
0010
0000
0010
0000
1000
0001
0100
0001
0010
0001
0100
0010
1000
0010
0100
0001
,
0010
0000
0100
0001
1000
0100
0010
0100
1000
0001
0100
0000
1000
0000
0100
0000
,
0001
0000
0010
0000
1000
0010
0000
0001
0100
0001
0100
0000
1000
0000
0001
0000
,
0010
0000
0001
0100
0010
0100
0001
0100
0010
1000
0001
1000
0100
1000
0001
1000
,
0010
0000
0010
0000
1000
0001
0100
0001
0010
0001
0100
0010
1000
0010
0100
0001
,
0010
0000
0100
0001
1000
0100
0010
0100
1000
0001
0100
0000
1000
0000
1000
0000
,
1000
0000
0100
0001
1000
0000
0100
0001
1000
0100
0010
0100
1000
0100
0010
0001
,
0100
0000
0100
0000
1000
0100
0001
0100
0010
1000
0010
1000
0001
0010
0100
0010
,
0001
0000
0100
0010
0001
0000
0100
0010
0001
0001
1000
0010
0100
0010
1000
0001
,
0010
0000
0010
0100
0010
0001
1000
0001
0010
0001
1000
0010
1000
0000
0100
0000
,
1000
0000
0100
0001
1000
0000
0100
0001
1000
0100
0010
0100
1000
0100
0010
0001
,
0100
0000
0100
0000
1000
0100
0001
0100
0010
1000
0010
1000
0001
0010
0100
0010
,
0001
0000
0100
0010
0001
0000
0100
0010
0001
0001
1000
0010
0100
0010
1000
0001
,
0010
0000
0010
0100
0010
0001
1000
0001
0010
0001
1000
0010
0100
0000
0001
0000
,
0011
0000
0001
0000
1000
0010
0000
0001
0100
0001
0100
0000
1000
0000
0001
0000
,
0010
0000
0001
0100
0010
0100
0001
0100
0010
1000
0001
1000
0100
1000
0001
1000
,
0010
0000
0010
0000
1000
0001
0100
0001
0010
0001
0100
0010
1000
0010
0100
0001
,
0010
0000
0100
0001
1000
0100
0010
0100
1000
0001
0100
0000
1000
0000
0100
0000
,
0001
0000
0010
0000
1000
0010
0000
0001
0100
0001
0100
0000
1000
0000
0001
0000
,
0010
0000
0001
0100
0010
0100
0001
0100
0010
1000
0001
1000
0100
1000
0001
1000
,
0010
0000
0010
0000
1000
0001
0100
0001
0010
0001
0100
0010
1000
0010
0100
0001
,
0010
0000
0100
0001
1000
0100
0010
0100
1000
0001
0100
0000
1000
0000
1000
0000
,
1000
0000
0100
0001
1000
0000
0100
0001
1000
0100
0010
0100
1000
0100
0010
0001
,
0100
0000
0100
0000
1000
0100
0001
0100
0010
1000
0010
1000
0001
0010
0100
0010
,
0001
0000
0100
0010
0001
0000
0100
0010
0001
0001
1000
0010
0100
0010
1000
0001
,
0010
0000
0010
0100
0010
0001
1000
0001
0010
0001
1000
0010
1000
0000
0100
0000
,
1000
0000
0100
0001
1000
0000
0100
0001
1000
0100
0010
0100
1000
0100
0010
0001
,
0100
0000
0100
0000
1000
0100
0001
0100
0010
1000
0010
1000
0001
0010
0100
0010
,
0001
0000
0100
0010
0001
0000
0100
0010
0001
0001
1000
0010
0100
0010
1000
0001
,
0010
0000
0010
0100
0010
0001
1000
0001
0010
0001
1000
0010
0100
0000
0001
0000
,
0011
0000
0001
0000
1000
0010
0000
0001
0100
0001
0100
0000
1000
0000
0001
0000
,
0010
0000
0001
0100
0010
0100
0001
0100
0010
1000
0001
1000
0100
1000
0001
1000
,
0010
0000
0010
0000
1000
0001
0100
0001
0010
0001
0100
0010
1000
0010
0100
0001
,
0010
0000
0100
0001
1000
0100
0010
0100
1000
0001
0100
0000
1000
0000
0100
0000
,
0001
0000
0010
0000
1000
0010
0000
0001
0100
0001
0100
0000
1000
0000
0001
0000
,
0010
0000
0001
0100
0010
0100
0001
0100
0010
1000
0001
1000
0100
1000
0001
1000
,
0010
0000
0010
0000
1000
0001
0100
0001
0010
0001
0100
0010
1000
0010
0100
0001
,
0010
0000
0100
0001
1000
0100
0010
0100
1000
0001
0100
0000
0110
0000
0001
0000
,
1001
0000
0000
0000
;

//---------------dance-single - Geriatric Patrick----------------
#NOTES:
     dance-single:
     Geriatric Patrick:
     Hard:
     9:
     0.821,0.643,0.028,0.000,0.668:
0000
0000
0000
0000
,
0000
0000
0000
0000
,
1010
0000
0010
0000
1000
0001
0000
0001
1000
0100
1000
0000
0100
0000
0010
0000
,
0001
0000
0100
1000
0001
0000
0100
0000
0010
0000
0010
0000
0100
0000
0100
0001
,
1000
0000
0100
0000
0010
0100
1000
0000
0001
0000
0100
0000
0010
0000
0100
0001
,
1000
0000
0100
1000
0001
0000
0010
0000
0001
1000
0001
0000
1000
0000
0001
0000
,
1000
0000
0010
0000
1000
0001
0000
0001
1000
0100
1000
0000
0100
0000
0010
0000
,
0001
0000
0100
1000
0001
0000
0100
0000
0010
0000
0010
0000
0100
0000
0100
0001
,
1000
0000
0100
0000
0010
0100
1000
0000
0001
0000
0100
0000
0010
0000
0100
0001
,
1000
0000
0100
1000
0001
0000
0010
0000
0001
1000
0001
0000
1000
0000
1000
0000
,
1000
0000
0100
1000
0001
0000
0100
1000
0001
0000
1000
0000
0010
0000
0010
0100
,
0001
0000
0001
0000
0100
0001
1000
0000
0010
0000
1000
0000
0100
0000
1000
0001
,
0010
0000
0001
1000
0010
0000
1000
0001
0010
0000
0100
0000
0001
0000
0100
1000
,
0001
0000
0001
1000
0001
0000
0100
0000
0010
0000
1000
0001
0010
0000
0100
0000
,
1000
0000
0100
1000
0001
0000
0100
1000
0001
0000
1000
0000
0010
0000
0010
0100
,
0001
0000
0001
0000
0100
0001
1000
0000
0010
0000
1000
0000
0100
0000
1000
0001
,
0010
0000
0001
1000
0010
0000
1000
0001
0010
0000
0100
0000
0001
0000
0100
1000
,
0001
0000
0001
1000
0001
0000
0100
0000
0001
1000
0010
1000
0100
0000
1000
0000
,
0001
0000
0010
0000
0001
1000
0000
1000
0001
0100
0001
0000
0100
0000
0010
0000
,
1000
0000
0100
0001
1000
0000
0100
0000
0010
0000
0010
0000
0100
0000
0100
1000
,
0001
0000
0100
0000
0010
0100
0001
0000
1000
0000
0100
0000
0010
0000
0100
1000
,
0001
0000
0100
0001
1000
0000
0010
0000
1000
0001
1000
0000
0001
0000
1000
0000
,
0001
0000
0010
0000
0001
1000
0000
1000
0001
0100
0001
0000
0100
0000
0010
0000
,
1000
0000
0100
0001
1000
0000
0100
0000
0010
0000
0010
0000
0100
0000
0100
1000
,
0001
0000
0100
0000
0010
0100
0001
0000
1000
0000
0100
0000
0010
0000
0100
1000
,
0001
0000
0100
0001
1000
0000
0010
0000
1000
0001
1000
0000
0001
0000
0001
0000
,
0001
0000
0100
0001
1000
0000
0100
0001
1000
0000
0001
0000
0010
0000
0010
0100
,
1000
0000
1000
0000
0100
1000
0001
0000
0010
0000
0001
0000
0100
0000
0001
1000
,
0010
0000
1000
0001
0010
0000
0001
1000
0010
0000
0100
0000
1000
0000
0100
0001
,
1000
0000
1000
0001
1000
0000
0100
0000
0010
0000
0001
1000
0010
0000
0100
0000
,
0001
0000
0100
0001
1000
0000
0100
0001
1000
0000
0001
0000
0010
0000
0010
0100
,
1000
0000
1000
0000
0100
1000
0001
0000
0010
0000
0001
0000
0100
0000
0001
1000
,
0010
0000
1000
0001
0010
0000
0001
1000
0010
0000
0100
0000
1000
0000
0100
0001
,
1000
0000
1000
0001
1000
0000
0100
0000
1000
0001
0010
0001
0100
0000
0001
0000
,
1000
0000
0010
0000
1000
0001
0000
0001
1000
0100
1000
0000
0100
0000
0010
0000
,
0001
0000
0100
1000
0001
0000
0100
0000
0010
0000
0010
0000
0100
0000
0100
0001
,
1000
0000
0100
0000
0010
0100
1000
0000
0001
0000
0100
0000
0010
0000
0100
0001
,
1000
0000
0100
1000
0001
0000
0010
0000
0001
1000
0001
0000
1000
0000
0001
0000
,
1000
0000
0010
0000
1000
0001
0000
0001
1000
0100
1000
0000
0100
0000
0010
0000
,
0001
0000
0100
1000
0001
0000
0100
0000
0010
0000
0010
0000
0100
0000
0100
0001
,
1000
0000
0100
0000
0010
0100
1000
0000
0001
0000
0100
0000
0010
0000
0100
0001
,
1000
0000
0100
1000
0001
0000
0010
0000
0001
1000
0001
0000
1000
0000
0100
0000
,
0110
0000
0000
0000
;

//---------------dance-single - Geriatric Patrick----------------
#NOTES:
     dance-single:
     Geriatric Patrick:
     Medium:
     7:
     0.679,0.496,0.014,0.000,0.139:
0000
0000
0000
0000
,
0000
0000
0000
0000
,
0001
0001
1000
1000
0001
0001
0010
0010
,
0100
0000
0100
0000
0001
0000
0001
0000
0100
0010
0100
0000
0010
0000
0001
0000
,
1000
1000
0001
0001
1000
1000
0010
0010
,
0100
0000
0100
0000
1000
0000
1000
0000
0100
0010
0100
0000
0010
0000
1000
0000
,
0001
0001
1000
1000
0001
0001
0010
0010
,
0100
0000
0100
0000
0001
0000
0001
0000
0100
0010
0100
0000
0010
0000
0001
0000
,
1000
1000
0001
0001
1000
1000
0010
0010
,
0100
0000
0100
0000
1000
0000
1000
0000
0100
0010
0100
0000
0010
0000
1000
0000
,
0001
0001
1000
1000
0001
0001
0010
0010
,
0100
0000
0100
0000
0001
0000
0001
0000
0100
0010
0100
0000
0010
0000
0001
0000
,
1000
1000
0001
0001
1000
1000
0010
0010
,
0100
0000
0100
0000
1000
0000
1000
0000
0100
0010
0100
0000
0010
0000
1000
0000
,
0001
0001
1000
1000
0001
0001
0010
0010
,
0100
0000
0100
0000
0001
0000
0001
0000
0100
0010
0100
0000
0010
0000
0001
0000
,
1000
1000
0001
0001
1000
1000
0010
0010
,
0100
0000
0100
0000
1000
0000
1000
0000
0100
0010
0100
0000
0010
0000
1000
0000
,
0001
0001
1000
1000
0001
0001
0010
0010
,
0100
0000
0100
0000
0001
0000
0001
0000
0100
0010
0100
0000
0010
0000
0001
0000
,
1000
1000
0001
0001
1000
1000
0010
0010
,
0100
0000
0100
0000
1000
0000
1000
0000
0100
0010
0100
0000
0010
0000
1000
0000
,
0001
0001
1000
1000
0001
0001
0010
0010
,
0100
0000
0100
0000
0001
0000
0001
0000
0100
0010
0100
0000
0010
0000
0001
0000
,
1000
1000
0001
0001
1000
1000
0010
0010
,
0100
0000
0100
0000
1000
0000
1000
0000
0100
0010
0100
0000
0010
0000
1000
0000
,
0001
0001
1000
1000
0001
0001
0010
0010
,
0100
0000
0100
0000
0001
0000
0001
0000
0100
0010
0100
0000
0010
0000
0001
0000
,
1000
1000
0001
0001
1000
1000
0010
0010
,
0100
0000
0100
0000
1000
0000
1000
0000
0100
0010
0100
0000
0010
0000
1000
0000
,
0001
0001
1000
1000
0001
0001
0010
0010
,
0100
0000
0100
0000
0001
0000
0001
0000
0100
0010
0100
0000
0010
0000
0001
0000
,
1000
1000
0001
0001
1000
1000
0010
0010
,
0100
0000
0100
0000
1000
0000
1000
0000
0100
0010
0100
0000
0010
0000
1000
0000
,
0001
0001
1000
1000
0001
0001
0010
0010
,
0100
0000
0100
0000
0001
0000
0001
0000
0100
0010
0100
0000
0010
0000
0001
0000
,
1000
1000
0001
0001
1000
1000
0010
0010
,
0100
0000
0100
0000
1000
0000
1000
0000
0100
0010
0100
0000
0010
0000
1000
0000
,
0001
0001
1000
1000
0001
0001
0010
0010
,
0100
0000
0100
0000
0001
0000
0001
0000
0100
0010
0100
0000
0010
0000
0001
0000
,
1000
1000
0001
0001
1000
1000
0010
0010
,
0100
0000
0100
0000
1000
0000
1000
0000
0100
0010
0100
0000
0010
0000
1000
0000
,
1001
0000
0000
0000
;

//---------------dance-single - Geriatric Patrick----------------
#NOTES:
     dance-single:
     Geriatric Patrick:
     Easy:
     5:
     0.491,0.380,0.848,0.000,0.000:
0000
0000
0000
0000
,
0000
0000
0000
0000
,
0001
0011
0100
1100
,
0001
0000
0011
0000
1000
0100
0010
0000
,
1000
1010
0100
0101
,
1000
0000
1010
0000
0001
0100
0010
0000
,
0001
0011
1000
1100
,
0001
0000
0011
0000
1000
0100
0010
0000
,
1000
1010
0001
0101
,
1000
0000
1010
0000
0001
0100
0010
0100
,
0001
0011
0100
1100
,
0001
0000
0011
0000
1000
0001
0010
0000
,
1000
1010
0100
0101
,
1000
0000
1010
0000
0001
1000
0010
0000
,
0001
0011
1000
1100
,
0001
0000
0011
0000
1000
0001
0010
0000
,
1000
1010
0001
0101
,
1000
0000
1010
0000
0001
0100
0010
1000
,
0100
0011
0100
1100
,
0001
0000
0011
0000
1000
0100
0010
0000
,
1000
1010
0100
0101
,
1000
0000
1010
0000
0001
0100
0010
0000
,
0001
0011
1000
1100
,
0001
0000
0011
0000
1000
0100
0010
0000
,
1000
1010
0001
0101
,
1000
0000
1010
0000
0001
1000
0010
1000
,
0001
0011
0100
1100
,
0001
0000
0011
0000
1000
0001
0010
0000
,
1000
1010
0100
0101
,
1000
0000
1010
0000
0001
1000
0010
0000
,
0001
0011
1000
1100
,
0001
0000
0011
0000
1000
0001
0010
0000
,
1000
1010
0001
0101
,
1000
0000
1010
0000
0001
0100
0010
1000
,
0100
0011
0100
1100
,
0001
0000
0011
0000
1000
0100
0010
0000
,
1000
1010
0100
0101
,
1000
0000
1010
0000
0001
0100
0010
0000
,
0001
0011
0100
1100
,
0001
0000
0011
0000
1000
0100
0010
0000
,
1000
1010
0100
0101
,
1000
0000
1010
0000
0001
0100
0010
1000
,
1001
0000
0000
0000
;

//---------------dance-single - Geriatric Patrick----------------
#NOTES:
     dance-single:
     Geriatric Patrick:
     Beginner:
     3:
     0.322,0.234,0.014,0.000,0.000:
0000
0000
0000
0000
,
0000
0000
0000
0000
,
1000
1000
0010
0010
,
0100
0100
0001
0001
,
0010
0010
0100
0100
,
1000
1000
0001
1000
,
0001
0001
0010
0010
,
0100
0100
1000
1000
,
0010
0010
0100
0100
,
0001
0001
1000
0001
,
0100
0100
0010
0010
,
0100
0100
0001
1000
,
0001
0001
0010
0010
,
0001
0001
0100
1000
,
0100
0100
0010
0010
,
0100
0100
1000
0001
,
1000
1000
0010
0010
,
1000
1000
0100
0001
,
1000
1000
0010
0010
,
0100
0100
0001
0001
,
0010
0010
0100
0100
,
1000
1000
0001
1000
,
0001
0001
0010
0010
,
0100
0100
1000
1000
,
0010
0010
0100
0100
,
0001
0001
1000
0001
,
0100
0100
0010
0010
,
0100
0100
0001
1000
,
0001
0001
0010
0010
,
0001
0001
0100
1000
,
0100
0100
0010
0010
,
0100
0100
1000
0001
,
1000
1000
0010
0010
,
1000
1000
0100
0001
,
1000
1000
0010
0010
,
0100
0100
0001
0001
,
0010
0010
0100
0100
,
1000
1000
0001
1000
,
0001
0001
0010
0010
,
0100
0100
1000
1000
,
0010
0010
0100
0100
,
0001
0001
1000
0001
,
1001
0000
0000
0000
;
