#TITLE:Numbers;
#SUBTITLE:(I Can Only Count to Four);
#ARTIST:Psychostick;
#TITLETRANSLIT:;
#SUBTITLETRANSLIT:;
#ARTISTTRANSLIT:;
#GENRE:;
#CREDIT:;
#BANNER:Numbers-bn.png;
#BACKGROUND:Numbers-bg.png;
#LYRICSPATH:;
#CDTITLE:;
#MUSIC:Numbers.ogg;
#OFFSET:-0.892;
#SAMPLESTART:60.360;
#SAMPLELENGTH:14.800;
#SELECTABLE:YES;
#BPMS:0.000=65.000,7.500=130.000,16.000=131.000,23.000=135.000,24.000=131.000,28.000=130.500,32.000=130.000,36.000=126.000,40.000=130.000,48.000=130.500,52.000=131.000,56.000=131.600,88.000=131.300,92.000=131.200,96.000=131.100,100.000=131.000,108.000=130.000,112.000=128.000,116.000=129.000,120.000=130.000,132.000=125.000,134.000=130.000,135.000=135.000,136.000=130.000,148.000=125.000,150.000=130.000,151.000=135.000,152.000=126.000,156.000=127.000,160.000=128.000,164.000=129.000,168.000=130.000,184.000=131.000,188.000=132.000,192.000=131.000,216.000=130.000,228.000=128.000,232.000=129.500,264.000=130.500,272.000=130.500,280.000=131.500,304.000=124.000,308.000=130.000,312.000=127.500,344.000=129.000;
#STOPS:7.500=0.880
;
#SCROLLS:0.000=1.000;
#TIMESIGNATURES:0.000=4=4;
#BGCHANGES:0.000=Numbers-bg.png=1.000=0=0=0=StretchNoLoop====,
7.750=Numbers.avi=1.000=0=0=0=StretchNoLoop====,
580.000=Numbers-bg.png=1.000=0=0=1=Centered====,
99999=-nosongbg-=1.000=0=0=0 // don't automatically add -songbackground-
;
#KEYSOUNDS:;

//---------------dance-single - Geriatric Patrick----------------
#NOTES:
     dance-single:
     Geriatric Patrick:
     Challenge:
     10:
     0.655,0.710,0.970,0.204,0.398:
1000
0100
0010
0001
0010
0100
1000
0000
1000
0100
0010
0001
0010
0100
1000
0000
,
1000
0100
0010
0001
0010
0100
1000
0000
1000
0100
0010
0001
0010
0100
0000
0000
,
1001
0000
0000
0001
0010
0000
0001
0000
0000
0000
0100
0000
0110
0000
0010
0000
,
1000
0000
0000
1000
0001
0000
0010
0000
0000
0000
0001
0000
1001
0000
1000
0000
,
0100
0000
0000
1000
0010
0000
0100
0000
0000
0000
0100
0000
1010
0000
1000
0000
,
0100
0000
0000
1000
0001
0000
0100
0000
0000
0000
0100
0000
0001
0010
0001
0010
,
0001
0000
0000
0000
,
0010
0010
0010
0010
,
2200
0000
00M0
000M
00M0
000M
00M0
300M
,
0310
0000
0100
0010
0000
0100
0010
0000
0001
0000
1000
0010
0100
0010
1000
0010
,
0100
0000
0000
0001
1000
0000
0001
0000
0000
0000
0100
0000
1010
0000
1000
0000
,
0001
0000
0000
0001
0010
0000
0100
0000
0000
0000
0010
0000
0011
0000
0001
0000
,
1000
0000
0000
1000
0010
0000
1000
0000
0000
0000
0001
0000
1010
0000
0010
0000
,
0100
0000
0000
1000
0001
0000
0100
0000
1001
0000
0100
0000
0010
1000
0010
1000
,
0001
0000
0000
0001
0010
0000
0100
0000
0000
0001
1000
0000
0010
0000
0100
0000
,
0001
0000
0000
0001
1000
0000
0100
0000
0000
0000
0010
0000
1000
0000
0010
0000
,
0001
0000
0000
1000
0010
0000
1000
0000
0000
0000
0100
0000
0001
0000
0100
0000
,
0010
0000
0000
1000
0100
0000
0010
0000
0000
0000
1000
0000
0001
0000
0100
0010
,
1000
0000
0000
0010
0100
0000
0010
0000
0000
1000
0001
0000
0010
0000
0100
0000
,
0001
0000
0000
0010
0001
0000
1000
0000
0000
0000
0010
0000
0001
0000
0010
0000
,
1000
0000
0000
0001
0010
0000
0001
0000
0000
0000
0100
0000
0010
0000
0001
0000
,
0010
0000
1000
0001
1000
0000
0001
1000
0010
0000
1000
0001
1000
0000
0001
0000
,
0111
0000
1000
0100
0010
0001
0010
0000
,
1100
0000
0010
0001
0100
0001
1000
0000
,
0110
0000
0001
0010
0100
1000
0100
0000
,
0011
0000
1010
0110
1001
0101
1010
0000
,
11M1
0000
0000
0000
1000
0000
0100
0000
1000
0000
0001
0010
0000
0000
0000
0000
,
M11M
0000
0000
0000
1000
0000
0001
0000
0100
0000
0001
0010
0000
0000
0000
0000
,
11MM
0000
0000
0000
0001
0000
1000
0000
0001
0000
1000
0010
0000
0000
0000
0000
,
M2M2
0000
0000
1000
0010
0000
1000
0000
0010
0000
1000
0000
0010
1000
0010
1000
,
0313
0000
1001
1001
1010
1010
0110
0110
,
0101
0000
1010
1010
1001
1001
0110
0110
,
0101
0000
1001
1001
1100
1100
0011
0011
,
0220
0000
0000
0000
0001
0000
0000
0000
0000
0000
0000
0000
1330
0001
1000
0001
,
0100
0000
0011
1001
1010
1001
0011
0011
,
0101
0000
1010
0101
1001
0101
1010
1010
,
0011
0000
0110
1001
1010
1001
0110
0110
,
2002
0000
0000
0000
0010
0000
0000
0000
0000
0000
0000
0000
3013
0100
0010
0100
,
0001
0000
0000
0001
1000
0000
0100
0000
0000
0000
1000
0000
1010
0000
0010
0000
,
0100
0000
0000
0010
1000
0000
0001
0000
0000
0000
1000
0000
0110
0000
0010
0000
,
100M
000M
000M
100M
001M
000M
010M
000M
000M
000M
010M
000M
101M
000M
001M
000M
,
0100
0000
0000
0100
0010
0000
0100
0000
1010
0000
0100
0000
0001
0010
0001
0010
,
0100
0000
0000
0000
,
1000
0000
0020
0000
,
0230
0000
03M0
0000
,
0M00
0000
0000
0000
,
0012
0000
0000
0000
,
1003
0000
0020
0000
,
0230
0000
0302
2003
3200
0000
0300
0000
,
0000
0000
1000
0001
0010
0000
0001
1000
0001
0000
1000
0001
0010
0000
0001
0000
,
0101
0000
0000
0M0M
0000
0000
0101
0000
0000
0M0M
0000
0000
0101
0000
0000
0000
2000
0000
0000
0000
0000
0000
0000
0000
0000
0000
0000
0000
3000
0000
0000
0000
,
1100
0000
0000
MM00
0000
0000
1100
0000
0000
MM00
0000
0000
1100
0000
0000
0000
0020
0000
0000
0000
0000
0000
0000
0000
0000
0000
0000
0000
0030
0000
0000
0000
,
1001
0000
0000
M00M
0000
0000
1001
0000
0000
M00M
0000
0000
1001
0000
0000
0000
0200
0000
0000
0000
0000
0000
0000
0000
0000
0000
0000
0000
0300
0000
0000
0000
,
0110
0000
0000
0MM0
0000
0000
0110
0000
0000
0MM0
0000
0000
0110
0000
0000
0000
0002
0000
0000
0000
0000
0000
0000
0000
0000
0000
0000
0000
0003
0000
0000
0000
,
1110
0000
0000
1MM0
0000
0000
1MM0
0000
0004
0000
0000
0000
0000
0000
0003
0000
,
1101
0000
0000
M10M
0000
0000
M10M
0000
0040
0000
0000
0000
0000
0000
0030
0000
,
0111
0000
0000
0MM1
0000
0000
0MM1
0000
4000
0000
0000
0000
0000
0000
3000
0000
,
2200
0000
0000
0000
0011
0000
0000
0000
0011
0000
0000
0000
0001
0010
0001
0010
,
3301
0000
0110
0110
0011
0011
1100
1100
,
1001
0000
0101
0101
1010
1010
1001
1001
,
0110
0000
1100
1100
1010
1010
0110
0110
,
2002
0000
0000
0000
0010
0000
0000
0000
0000
0000
0000
0000
3013
0100
0010
0100
,
0001
0000
1010
1001
0011
0011
0110
1100
,
0110
0000
1001
0101
1010
1010
1001
0011
,
1001
0000
1100
0110
1001
1001
0011
0011
,
1100
0000
0000
1000
0010
0000
0100
0000
0000
0000
0100
0000
0010
0000
0100
0000
,
1001
0001
0100
0220
0000
0330
0110
0MM0
,
0000
0000
0001
0000
1000
0010
0000
1000
0001
0000
1000
0010
0100
0010
1000
0001
,
0010
0001
0100
2000
0000
3000
1100
MM00
,
0000
0000
1000
0000
0001
0100
0000
0100
1000
0000
0001
0100
0010
1000
0010
0100
,
0001
0001
0010
0002
0000
0003
0011
00MM
,
0000
0000
0100
0000
0001
1000
0000
1000
0010
0000
0100
0001
0010
0001
0100
0010
,
1000
0001
0001
0200
0300
0M00
0220
0000
,
0000
0000
0002
0000
,
1333
0000
0001
0010
0001
0010
0001
0010
,
0001
0000
1000
0100
0010
0001
0010
0100
,
2200
0000
0001
0010
0001
0010
0001
0010
,
3311
0000
0000
0011
0000
0000
0011
0000
0011
0000
0000
0000
0100
1000
0001
0100
,
0002
0000
MM10
1000
M000
1000
MM10
0000
,
M1M0
0000
1MM0
0100
0M00
0100
1MM0
0000
,
M1M0
0000
MM10
1000
M000
1000
MM10
0000
,
M1M0
0000
1MM0
0100
0M00
0100
1MM0
0000
,
M1M3
0000
0000
0000
0110
0000
0100
0000
0000
0010
0000
0100
0010
0000
0100
0000
,
0001
0000
0000
0000
1010
0000
0001
0000
0000
1000
0000
0010
0100
0000
0010
0000
,
1000
0000
0000
0000
0101
0000
0001
0000
0000
0010
0000
0001
0010
0000
0001
0000
,
0100
0000
0000
0001
1000
0000
0001
0000
1100
0000
0001
0000
0010
0100
0010
0100
,
1000
0000
0001
0100
1000
0100
0010
0000
,
1100
0000
0010
0100
1000
0100
0001
0000
,
1110
0000
0001
0010
0100
1000
0010
0000
,
1111
0000
1010
0101
1010
0110
1001
0000
,
M111
0000
0000
000M
0000
0000
0001
0000
0000
000M
0000
0000
0001
0000
0000
0000
0000
0000
0000
0000
1000
0000
0010
0000
1000
0000
0010
0000
1000
0000
0000
0000
,
11M1
0000
0000
0M00
0000
0000
0100
0000
0000
0M00
0000
0000
0100
0000
0000
0000
0000
0000
0000
0000
1000
0000
0010
0000
1000
0000
0001
0000
0100
0000
0000
0000
,
1110
0000
0000
00M0
0000
0000
0010
0000
0000
00M0
0000
0000
0010
0000
0000
0000
0000
0000
0000
0000
0001
0000
0010
0000
0100
0000
1000
0000
0100
0000
0000
0000
,
0110
0000
0010
0000
1100
0000
0100
0000
1001
0000
0100
0000
0001
0010
0001
0010
,
0100
0000
1MM1
0100
MM11
1000
M11M
0001
,
11MM
0000
1M1M
0100
1MM1
0010
M1M1
1000
,
M11M
0000
1MM1
0010
M1M1
1000
MM11
0100
,
2MM2
0000
0MM0
0000
0M10
0000
0MM0
0000
0MM0
0000
0MM0
0000
3013
0001
0010
0001
,
1000
0000
11MM
M11M
1MM1
MM11
1M1M
M11M
,
1MM1
0000
M1M1
11MM
MM11
M11M
1MM1
M1M1
,
1M1M
0000
MM11
M11M
1MM1
11MM
M1M1
1M1M
,
M11M
0000
0000
0000
0001
0000
0000
0000
0000
0000
0000
0000
0001
1000
0100
1000
,
002M
000M
000M
000M
010M
000M
000M
000M
0M00
000M
000M
000M
1130
0000
0000
0000
,
002M
000M
000M
000M
010M
000M
000M
000M
0M00
000M
000M
000M
1031
0000
0000
0000
,
002M
000M
000M
000M
010M
000M
000M
000M
0M00
000M
000M
000M
0131
0000
0000
0000
,
002M
000M
000M
000M
010M
000M
000M
000M
0M00
000M
000M
000M
1031
0000
0000
0000
;

//---------------dance-single - Geriatric Patrick----------------
#NOTES:
     dance-single:
     Geriatric Patrick:
     Hard:
     8:
     0.446,0.473,0.358,0.204,0.070:
0000
0000
0000
0000
,
0000
0000
0000
0000
,
1001
0000
0010
0100
0000
1000
0001
0100
,
0100
0000
1000
0100
0000
0010
0001
0010
,
0100
0000
0001
0100
0000
0001
0010
0100
,
0100
0000
0001
0100
0000
1000
0010
0100
,
0100
0000
0000
0000
,
0010
0010
0010
0010
,
0202
0000
0000
0000
0000
0000
0000
0003
,
0310
0000
0000
0010
0000
0000
0010
0000
0010
0000
0000
0000
0010
0000
0010
0000
,
1000
0000
0001
0100
0000
0100
0010
1000
,
0100
0000
0010
0100
0000
1000
0001
0001
,
0100
0000
0010
0100
0000
0001
0010
0001
,
0100
0000
0010
1000
0001
1000
0010
0010
,
0200
0000
0000
0300
,
0002
0003
0020
0000
,
0230
0000
03M0
0000
,
0M00
0000
0000
0000
,
2000
0000
0000
0000
,
3001
0000
2000
0000
,
3020
0000
0230
0302
0203
0000
0000
0000
,
0300
0001
0001
0001
,
1010
0000
1000
0100
0010
0001
0010
0000
,
1100
0000
0010
0001
0100
0001
1000
0000
,
0110
0000
0001
0010
0100
1000
0100
0000
,
1001
0000
0010
0100
0010
0100
0010
0000
,
1100
0000
0000
0000
0001
0000
0100
0000
0001
0000
1000
0100
0000
0000
0000
0000
,
0011
0000
0000
0000
1000
0000
0001
0000
0100
0000
0001
0010
0000
0000
0000
0000
,
0110
0000
0000
0000
0001
0000
1000
0000
0001
0000
1000
0010
0000
0000
0000
0000
,
0202
0000
0000
0000
0000
0000
0000
0003
,
0301
0000
1001
1000
0010
0100
0110
0010
,
1000
0000
1001
0001
0010
0100
0110
0010
,
0001
0000
1001
1000
0010
0100
0110
0100
,
0002
0000
0000
0000
0000
0000
1000
1003
,
0100
0000
0110
0100
1000
0001
1001
0001
,
0100
0000
0110
0100
0001
1000
1001
1000
,
0100
0000
0110
0010
0001
1000
1010
0010
,
0200
0000
0000
0000
0000
0000
0010
0310
,
0100
1010
1000
1001
,
0010
0101
0001
1001
,
0020
0100
0001
0130
,
1000
0000
0011
0000
1010
0000
0001
0010
,
0100
0000
0010
0100
0000
0100
1000
0010
,
0100
0000
0010
1000
0000
0010
0100
0010
,
1000
0000
0010
1000
0000
0001
0010
0100
,
1000
0000
0100
0010
0000
1000
0001
1000
,
0100
0000
0010
1000
0000
0010
0100
0010
,
0001
0000
0100
1000
0000
0100
0001
0010
,
0100
0000
0001
0100
0000
0010
0001
0010
,
0100
0100
0100
0100
,
1001
0000
0000
0001
0000
0000
0001
0000
0020
0000
0000
0000
0000
0000
0030
0000
,
1100
0000
0000
0100
0000
0000
0100
0000
0020
0000
0000
0000
0000
0000
0030
0000
,
1001
0000
0000
0001
0000
0000
0001
0000
0200
0000
0000
0000
0000
0000
0300
0000
,
0110
0000
0000
0010
0000
0000
0010
0000
2000
0000
0000
0000
0000
0000
3000
0000
,
0101
0000
0000
000M
0000
0000
0001
0000
0000
000M
0000
0000
0001
0000
0000
0000
0020
0000
0000
0000
0000
0000
0000
0000
0000
0000
0000
0000
0030
0000
0000
0000
,
1100
0000
0000
0M00
0000
0000
0100
0000
0000
0M00
0000
0000
0100
0000
0000
0000
0020
0000
0000
0000
0000
0000
0000
0000
0000
0000
0000
0000
0030
0000
0000
0000
,
1001
0000
0000
000M
0000
0000
0001
0000
0000
000M
0000
0000
0001
0000
0000
0000
0200
0000
0000
0000
0000
0000
0000
0000
0000
0000
0000
0000
0300
0000
0000
0000
,
2020
0000
0000
0000
0000
0000
0000
0030
,
3100
0000
0011
0001
1000
0001
0101
0100
,
0010
0000
1010
1000
0100
1000
1001
0001
,
0100
0000
0011
0001
1000
0010
0110
0010
,
2000
0000
0000
0000
0000
0000
0010
3010
,
0100
0000
0110
0010
1000
0001
0101
0001
,
1000
0000
1100
1000
0001
0100
0110
0100
,
0001
0000
1010
1000
0100
0010
0011
0010
,
0100
0000
0001
0100
0000
0100
0010
0000
,
1001
0001
0100
0020
0000
0000
0130
0M00
,
0000
0000
1000
0000
0000
1000
0000
0000
0001
0000
0000
0000
0000
0000
0100
0000
,
0010
0010
0100
0002
0000
0000
0103
0M00
,
0000
0000
0010
0000
0000
0010
0000
0000
0100
0000
0000
0000
0000
0000
0001
0000
,
1000
1000
0001
0020
0000
0000
0031
000M
,
0000
0000
0100
0000
0000
0100
0000
0000
1000
0000
0000
0000
1000
0000
0100
0000
,
0001
0001
0100
0002
0000
0003
0000
0100
,
2000
0000
0000
0100
0000
0000
0002
0000
0000
0000
0000
0000
0000
0000
0000
0000
,
3103
0000
0001
1000
0001
1000
0001
1000
,
0001
0000
0001
1000
0001
1000
0001
1000
,
0MM1
0MM0
0MM1
1MM0
0MM1
1MM0
0MM1
1MM0
,
0010
0000
0000
0010
0000
0000
0010
0000
0010
0000
0000
0000
0010
0000
0010
0000
,
0200
0010
00M1
0010
,
10M0
0010
00M1
0010
,
10M0
0010
00M1
0010
,
10M0
0010
00M1
0010
,
13M0
0000
0000
0000
0010
0000
0100
0000
0000
0010
0000
0000
0010
0000
0100
0000
,
0001
0000
0000
0000
0010
0000
0001
0000
0000
0010
0000
0000
0010
0000
0001
0000
,
1000
0000
0000
0000
0001
0000
0100
0000
0000
0001
0000
0000
0001
0000
0100
0000
,
0010
0000
0001
1000
0100
1000
0010
0000
,
0110
0000
0100
0001
0100
0001
0010
0000
,
1001
0000
0001
0010
0100
0010
0100
0000
,
1100
0000
0001
0100
0001
1000
0010
0000
,
0011
0000
0010
0100
0010
0010
0100
0000
,
0101
0000
0000
0000
0010
0000
0001
0000
0100
0000
0001
1000
0000
0000
0000
0000
,
1100
0000
0000
0000
1000
0000
0001
0000
0100
0000
0001
0010
0000
0000
0000
0000
,
0110
0000
0000
0000
0010
0000
0001
0000
1000
0000
0001
1000
0000
0000
0000
0000
,
2020
0000
0000
0000
0000
0000
0000
3000
,
0130
0000
1001
0001
0100
0001
1010
1000
,
0001
0000
0011
0010
0100
0010
1001
0001
,
0100
0000
1001
0001
0010
0001
1010
1000
,
0200
0000
0000
0000
0000
0000
0010
0310
,
0100
0000
1010
1000
0001
0010
1100
1000
,
0001
0000
1100
0100
0010
0001
1001
0001
,
0100
0000
0011
0010
0100
1000
0011
0001
,
0100
0000
0110
0000
0000
0000
0110
0001
,
0020
0100
0000
1030
,
0020
0100
0000
0031
,
0020
0100
0000
1030
,
0020
0100
0000
1031
;

//---------------dance-single - ----------------
#NOTES:
     dance-single:
     :
     Medium:
     5:
     0.291,0.316,0.318,0.214,0.050:
0000
0000
0000
0000
,
0000
0000
0000
0000
,
1002
0010
0000
0010
,
0100
1000
0000
1000
,
0100
0010
0000
0010
,
0100
1000
0000
4000
,
3003
0000
0000
0000
,
0010
0010
0010
0010
,
2200
0000
0000
0000
0000
0000
0000
3000
,
0310
0000
0000
0010
0001
0000
0004
0000
,
0103
0000
0000
0020
0000
0000
0000
0000
,
0130
0000
0000
0002
0000
0000
0000
0000
,
1003
0000
0000
0200
0000
0000
0000
0000
,
1300
0000
0000
0020
0000
0000
0000
0000
,
0230
0000
0000
0300
,
0001
0000
0020
0000
,
0230
0000
03M0
0000
,
0M00
0000
0000
0000
,
2000
0000
0000
0000
,
3002
0003
2000
3000
,
0020
0000
0130
0001
0100
0000
0000
0000
,
0000
0001
0001
0001
,
1010
1000
0100
0010
,
1100
0010
0001
0100
,
0110
0001
0010
0100
,
1001
0000
0010
0100
0010
0100
0010
0000
,
1100
0000
0000
0000
0001
0000
0000
0000
1000
0000
0000
0100
0000
0000
0000
0000
,
0011
0000
0000
0000
1000
0000
0000
0000
0001
0000
0000
0100
0000
0000
0000
0000
,
0110
0000
0000
0000
0001
0000
0000
0000
1000
0000
0000
0001
0000
0000
0000
0000
,
2020
0000
0000
0000
,
3030
0110
0001
0110
,
1000
0101
1000
1100
,
0010
1001
0100
1010
,
0200
0000
0000
0000
0000
0000
0001
0300
,
0001
0110
1000
0101
,
1000
0110
0001
0110
,
1000
0101
0010
1001
,
0200
0000
0000
0000
0000
0000
1000
0300
,
1000
1100
0000
0001
,
0010
0011
0000
1000
,
0200
M0MM
0000
M0MM
,
0300
0011
0011
0004
,
0103
0000
0000
0000
,
0010
0000
2000
0000
,
3200
0000
M300
0000
,
0M00
0000
0000
0000
,
0020
0000
0000
0000
,
0031
0000
2000
0000
,
3010
0000
0100
0001
0100
0000
0000
0000
,
0000
0001
0001
0001
,
1100
0001
0100
0010
,
0110
0100
0001
0001
,
1100
0010
0001
0010
,
0110
0000
0001
1000
0001
1000
0001
0000
,
1010
0000
0000
0000
0001
0000
0000
0000
1000
0000
0000
1000
0000
0000
0000
0000
,
0011
0000
0000
0000
1000
0000
0000
0000
0010
0000
0000
0010
0000
0000
0000
0000
,
1100
0000
0000
0000
0001
0000
0000
0000
0001
0000
0000
0001
0000
0000
0000
0000
,
2020
0000
0000
0000
,
3030
0110
0001
0101
,
1000
0011
0100
1100
,
0001
0101
0010
1010
,
0200
0000
0000
0000
0000
0000
0010
0300
,
0010
1010
1000
0101
,
0001
1100
1000
0110
,
0010
1100
0001
1001
,
0100
0000
0000
0101
,
0010
0000
0100
0020
0000
0000
0130
0000
,
0000
0000
1000
0000
0000
1000
0000
0000
0001
0000
0000
0000
0000
0000
0100
0000
,
0010
0000
0100
0020
0000
0000
0130
0000
,
0000
0000
0001
0000
0000
0001
0000
0000
0100
0000
0000
0000
0000
0000
0001
0000
,
1000
0000
0001
2000
0000
0000
3001
0000
,
0000
0000
0100
0000
0000
0100
0000
0000
0100
0000
0000
0000
1000
0000
0100
0000
,
0010
0000
0100
0020
0000
0030
0220
0000
,
0000
0030
2000
0300
,
3001
0100
0100
0100
,
0001
0100
0100
0100
,
2002
0000
0000
0000
,
30M3
0000
0000
00M0
0000
0000
00M0
0000
00M0
0000
0000
0000
0040
0000
0000
0000
,
2030
0010
00M0
0010
,
00M0
0010
00M0
0010
,
00M0
0010
00M0
0010
,
00M0
0010
00M0
0010
,
30M0
0000
0000
0000
0010
0000
0000
0000
0000
0010
0000
0000
0010
0000
0000
0000
,
0000
0000
0000
0000
0001
0000
0000
0000
0000
0001
0000
0000
0001
0000
0000
0000
,
0000
0000
0000
0000
0100
0000
0000
0000
0000
0100
0000
0000
0100
0000
0000
0000
,
0000
1000
1000
0040
,
0130
0000
0000
0100
0000
0000
0100
0000
0000
0000
0000
0000
0000
0000
0000
0000
,
0001
0000
0000
0001
0000
0000
0001
0000
0000
0000
0000
0000
0000
0000
0000
0000
,
0010
0000
0000
0010
0000
0000
0010
0000
0000
0000
0000
0000
0000
0000
0000
0000
,
1000
0000
0000
1000
0000
0000
1000
0000
0000
0000
0000
0000
0000
0000
0000
0000
,
0100
0000
0000
0100
0000
0000
0100
0000
0000
0000
0000
0000
0M00
0000
0000
0000
,
0001
0000
0000
0001
0000
0000
0001
0000
0000
0000
0000
0000
000M
0000
0000
0000
,
1000
0000
0000
1000
0000
0000
1000
0000
0000
0000
0000
0000
M000
0000
0000
0000
,
0022
0000
0000
0000
,
0033
0110
1000
0011
,
0100
1001
0010
1001
,
0100
0011
1000
0110
,
0002
0000
0000
0000
0000
0000
0100
0003
,
0100
1010
0001
0110
,
1000
0101
0010
1100
,
0010
1001
0100
1010
,
0001
1001
0000
4000
,
3020
0000
0000
0130
,
0020
0000
0000
1030
,
0020
0000
0000
0130
,
0020
0000
0000
0000
0000
0000
0000
0000
0000
0000
0000
0030
1010
0000
0000
0000
;

//---------------dance-single - ----------------
#NOTES:
     dance-single:
     :
     Easy:
     2:
     0.132,0.158,0.124,0.169,0.000:
0000
0000
0000
0000
,
0000
0000
0000
0000
,
2002
0000
0000
0000
,
0000
0000
0000
0000
,
0000
0000
0000
0000
,
0000
0000
0000
0000
,
3003
0000
0000
0000
,
0000
0000
0000
0000
,
0200
0000
0000
0000
,
0310
0000
0010
0000
,
0100
0000
0000
0000
,
1000
0000
0000
0000
,
0001
0000
0000
0000
,
0100
0000
0000
0000
,
0002
0000
0000
0003
,
1000
0000
0020
0030
,
0200
0300
0000
0000
,
0000
0000
0000
0000
,
2000
0000
0000
0000
,
3002
0003
2000
3000
,
0020
0000
0030
0000
,
0000
0000
0000
0000
,
1001
0000
0000
0000
,
1001
0000
0000
0000
,
0110
0000
0000
0000
,
0110
0000
0000
0000
,
0101
0000
0000
0000
,
0101
0000
0000
0000
,
0110
0000
0000
0000
,
2002
0000
0000
0000
,
3003
1000
0000
1000
,
0000
0100
0000
0100
,
0000
1000
0000
1000
,
0020
0000
0000
0000
,
0030
0001
0000
0001
,
0000
0100
0000
0100
,
0000
0001
0000
0001
,
2000
0000
0000
0000
,
3100
0000
0000
0000
,
0001
0000
0000
0000
,
0020
0000
0000
0000
,
0130
0000
0100
0000
,
0100
0000
0000
0000
,
0001
0000
0020
0030
,
0200
0300
0000
0000
,
0000
0000
0000
0000
,
0002
0000
0000
0000
,
0103
0000
2000
3000
,
0200
0000
0300
0000
,
0000
0000
0000
0000
,
0110
0000
0000
0000
,
0110
0000
0000
0000
,
1001
0000
0000
0000
,
1001
0000
0000
0000
,
1100
0000
0000
0000
,
1100
0000
0000
0000
,
1001
0000
0000
0000
,
0220
0000
0000
0000
,
0330
0001
0000
0001
,
0000
0100
0000
0100
,
0000
0010
0000
0010
,
2000
0000
0000
0000
,
3000
0001
0000
0001
,
0000
0010
0000
0010
,
0000
0100
0000
0100
,
0000
1000
0000
1000
,
0001
0000
0001
0000
,
0000
0000
0100
0000
,
0010
0000
0010
0000
,
0000
0000
0100
0000
,
1000
0000
1000
0000
,
0000
0000
0010
0000
,
0100
0000
0100
0002
,
0000
0000
2003
0000
,
3100
0000
0000
0000
,
0000
0000
0000
0000
,
0200
0000
0000
0000
,
0310
0000
0010
0000
,
0002
0000
0000
0000
,
0100
0000
0000
0000
,
0100
0000
0000
0000
,
0100
0000
0000
0000
,
0103
0000
0000
0000
,
0010
0000
0000
0000
,
1000
0000
0000
0000
,
0001
0000
0001
0000
,
1001
0000
0000
0000
,
0110
0000
0000
0000
,
1001
0000
0000
0000
,
0110
0000
0000
0000
,
1100
0000
0000
0000
,
1100
0000
0000
0000
,
1100
0000
0000
0000
,
0022
0000
0000
0000
,
0033
1000
0000
0001
,
0000
1000
0000
0001
,
0000
1000
0000
0001
,
0002
0000
0000
0000
,
0003
0010
0000
0100
,
0000
0010
0000
0100
,
0000
0010
0000
0100
,
0100
0000
0000
0000
,
0002
0000
0000
0003
,
2000
0000
0000
3000
,
0002
0000
0000
0003
,
2000
0000
0000
3100
;
