#TITLE:Nobody Likes Me;
#SUBTITLE:;
#ARTIST:Northern Boys;
#TITLETRANSLIT:;
#SUBTITLETRANSLIT:;
#ARTISTTRANSLIT:;
#GENRE:;
#CREDIT:;
#BANNER:Nobody Likes Me-bn.png;
#BACKGROUND:Nobody Likes Me-bg.png;
#LYRICSPATH:;
#CDTITLE:;
#MUSIC:Nobody Likes Me.ogg;
#OFFSET:-0.120;
#SAMPLESTART:75.501;
#SAMPLELENGTH:12.000;
#SELECTABLE:YES;
#BPMS:0.000=128.000;
#STOPS:;
#BGCHANGES:32.250=Nobody Likes Me.avi.avi=1.000=0=0=1=====,
382.000=Nobody Likes Me-bg.png=1.000=0=0=1=====,
99999=-nosongbg-=1.000=0=0=0 // don't automatically add -songbackground-
;
#KEYSOUNDS:;

//---------------dance-single - Geriatric Patrick----------------
#NOTES:
     dance-single:
     Geriatric Patrick:
     Hard:
     7:
     0.489,0.426,0.250,0.056,0.039:
0000
0000
0000
0000
,
0000
0000
0000
0000
,
0000
0000
0000
0000
,
0000
0000
0110
1001
,
0100
0010
0100
1010
,
0001
0010
0001
0110
,
1000
0100
1000
0101
,
0010
0001
0110
1001
,
0000
0000
0001
0010
0001
1000
0100
1000
,
0010
0000
0000
0010
0000
0000
0100
0000
0001
0000
0000
0001
0000
0000
0010
0000
,
0100
0000
0000
0001
0000
0000
1000
0000
0010
0000
1000
0000
0001
0000
0010
0000
,
0100
0010
1000
0010
0100
0010
0001
0001
,
1000
0000
0001
0010
0100
0010
0001
1000
,
0100
1000
0001
0100
0010
1000
0100
1000
,
0001
0000
M00M
0000
1001
0000
0000
0100
,
0010
1000
0001
1000
0010
0100
0001
0100
,
0110
0000
M000
0000
M00M
0000
0001
0010
,
0100
0000
0000
0000
0001
0000
0000
1000
0000
0000
0001
0000
0100
0000
0010
0000
,
0100
0000
1000
0010
0100
0010
0001
0010
,
0100
0000
0001
0001
1000
0100
0010
0010
,
0001
0000
1000
0010
0100
0000
0001
1000
,
0100
0000
0000
0000
0001
0000
0010
0000
0100
0000
0000
1000
0000
0000
0001
0000
,
0100
0000
1000
0010
1000
0000
0010
0100
,
1000
0000
0000
0000
0000
0000
0100
0000
0000
0001
0000
0000
0100
0000
0000
0000
0000
0000
0001
0000
1000
0000
0000
0000
,
1100
0000
0001
0010
0100
1000
0001
0100
,
0010
1000
0001
0010
0100
1000
0001
0001
,
0101
0000
1000
0100
0010
0001
1000
1000
,
0010
1000
0001
1000
0010
0100
0001
0000
,
0110
0000
0001
0000
1010
0000
0001
0010
,
0100
0010
0001
1000
0100
1000
0001
0100
,
0110
0000
0100
0001
0010
0001
1000
0100
,
0010
0100
1000
0001
0010
0001
0100
0010
,
1010
0000
0000
0000
0001
0000
0000
0100
0000
0000
0001
0000
0010
0000
0100
0000
,
0010
0000
0000
0000
1000
0000
0001
0000
0100
0000
0000
0001
0000
0000
0000
0000
,
000M
0000
0010
0100
0001
0001
0010
0100
,
1000
0000
0001
0100
0001
0001
1000
0100
,
0010
0000
0000
1000
0000
0000
0001
0000
0100
0000
0000
0000
0010
0000
1000
0000
,
0100
0100
0010
0001
1000
0001
0010
0100
,
1000
1000
0010
0100
0001
0100
0010
1000
,
0001
0001
0010
0100
0010
0100
1000
0001
,
0100
0100
0010
0000
1010
0000
0001
0000
,
0101
0000
1000
0100
1100
0000
0001
0010
,
0110
0000
0001
0100
0010
0010
1000
0001
,
0010
0000
0001
0000
1000
0000
0010
0000
0100
0000
0000
0010
0000
0000
0000
0000
,
0101
0000
1000
0010
0100
0000
0010
1000
,
0100
0000
0010
0001
0011
0000
0100
1000
,
1100
0000
0010
0001
1000
1000
0010
0100
,
0001
0000
0100
0000
0010
0000
1000
0000
0001
0000
0000
0001
0000
0000
0000
0000
,
0110
0000
000M
M000
00M0
0M00
0010
1000
,
0100
1000
0001
0001
0010
0100
1000
1000
,
0001
0100
000M
0000
0110
0000
0000
0001
,
0010
0100
0010
0001
1000
0100
0010
0001
,
0010
0100
0001
1000
0100
1000
0010
1000
,
0001
0001
0010
0100
1000
0100
0001
0100
,
1000
1000
000M
0000
0001
0100
0010
0100
,
0001
1000
0010
1000
0001
0010
0100
1000
,
0001
0001
0010
0100
1000
0100
0010
0100
,
1000
0001
0100
0010
0001
0010
0100
0010
,
0001
0000
1000
0000
0001
1000
0010
1000
,
0100
0000
0010
0001
0100
0001
1000
0100
,
1100
0000
0000
0001
0010
0000
0000
0001
,
0101
0000
0100
0010
1000
1000
0010
0100
,
0110
0000
0001
1000
0100
0100
1000
0001
,
0101
0000
1000
0100
0010
0010
0100
1000
,
1001
0000
0010
0100
1000
1000
0010
0100
,
0001
0100
0010
1000
0001
0001
0010
0100
,
1000
0000
0100
0000
0001
0000
0000
0000
0010
0000
0000
0100
0000
0000
0010
0000
,
0100
1000
0010
1000
0001
0100
0010
0100
,
0001
0001
00M0
0M00
M000
0000
1000
0100
,
0010
0000
1000
0010
0100
0010
0001
0010
,
0100
0001
1000
0010
0100
0100
0001
0010
,
0100
0001
1000
0001
0100
0100
0010
1000
,
0001
1000
0010
0000
0110
0000
0001
1000
,
1100
0000
0010
0001
1000
0000
0001
0010
,
0110
0000
0001
1000
0010
0010
0100
0001
,
0100
0010
1000
0001
0010
0010
0100
0000
,
0101
0000
0010
0100
0001
0000
0001
1000
,
0100
0000
0010
0001
0010
0100
1000
0010
,
0100
0000
1000
0001
0100
0001
0010
0100
,
1000
0000
0001
0010
1000
0010
0001
1000
,
0001
0100
0110
0001
,
0101
0000
1000
0010
1010
0000
1000
0001
,
1001
0000
0001
0100
0010
0010
0100
0001
,
1000
0000
0001
0000
0100
0000
0000
0000
1000
0000
0000
0001
0000
0000
0000
0000
,
1100
0000
0001
0010
0100
0000
0010
0001
,
0100
0000
1000
0010
0110
0000
0001
1000
,
1100
0000
0001
0010
1000
0010
0001
1000
,
0010
0000
0010
0000
0100
0000
0000
0000
1000
0000
0000
0010
0000
0000
0000
0000
,
2010
0000
3000
0000
0000
0000
0000
1000
,
0002
0000
0003
0000
0000
0000
0001
0100
,
0020
0030
0000
2000
,
3020
0030
0110
1001
,
0200
0000
0300
0000
0000
0000
0000
0001
,
2000
0000
3000
0000
0000
0000
0001
0100
,
0020
0030
0000
0002
,
0023
0030
0110
1001
;

//---------------dance-single - Geriatric Patrick----------------
#NOTES:
     dance-single:
     Geriatric Patrick:
     Challenge:
     9:
     0.665,0.692,0.417,0.056,0.540:
0000
0000
0000
0000
,
0000
0000
0000
0000
,
0000
0000
0000
0000
,
0000
0000
0110
1001
,
0000
0000
0001
0100
0000
0001
0100
0000
0000
0000
0000
0000
0000
0000
0000
0000
,
0000
0000
1000
0010
0000
1000
0010
0000
0000
0000
0000
0000
0000
0000
0000
0000
,
0000
0000
0010
0100
0000
0010
0100
0000
0000
0000
0000
0000
0000
0000
0000
0000
,
0000
0000
1000
0001
0000
1000
0001
0000
0110
0000
0000
0000
1001
0000
0000
0000
,
0000
0000
0000
0001
0010
0000
0001
0100
0010
0000
1000
0000
0010
0000
0100
0001
,
0100
0000
0010
1000
0000
1000
0001
0010
0100
0000
0010
0001
0000
0001
0010
0100
,
1000
0000
0000
0001
0000
0100
0001
1000
0100
0000
0010
0000
0100
0000
1000
0000
,
1001
0000
0001
0000
1100
0000
0010
0000
0110
0000
0100
0000
1001
0000
0001
1000
,
0100
0000
0000
0001
0010
0000
0001
0000
0100
0000
0001
0000
1000
0000
0100
0010
,
0100
0000
0010
0000
1000
0000
0010
0000
0100
0000
0001
0000
0001
0000
1000
0100
,
0010
0000
0000
0000
MMMM
0000
0000
0000
1001
0000
0000
0000
0000
0000
1000
0010
,
0100
0000
0001
0000
0001
0000
0100
0010
1000
0000
0001
0000
0001
0000
0010
0100
,
1000
0000
0000
0000
M000
00M0
0000
0000
0MM0
0000
0000
0M00
0001
0000
1000
0000
,
0100
0000
0000
1000
0010
0000
0010
0100
0000
0100
1000
0000
0100
0000
0001
0000
,
1001
0000
0000
0000
0010
0000
0010
0000
0100
0000
0001
0000
0010
0001
1000
0001
,
0010
0000
0000
0100
1000
0100
1000
0000
1001
0000
0001
0100
0001
0000
0010
0000
,
0110
0000
0000
0000
1000
0000
0001
0010
0100
0000
0000
0000
0001
1000
0001
0000
,
0101
0000
0000
1000
0010
0000
1000
0000
0001
0000
1000
0010
0000
0010
1000
0000
,
1100
0000
0001
0010
0110
0000
0001
1000
,
1100
0000
0000
0000
0000
0000
0010
0000
0000
0001
0000
0000
1001
0000
0000
0000
0000
0000
0010
0000
0100
0000
0000
0000
,
1100
0000
0001
0010
0100
1000
0001
0100
,
0010
0000
1000
0000
0001
0000
0010
0000
0100
0000
1000
0000
0001
0100
0001
0000
,
1100
0000
0000
0000
0001
0000
0010
0000
0100
0000
1000
0000
0001
0100
0001
1000
,
0100
0000
1000
0000
0010
0000
1000
0001
0100
0000
0001
0000
0010
0100
0000
0000
,
0011
0000
0000
0000
0100
1000
0000
0000
0011
0000
0000
0000
1000
0000
0010
0000
,
0100
0000
0001
1000
0001
0000
1000
0000
0100
0000
0100
0000
0010
0000
0001
0000
,
0101
0000
0000
0000
1000
0100
1000
0000
0010
0000
0001
0000
0010
0000
0100
0001
,
1000
0000
0001
0000
0010
0000
0001
1000
0010
0000
0010
0000
1000
0000
0100
0000
,
0110
0000
0000
0000
1000
0000
0001
0100
0000
0100
0000
0001
0100
0000
0010
0000
,
1010
0000
0000
0000
0001
0010
0100
0000
0010
0001
0010
0100
0000
0100
0000
1000
,
0M01
0000
0000
1000
0010
0000
1000
0000
0001
0000
0001
0100
0001
0000
1000
0000
,
1100
0000
0000
0000
0010
0000
0010
0000
1100
0000
0100
0000
0010
0001
0010
0001
,
0100
0000
0000
1000
0000
1000
0010
1000
0001
0000
0000
0001
0100
0000
0001
0000
,
0110
0000
0100
0000
0010
1000
0010
1000
0001
0000
0001
1000
0010
0000
1000
0000
,
0101
0000
0001
0000
1000
0010
0100
0010
1000
0000
0010
1000
0001
0000
1000
0000
,
1100
0000
0100
0000
0011
0000
0110
0000
0011
0000
0001
0000
1000
0010
1000
0001
,
0010
0000
0010
0000
0100
1000
0100
0000
0110
0000
0000
0100
0001
0000
0100
0000
,
1100
0000
0000
0000
0001
0100
0001
0000
0011
0000
0000
1000
0100
0000
1000
0000
,
1001
0000
0000
0000
1000
0100
1000
0000
0010
0000
1000
0010
0100
0000
0010
0000
,
0001
0000
0001
0000
1000
0000
0001
1000
0100
0000
0100
0010
0000
0010
0001
0000
,
1001
0000
0000
0000
0100
0010
1000
0000
1010
0000
0000
0010
0100
0000
0001
0000
,
0101
0000
0000
0000
0001
1000
0100
0000
0110
0000
0000
0100
1000
0000
0001
0000
,
0101
0000
0000
0000
1000
0100
1000
0000
0010
0000
0001
0010
0100
0000
0010
0000
,
1000
0000
1000
0000
0001
0000
1000
0001
0100
0000
0100
0010
0000
0010
1000
0000
,
1001
0000
0000
0000
0M00
0000
000M
M000
00M0
0000
M000
0000
1001
0000
1000
0010
,
0100
0000
1000
0000
0100
0010
0100
0010
0001
0000
0001
0000
1000
0010
0100
0010
,
1000
0000
0010
0000
MMMM
0000
0000
0000
1001
0000
0000
0000
0000
1000
0100
0000
,
0001
0100
0010
1000
0100
1000
0011
0001
,
0101
0000
0100
0000
0001
1000
0001
0100
0010
0000
0100
0001
0100
0000
0001
0000
,
1000
0000
0010
0100
0010
0000
1000
0000
0001
0000
0010
0001
0010
0000
0001
0000
,
0101
0100
000M
0000
1000
0010
0100
0001
,
0010
0000
0001
0000
0100
0000
0010
0000
1000
0000
0001
0010
0100
0000
1000
0000
,
1001
0000
0001
0000
1000
0100
0010
0001
0010
0000
0001
1000
0100
0000
1000
0000
,
0001
0000
0010
0001
0100
0001
1000
0010
1000
0000
1000
0001
0010
0000
0100
0000
,
1000
0000
0000
0000
0010
0100
0000
0010
1000
0000
0001
0000
0010
0000
0100
0000
,
0001
0000
0000
0000
1000
0000
0010
0100
0001
0000
0100
0010
1000
0000
0001
0000
,
0011
0000
0000
0000
0000
1000
0010
0000
0010
0100
0000
0000
0000
0001
1000
0000
,
1100
0000
0000
0000
0001
0010
0100
0010
0001
0000
0001
0000
1000
0010
1000
0001
,
0100
0000
0000
0000
1000
0100
0010
0100
1000
0000
1000
0000
0001
0100
0001
0010
,
0100
0000
0000
0000
0001
1000
0010
0100
0010
0000
1000
0001
1000
0000
0010
0000
,
0110
0000
0000
0000
0001
0000
0010
0100
0010
0000
0100
0000
1000
0000
0010
0000
,
0110
0000
0100
0000
0001
0000
1000
0100
1000
0000
0100
0000
0010
0000
0001
0000
,
1001
0000
1000
0000
0001
0100
0000
0100
0010
0000
0100
0001
0000
0001
0010
0000
,
0110
0000
0010
0001
1000
0010
1000
0001
0010
0000
0100
0000
0001
0000
0010
0000
,
0110
0000
0100
0000
000M
0000
M000
00M0
0M00
0000
00M0
0000
1000
0010
0100
0001
,
0100
0000
0100
0000
0001
1000
0100
0000
0010
0000
0100
1000
0001
0000
0001
0000
,
0100
0000
0001
0000
0010
0000
0100
0000
0100
0000
1000
0001
1000
0000
0001
0000
,
0100
0000
0010
0000
0010
0000
0100
0001
1000
0001
0100
0001
0010
0000
0100
0000
,
1100
0000
0100
0000
0010
0001
0000
0001
1000
0000
0000
0001
0010
0000
0100
0000
,
1100
0000
0000
0010
0001
0000
0010
0000
0100
0000
0000
0000
0010
0001
1000
0000
,
1010
0000
0000
0000
0001
0010
0001
0010
0100
0000
0100
0000
0001
0000
0100
1000
,
0001
0000
1000
0001
0100
0000
0001
0000
0010
0000
0010
0000
0100
1000
0000
1000
,
0001
0000
0000
0000
0010
0000
0010
0001
1000
0000
0000
1000
0010
0000
0010
1000
,
0100
0000
0000
0000
0010
0000
0001
0010
0100
0000
0010
0100
0001
0000
0100
0000
,
1100
0000
0000
0000
0001
0010
0001
0000
1000
0000
1000
0000
0010
0000
0100
0000
,
0101
0000
0000
0000
1000
0100
1000
0000
0010
0000
1000
0001
0100
0000
0001
0000
,
0011
0000
0000
0000
0001
0100
0001
0000
1001
0000
0000
0001
0010
0000
0001
0000
,
0101
0000
0000
0000
0010
0001
0010
0000
1010
0000
0000
0100
0001
0000
0100
0000
,
0110
0000
0000
0000
0100
1000
0100
0000
0010
0000
0010
0001
1000
0000
0001
0000
,
0100
0000
0100
0000
1000
0000
0010
1000
0001
0000
1000
0100
0000
0100
0010
0000
,
0110
0000
0000
0000
0001
1000
0100
0000
1100
0000
0000
1000
0001
0000
0010
0000
,
0110
0000
0000
0000
0010
0001
1000
0000
1010
0000
0000
0001
0010
0000
0100
0000
,
0101
0000
0000
0000
0100
1000
0100
0000
0010
0000
0100
0010
1000
0000
0010
0000
,
0001
0000
0001
0000
1000
0000
0001
0010
0100
0000
0010
0001
0000
0001
1000
0000
,
2100
0000
0000
0000
3000
0000
0000
0000
0000
0000
0000
0000
0000
0000
0001
0010
,
0200
0000
0000
0000
0300
0000
0000
0000
0000
0000
0000
0000
1000
0001
0100
0001
,
0020
0030
0000
2000
,
3020
0030
1001
0110
,
0002
0000
0000
0000
0003
0000
0000
0000
0000
0000
0000
0000
0000
0000
1000
0010
,
0200
0000
0000
0000
0300
0000
0000
0000
0000
0000
0000
0000
0001
1000
0100
1000
,
0020
0030
0000
0002
,
0023
0030
1001
0110
;

//---------------dance-single - Geriatric Patrick----------------
#NOTES:
     dance-single:
     Geriatric Patrick:
     Medium:
     5:
     0.264,0.240,0.278,0.044,0.000:
0000
0000
0000
0000
,
0000
0000
0000
0000
,
0000
0000
0000
0000
,
0000
0000
1001
1001
,
0000
0000
0000
0000
,
0000
0000
0000
0000
,
0000
0000
0000
0000
,
0000
0000
1001
1001
,
0000
0010
0001
0010
,
0100
0100
1000
1000
,
0001
0000
1000
0010
,
1000
1000
0100
0100
,
0010
0000
0001
1000
,
0001
0100
0001
1000
,
0100
0M00
0110
0000
,
1000
0001
0100
0100
,
000M
0000
M00M
0001
,
0100
0010
1000
0100
,
1000
0000
0001
0100
,
0010
0100
0001
1000
,
0100
0000
0011
0000
,
0101
0001
0010
0001
,
1000
0010
0010
0100
,
0100
0001
0001
1000
,
1100
0001
0010
0001
,
1000
0001
0010
0001
,
0101
0000
1000
0100
,
0010
0100
1000
0001
,
0101
0000
1001
0000
,
0001
0100
0010
1000
,
1010
0000
0001
0010
,
0001
1000
0010
0100
,
0110
0000
0001
1000
,
0010
1000
0100
0010
,
0M00
0001
0001
1000
,
0001
0100
0100
0010
,
0100
0000
0001
0000
,
1100
0000
0001
0010
,
0100
0001
1000
0010
,
0100
1000
1000
0100
,
1001
0000
0011
0000
,
0101
0000
1010
0000
,
1100
0100
0010
0100
,
1000
0010
0100
0001
,
0101
0000
1010
0000
,
1100
0000
0011
0000
,
0101
0001
1000
0010
,
1000
0100
0010
0001
,
0011
M000
000M
1000
,
0100
1000
0010
1000
,
0001
M000
1001
0000
,
0100
0010
0100
0001
,
0001
1000
0100
1000
,
0010
0100
0001
0100
,
0010
0000
1000
0100
,
0001
0100
0010
0010
,
0100
0000
0001
0100
,
0010
1000
0001
0010
,
0100
0000
0010
0001
,
1000
0000
0010
1000
,
0100
0000
1001
0000
,
1100
0000
0001
0010
,
0110
0000
0001
1000
,
1100
0000
0010
0001
,
1001
0000
0100
0000
,
0010
0000
0100
0000
,
1000
0000
0001
0100
,
0010
0100
0001
0010
,
0110
M000
0M00
0010
,
0001
1000
0010
1000
,
0100
0001
0100
0010
,
1000
0001
0010
0100
,
0010
0000
1000
0000
,
0101
0000
0010
0000
,
0101
0000
1000
0100
,
0010
0001
1000
0010
,
0100
0000
0001
0000
,
1100
0000
0001
0000
,
0110
0000
0001
0010
,
0100
0001
0001
0100
,
0010
0000
1010
0000
,
1100
0000
0011
0000
,
0101
0100
0010
0100
,
0001
0010
0100
1000
,
1100
0000
0011
0000
,
0101
0000
1010
0000
,
1100
1000
0001
0010
,
0001
0100
0010
1000
,
2010
3000
0000
0000
,
0200
0300
0000
0100
,
0002
0003
0000
0010
,
0002
0003
0110
0110
,
2000
3000
0000
0000
,
0200
0300
0000
0100
,
0002
0003
0000
0010
,
0002
0003
0110
0110
;

//---------------dance-single - Geriatric Patrick----------------
#NOTES:
     dance-single:
     Geriatric Patrick:
     Beginner:
     2:
     0.153,0.160,0.083,0.044,0.000:
0000
0000
0000
0000
,
0000
0000
0000
0000
,
0000
0000
0000
0000
,
0000
0000
0001
0001
,
0000
0000
0000
0000
,
0000
0000
0000
0000
,
0000
0000
0000
0000
,
0000
0000
0001
0001
,
0000
0010
0000
0010
,
0000
0100
0000
1000
,
0000
1000
0000
0010
,
0000
1000
0000
0M00
,
0000
0001
0000
1000
,
0000
0001
0000
0100
,
0100
0000
0110
0000
,
0000
0001
0000
1000
,
0000
M00M
0000
0100
,
0000
0010
0000
1000
,
0000
0001
0000
0010
,
0000
0100
0000
0M00
,
0000
0001
0000
0100
,
0000
1000
0000
0100
,
0000
0010
0000
0100
,
0000
0001
0000
0100
,
0000
0010
0000
0010
,
0000
0100
0000
1000
,
0000
0010
0000
0010
,
0000
0100
0000
0M00
,
0100
0000
0100
0000
,
0010
0000
0001
0000
,
0100
0000
0001
0000
,
1000
0000
0001
0000
,
0100
0100
0000
0010
,
0000
1000
0000
0100
,
0M00
0001
0000
0100
,
0000
0010
0000
0100
,
0000
1000
0000
0100
,
0000
0010
0000
0M00
,
0000
0001
0000
1000
,
0000
0010
0000
1000
,
1000
0000
1001
0000
,
0100
0000
0110
0000
,
0001
0000
0010
0000
,
0100
0000
1000
0000
,
0001
0000
1001
0000
,
0100
0000
0110
0000
,
1000
0000
0010
0000
,
0100
0000
0001
0000
,
1001
0M00
000M
0000
,
0010
0000
0100
0000
,
1000
0M00
1001
0000
,
0100
0000
0100
0000
,
0001
0000
0010
0000
,
0100
0000
1000
0000
,
0100
0000
0000
0010
,
0000
0001
0000
1000
,
0000
0001
0000
0100
,
0000
0010
0000
1000
,
0000
0001
0000
0010
,
0000
0100
0000
1000
,
1000
0000
0010
0000
,
0110
0000
0001
0000
,
0100
0000
1000
0000
,
0100
0000
0010
0000
,
1001
0000
0100
0000
,
0010
0000
0100
0000
,
1000
0000
0001
0000
,
0010
0000
0100
0000
,
0010
0000
00M0
0000
,
0001
0000
1000
0000
,
0010
0000
0100
0000
,
1000
0000
0100
0000
,
0010
0000
1000
0000
,
1001
0000
0010
0000
,
0001
0000
1000
0000
,
0100
0000
0010
0000
,
0100
0000
0001
0000
,
1000
0000
0001
0000
,
1000
0000
0010
0000
,
1000
0000
0100
0000
,
1000
0000
1001
0000
,
0100
0000
0110
0000
,
0001
0000
0010
0000
,
0100
0000
1000
0000
,
0001
0000
1001
0000
,
0100
0000
0110
0000
,
1000
0000
0010
0000
,
0100
0000
0001
0000
,
2001
3000
0000
0000
,
0200
0300
0000
0000
,
0002
0003
0000
0000
,
2000
3000
0010
0010
,
0002
0003
0000
0000
,
0200
0300
0000
0000
,
2000
3000
0000
0000
,
0002
0003
0010
0010
;
