#TITLE:Meow;
#SUBTITLE:;
#ARTIST:Anamanaguchi;
#TITLETRANSLIT:;
#SUBTITLETRANSLIT:;
#ARTISTTRANSLIT:;
#GENRE:;
#CREDIT:;
#BANNER:MEOW-bn.png;
#BACKGROUND:MEOW-bg.png;
#LYRICSPATH:;
#CDTITLE:;
#MUSIC:MEOW.ogg;
#OFFSET:-2.225;
#SAMPLESTART:49.800;
#SAMPLELENGTH:11.800;
#SELECTABLE:YES;
#BPMS:0.000=100.000,8.000=200.000,24.000=199.901,40.000=200.851,56.000=200.750,72.000=200.501,88.000=200.350,136.000=200.500,152.000=200.500,160.000=200.500,168.000=200.000,184.000=200.500,200.000=201.000,216.000=200.500,232.000=200.000,248.000=200.500,280.000=200.000,296.000=-201.000,304.250=201.000,328.000=200.000,376.000=201.000,407.000=200.500,467.000=100.250,515.000=200.500,644.000=200.500;
#STOPS:312.500=0.150
,406.000=0.300
,515.000=0.900
;
#SCROLLS:0.000=1.000;
#TIMESIGNATURES:0.000=4=4;
#BGCHANGES:8.000=MEOW.avi=1.000=0=0=0=StretchNoLoop====,
654.000=MEOW-bg.png=1.000=0=0=1=Centered====,
99999=-nosongbg-=1.000=0=0=0 // don't automatically add -songbackground-
;
#KEYSOUNDS:;

//---------------dance-single - Geriatric Patrick----------------
#NOTES:
     dance-single:
     Geriatric Patrick:
     Hard:
     8:
     0.673,0.928,0.692,0.403,0.050:
0000
0000
0000
0000
,
0000
0000
0000
0000
,
1000
0100
0010
0100
1000
0100
0010
0100
,
1000
0100
0010
0100
1000
0001
0100
0010
,
0100
0001
0010
0001
0100
0001
0010
0100
,
0010
0100
1000
0010
0100
0001
0100
0010
,
1000
0100
0010
0100
1000
0001
0100
0001
,
1000
0100
0010
0100
0010
0100
1000
0100
,
0010
0001
0100
0001
0010
0001
0100
0010
,
1000
0010
1000
0010
0100
0001
0010
0001
,
1000
0100
0010
0001
0010
0100
1000
0100
,
0010
0001
0010
0100
1000
0001
0100
0001
,
1000
0010
0100
0001
0100
0010
1000
0001
,
1000
0001
0010
0100
1000
0100
0010
0001
,
1000
0100
0010
1000
0010
0100
1000
0100
,
0010
1000
0010
0100
1000
0001
0100
0010
,
1000
0010
0100
1000
0100
0010
0001
0010
,
1000
0001
0010
0100
0001
0100
0010
0100
,
1000
0000
0000
0100
1000
0100
1000
0000
,
0000
0100
1000
0100
1000
0000
1100
0000
,
1100
0000
0100
1000
0100
1000
0000
0100
,
1000
0100
1000
1000
0100
0000
1000
0000
,
1100
0000
0000
1000
0100
1000
0100
0000
,
0000
1000
0100
1000
0100
0000
1100
0000
,
1100
0000
0100
1000
0100
1000
0000
1000
,
0100
0100
1000
0100
1000
0000
0000
0000
,
0001
0010
0100
0010
0001
0010
0100
0010
,
0001
0010
0100
0010
0001
0010
0100
0010
,
0001
1000
0100
1000
0001
1000
0100
1000
,
0001
1000
0100
1000
0001
1000
0100
1000
,
0001
0000
0000
0010
0001
0010
0100
0000
,
0000
0010
0100
0010
0001
0000
0100
0000
,
0001
0000
0100
1000
0001
1000
0000
1000
,
0001
1000
0100
1000
0001
0000
0100
0010
,
2000
0000
3002
0000
,
0023
0000
0230
0000
,
0301
0000
0010
0002
0000
0000
0000
0000
,
0000
0000
0000
0000
0000
0000
0103
0010
,
2000
0000
3002
0000
,
0023
0000
0230
0000
,
0301
0000
0010
0002
0100
0000
0010
0000
,
1000
0000
0100
0000
0103
0000
1000
0001
,
0010
0011
0100
1100
,
0001
0101
1000
1100
,
0001
1010
0100
1001
,
0010
0110
1001
0110
,
0001
1001
0100
1001
,
0010
0110
1000
0110
,
0001
0011
0100
0011
,
1000
1010
0101
1010
,
0100
0011
0001
1100
,
0001
1100
1000
0110
,
1000
1010
0001
1010
,
0100
1001
0110
1001
,
0010
0011
0001
0101
,
1000
1010
0010
0011
,
1001
0011
0110
0101
,
1001
0000
M00M
1001
,
0000
0020
0001
0200
,
0000
0000
0000
0000
,
0330
0020
0001
0200
,
0030
2000
0300
0100
,
3000
0002
0100
2000
,
0003
0200
0000
0010
,
3300
1000
0001
2000
,
0000
0002
3000
0100
,
0003
0020
0100
2000
,
0000
0000
0000
0000
,
3030
0020
0100
2000
,
0030
0002
3000
0100
,
0003
0002
0100
2000
,
0003
0200
0000
0010
,
3300
0001
1000
0002
,
0000
0000
0010
0000
1003
0100
0010
0100
,
0000
0000
000M
0M00
000M
M000
0000
0000
,
000M
0M00
000M
M000
0000
0000
0000
0000
,
0000
0000
0000
0000
,
0000
0000
0000
0000
,
0000
0000
0000
0001
0100
0001
1000
0000
,
0000
0001
0100
0001
1000
0000
1010
0000
,
1010
0000
0010
1000
0010
1000
0000
0001
,
0100
0001
0100
0001
1000
0000
0100
0000
,
1001
0000
0000
0001
0100
0001
1000
0000
,
0000
0001
0100
0001
1000
0000
1010
0000
,
1010
0000
0010
1000
0010
1000
0000
1000
,
0001
0100
0100
0001
0100
0000
0010
0000
,
1000
0100
0010
0100
1000
0100
0010
0100
,
1000
0100
0010
0000
1000
0100
0010
0000
,
0001
1000
0100
1000
0001
1000
0100
1000
,
0001
1000
0100
0000
0001
1000
0100
0000
,
0010
0100
1000
0100
0010
0100
1000
0100
,
0010
0100
1000
0000
1000
0001
0010
0000
,
0100
0010
0001
0010
0100
0010
0001
0010
,
0100
0010
0001
0000
0001
0010
0100
0000
,
0110
0000
0000
0000
0100
0010
0100
0000
,
0011
0000
1000
0011
,
0000
0100
0011
0000
,
0011
0000
1000
1000
,
1100
0000
0000
0000
0001
0100
0001
0000
,
0110
0000
0001
1010
,
0100
0000
0100
0000
,
0001
1000
0001
1000
0100
0000
2100
0000
,
3100
1200
1300
1002
,
1003
2001
3001
0101
,
0010
0100
0010
0000
0110
0000
1000
0010
,
1000
0110
1000
1002
,
1003
0021
0031
2001
,
3001
1020
1030
0110
,
0001
0010
0001
0000
0011
0000
0100
0010
,
0100
1001
0100
0012
,
1003
0120
0130
2100
,
3001
0102
0103
1001
,
0010
1000
0010
0000
1001
0000
0010
0100
,
0010
1100
0101
2100
,
3010
2001
3001
0012
,
0103
2100
3100
0011
,
1100
0101
1010
1001
,
0000
0000
1000
0000
0001
0000
0000
1000
0001
1000
0001
0000
0000
1000
0001
1000
,
0001
0000
1000
0000
0001
0000
1000
1000
0001
0000
1000
0000
0001
0001
1000
0001
,
1000
0000
1000
0000
0001
0000
0000
1000
0100
1000
0001
0000
0000
1000
0100
1000
,
0001
0000
1000
0000
0001
0000
0100
1000
0001
0000
1000
0000
0100
0001
1000
0001
,
1000
0001
0100
0101
0100
0101
0100
0110
,
0100
0000
0110
0000
0100
0000
0101
0000
0100
0000
0101
0000
0000
0001
0100
0001
,
0100
0101
1000
1100
1000
1100
1000
1001
,
1000
0000
1001
0000
1000
0000
1010
0000
1000
0000
1010
0000
0000
0010
0100
0010
,
1000
1010
0001
0101
0001
0101
0001
1001
,
0001
0000
1001
0000
0001
0000
0011
0000
0001
0000
0011
0000
0000
0010
0100
0010
,
0001
0011
1000
1001
1000
1001
0100
0110
,
0100
0110
0001
0001
0001
0001
0000
0000
,
0102
0000
0010
0000
1003
0000
0010
0100
,
0010
1100
1010
1001
,
1100
0000
0001
0100
0000
1000
0010
0000
,
0110
1000
0101
0010
,
2100
0000
0010
0000
3100
0000
0010
0100
,
0010
0101
1010
1001
,
0101
0000
0010
1000
0001
0000
1010
0000
,
0120
1030
0012
0103
,
2001
0000
0010
0000
3100
0000
0010
0100
,
0010
0101
0011
0110
,
0101
0000
0010
0002
0100
0000
1000
0000
,
0100
0000
1000
0000
0103
0000
1000
0001
,
2000
0001
0100
0010
,
0200
0010
0001
0010
,
0004
0040
0000
0000
0000
0000
0000
0000
0000
0000
0000
0000
0000
0000
0000
0000
,
3333
0000
0000
0010
,
1001
0000
0000
0001
0000
0000
0010
0000
,
0110
0000
0000
1000
0000
0000
0001
0000
,
1100
0000
0000
0100
0000
0000
0010
0000
,
0011
0000
0000
1000
0000
0000
0010
0000
,
1001
0000
0000
1000
0000
0000
0100
0000
,
0110
0000
0000
1000
0000
0000
0001
0000
,
1010
0000
0000
0010
0000
0000
0100
0000
,
0101
0000
0000
1000
0000
0000
0100
0000
,
0022
0000
0000
0000
0000
0000
0000
0000
0000
0000
0000
0000
0000
0000
0000
0000
0000
0000
0000
0000
0000
0000
0000
0000
0000
0000
0000
0000
0000
0000
0000
0000
0000
0000
0000
0000
0000
0000
0000
0000
0000
0000
0000
0000
0000
0000
0000
0000
0000
0000
0000
0000
0000
0000
0000
0000
0000
0000
0000
0000
0000
0000
0000
0000
0000
0000
0000
0000
0000
0000
0000
0030
0020
0000
0000
0000
0000
0000
0000
0000
0000
0000
0000
0000
0000
0000
0000
0000
0000
0000
0000
0000
0000
0000
0000
0000
0000
0000
0000
0000
0000
0000
0000
0000
0000
0000
0000
0000
0000
0000
0000
0000
0000
0000
0000
0000
0000
0000
0000
0000
0000
0000
0000
0000
0000
0000
0000
0000
0000
0000
0000
0000
0000
0000
0000
0000
0000
0000
0000
0000
0000
0000
0000
0030
0020
0000
0000
0000
0000
0000
0000
0000
0000
0000
0000
0000
0000
0000
0000
0000
0000
0000
0000
0000
0000
0000
0000
0000
0033
0000
0000
0000
0000
0000
0000
0000
0000
0000
0000
0000
0000
0000
0000
0000
0000
0000
0000
0000
0000
0000
0000
0000
,
0202
0000
0000
0000
0000
0000
0000
0000
0000
0000
0000
0000
0000
0000
0000
0000
0000
0000
0000
0000
0000
0000
0000
0000
0000
0000
0000
0000
0000
0000
0000
0000
0000
0000
0000
0000
0000
0000
0000
0000
0000
0000
0000
0000
0000
0000
0000
0000
0000
0000
0000
0000
0000
0000
0000
0000
0000
0000
0000
0000
0000
0000
0000
0000
0000
0000
0000
0000
0000
0000
0000
0300
0200
0000
0000
0000
0000
0000
0000
0000
0000
0000
0000
0000
0000
0000
0000
0000
0000
0000
0000
0000
0000
0000
0000
0000
0000
0000
0000
0000
0000
0000
0000
0000
0000
0000
0000
0000
0000
0000
0000
0000
0000
0000
0000
0000
0000
0000
0000
0000
0000
0000
0000
0000
0000
0000
0000
0000
0000
0000
0000
0000
0000
0000
0000
0000
0000
0000
0000
0000
0000
0000
0000
0300
0200
0000
0000
0000
0000
0000
0000
0000
0000
0000
0000
0000
0000
0000
0000
0000
0000
0000
0000
0000
0000
0000
0000
0000
0303
0000
0000
0000
0000
0000
0000
0000
0000
0000
0000
0000
0000
0000
0000
0000
0000
0000
0000
0000
0000
0000
0000
0000
,
0022
0000
0000
0000
0000
0000
0000
0000
0000
0000
0000
0000
0000
0000
0000
0000
0000
0000
0000
0000
0000
0000
0000
0000
0000
0000
0000
0000
0000
0000
0000
0000
0000
0000
0000
0000
0000
0000
0000
0000
0000
0000
0000
0000
0000
0000
0000
0000
0000
0000
0000
0000
0000
0000
0000
0000
0000
0000
0000
0000
0000
0000
0000
0000
0000
0000
0000
0000
0000
0000
0000
0030
0020
0000
0000
0000
0000
0000
0000
0000
0000
0000
0000
0000
0000
0000
0000
0000
0000
0000
0000
0000
0000
0000
0000
0000
0000
0000
0000
0000
0000
0000
0000
0000
0000
0000
0000
0000
0000
0000
0000
0000
0000
0000
0000
0000
0000
0000
0000
0000
0000
0000
0000
0000
0000
0000
0000
0000
0000
0000
0000
0000
0000
0000
0000
0000
0000
0000
0000
0000
0000
0000
0000
0030
0020
0000
0000
0000
0000
0000
0000
0000
0000
0000
0000
0000
0000
0000
0000
0000
0000
0000
0000
0000
0000
0000
0000
0000
0030
0000
0000
0000
0000
0000
0000
0000
0000
0000
0000
0000
0000
0000
0000
0000
0000
0000
0000
0000
0000
0000
0000
0000
,
2000
0000
0000
0000
0000
0000
0000
0000
0000
0000
0000
0000
0000
0000
0000
0000
0000
0000
0000
0000
0000
0000
0000
0000
0000
0000
0000
0000
0000
0000
0000
0000
0000
0000
0000
0000
0000
0000
0000
0000
0000
0000
0000
0000
0000
0000
0000
0000
0000
0000
0000
0000
0000
0000
0000
0000
0000
0000
0000
0000
0000
0000
0000
0000
0000
0000
0000
0000
0000
0000
0000
3000
2000
0000
0000
0000
0000
0000
0000
0000
0000
0000
0000
0000
0000
0000
0000
0000
0000
0000
0000
0000
0000
0000
0000
0000
0000
0000
0000
0000
0000
0000
0000
0000
0000
0000
0000
0000
0000
0000
0000
0000
0000
0000
0000
0000
0000
0000
0000
0000
0000
0000
0000
0000
0000
0000
0000
0000
0000
0000
0000
0000
0000
0000
0000
0000
0000
0000
0000
0000
0000
0000
0000
3000
2003
0000
0000
0000
0000
0000
0000
0000
0000
0000
0000
0000
0000
0000
0000
0000
0000
0000
0000
0000
0000
0000
0000
0000
3000
0000
0000
0000
0000
0000
0000
0000
0000
0000
0000
0000
0000
0000
0000
0000
0000
0000
0000
0000
0000
0000
0000
0000
,
2020
0000
0000
0000
0000
0000
0000
0000
0000
0000
0000
0000
0000
0000
0000
0000
0000
0000
0000
0000
0000
0000
0000
0000
0000
0000
0000
0000
0000
0000
0000
0000
0000
0000
0000
0000
0000
0000
0000
0000
0000
0000
0000
0000
0000
0000
0000
0000
0000
0000
0000
0000
0000
0000
0000
0000
0000
0000
0000
0000
0000
0000
0000
0000
0000
0000
0000
0000
0000
0000
0000
0030
0020
0000
0000
0000
0000
0000
0000
0000
0000
0000
0000
0000
0000
0000
0000
0000
0000
0000
0000
0000
0000
0000
0000
0000
0000
0000
0000
0000
0000
0000
0000
0000
0000
0000
0000
0000
0000
0000
0000
0000
0000
0000
0000
0000
0000
0000
0000
0000
0000
0000
0000
0000
0000
0000
0000
0000
0000
0000
0000
0000
0000
0000
0000
0000
0000
0000
0000
0000
0000
0000
0000
0030
0020
0000
0000
0000
0000
0000
0000
0000
0000
0000
0000
0000
0000
0000
0000
0000
0000
0000
0000
0000
0000
0000
0000
0000
3030
0000
0000
0000
0000
0000
0000
0000
0000
0000
0000
0000
0000
0000
0000
0000
0000
0000
0000
0000
0000
0000
0000
0000
,
2002
0000
0000
0000
0000
0000
0000
0000
0000
0000
0000
0000
0000
0000
0000
0000
0000
0000
0000
0000
0000
0000
0000
0000
0000
0000
0000
0000
0000
0000
0000
0000
0000
0000
0000
0000
0000
0000
0000
0000
0000
0000
0000
0000
0000
0000
0000
0000
0000
0000
0000
0000
0000
0000
0000
0000
0000
0000
0000
0000
0000
0000
0000
0000
0000
0000
0000
0000
0000
0000
0000
0003
0002
0000
0000
0000
0000
0000
0000
0000
0000
0000
0000
0000
0000
0000
0000
0000
0000
0000
0000
0000
0000
0000
0000
0000
0000
0000
0000
0000
0000
0000
0000
0000
0000
0000
0000
0000
0000
0000
0000
0000
0000
0000
0000
0000
0000
0000
0000
0000
0000
0000
0000
0000
0000
0000
0000
0000
0000
0000
0000
0000
0000
0000
0000
0000
0000
0000
0000
0000
0000
0000
0000
0003
0002
0000
0000
0000
0000
0000
0000
0000
0000
0000
0000
0000
0000
0000
0000
0000
0000
0000
0000
0000
0000
0000
0000
0000
3003
0000
0000
0000
0000
0000
0000
0000
0000
0000
0000
0000
0000
0000
0000
0000
0000
0000
0000
0000
0000
0000
0000
0000
,
2020
0000
0000
0000
0000
0000
0000
0000
0000
0000
0000
0000
0000
0000
0000
0000
0000
0000
0000
0000
0000
0000
0000
0000
0000
0000
0000
0000
0000
0000
0000
0000
0000
0000
0000
0000
0000
0000
0000
0000
0000
0000
0000
0000
0000
0000
0000
0000
0000
0000
0000
0000
0000
0000
0000
0000
0000
0000
0000
0000
0000
0000
0000
0000
0000
0000
0000
0000
0000
0000
0000
0030
0020
0000
0000
0000
0000
0000
0000
0000
0000
0000
0000
0000
0000
0000
0000
0000
0000
0000
0000
0000
0000
0000
0000
0000
0000
0000
0000
0000
0000
0000
0000
0000
0000
0000
0000
0000
0000
0000
0000
0000
0000
0000
0000
0000
0000
0000
0000
0000
0000
0000
0000
0000
0000
0000
0000
0000
0000
0000
0000
0000
0000
0000
0000
0000
0000
0000
0000
0000
0000
0000
0030
0000
0020
0000
0000
0000
0000
0000
0000
0000
0000
0000
0000
0000
0000
0000
0000
0000
0000
0000
0000
0000
0000
0000
0000
0000
0030
0000
0000
0000
0000
0000
0000
0000
0000
0000
0000
0000
0000
0000
0000
0000
0000
0000
0000
0000
0000
0000
0000
0000
,
0200
0000
0000
0000
0000
0000
0000
0000
0000
0000
0000
0000
0000
0000
0000
0000
0000
0000
0000
0000
0000
0000
0000
0000
0000
0000
0000
0000
0000
0000
0000
0000
0000
0000
0000
0000
0000
0000
0000
0000
0000
0000
0000
0000
0000
0000
0000
0000
0000
0000
0000
0000
0000
0000
0000
0000
0000
0000
0000
0000
0000
0000
0000
0000
0000
0000
0000
0000
0000
0000
0000
0300
0200
0000
0000
0000
0000
0000
0000
0000
0000
0000
0000
0000
0000
0000
0000
0000
0000
0000
0000
0000
0000
0000
0000
0000
0000
0000
0000
0000
0000
0000
0000
0000
0000
0000
0000
0000
0000
0000
0000
0000
0000
0000
0000
0000
0000
0000
0000
0000
0000
0000
0000
0000
0000
0000
0000
0000
0000
0000
0000
0000
0000
0000
0000
0000
0000
0000
0000
0000
0000
0000
0000
0300
0200
0000
0000
0000
0000
0000
0000
0000
0000
0000
0000
0000
0000
0000
0000
0000
0000
0000
0000
0000
0000
0000
0000
0000
3300
0000
0000
0000
0000
0000
0000
0000
0000
0000
0000
0000
0000
0000
0000
0000
0000
0000
0000
0000
0000
0000
0000
0000
,
0220
0000
0000
0300
,
0M00
0M00
0M30
00M0
,
00M0
00M0
0000
0000
;

//---------------dance-single - Geriatric Patrick----------------
#NOTES:
     dance-single:
     Geriatric Patrick:
     Challenge:
     9:
     0.704,0.929,0.692,0.294,0.076:
0000
0000
0000
0000
,
0000
0000
0000
0000
,
1000
0100
0010
0100
1000
0100
0010
0100
,
1000
0100
0010
0100
1000
0001
0100
0010
,
0100
0001
0010
0001
0100
0001
0010
0100
,
0010
0100
1000
0010
0100
0001
0100
0010
,
1000
0100
0001
0100
1000
0100
0001
0100
,
0010
0100
0010
0100
0001
0100
1000
0100
,
0010
0001
0100
0001
0010
0001
0100
0010
,
0001
0010
0001
0010
0100
0001
0010
0001
,
1000
0100
0010
0001
0010
0100
1000
0100
,
0010
0001
0010
0100
1000
0001
0100
0001
,
1000
0010
0100
0001
0100
0010
1000
0001
,
1000
0001
0010
0100
1000
0100
0010
0001
,
1000
0100
0010
1000
0010
0100
1000
0100
,
0010
1000
0010
0100
1000
0001
0100
0010
,
0001
0010
0100
1000
0100
0010
0001
0010
,
1000
0001
0010
0100
0001
1000
0010
0100
,
1000
0000
0000
0100
1000
0100
1000
0000
,
0000
0100
1000
0100
1000
0000
1100
0000
,
1100
0000
0100
1000
0100
1000
0000
0100
,
1000
0100
1000
1000
0100
0000
1000
0000
,
1100
0000
0000
1000
0100
1000
0100
0000
,
0000
1000
0100
1000
0100
0000
1100
0000
,
1100
0000
0100
1000
0100
1000
0000
1000
,
0100
0100
1000
0100
1000
0000
0000
0000
,
0001
0010
0100
0010
0001
0010
0100
0010
,
0001
0010
0100
0010
0001
0010
0100
0010
,
0001
1000
0100
1000
0001
1000
0100
1000
,
0001
1000
0100
1000
0001
1000
0100
1000
,
0001
0000
0000
0010
0001
0010
0100
0000
,
0000
0010
0100
0010
0001
0000
0100
0000
,
0001
0000
0100
1000
0001
1000
0000
1000
,
0001
1000
0100
1000
0001
0000
0100
0010
,
2000
0000
3002
0000
,
0023
0000
0230
0000
,
0301
0000
0010
0002
0000
0000
0000
0000
,
0000
0000
0000
0000
0000
0000
0103
0010
,
2200
0000
3302
0000
,
2023
0000
3230
0000
,
0301
0000
0010
0002
0100
0000
0010
0000
,
1000
0000
0100
0000
0103
0000
1000
0001
,
0010
0011
0100
1100
,
0001
0101
1000
1100
,
0001
0000
1010
0010
0100
0000
1001
0000
,
0010
0000
0110
0000
1001
0000
0110
0100
,
0001
1001
0100
1001
,
0010
0110
1000
0110
,
0001
0000
0011
0010
0100
0000
0011
0000
,
1000
0000
1010
0000
0101
0000
1010
1000
,
0100
0011
0001
1100
,
0001
1100
1000
0110
,
1000
0000
1010
1000
0001
0000
1010
0000
,
0100
0000
1001
0000
0110
0000
1001
0001
,
0010
0011
0001
0101
,
1000
1010
0010
0011
,
1001
0011
0110
0101
,
1001
0000
0M00
M000
000M
00M0
1M01
0000
,
M00M
0020
0001
0200
,
0000
0000
0000
0000
,
0330
0020
0001
0200
,
0000
1000
0300
0100
,
0030
0002
0100
2000
,
0000
0100
0000
3023
,
0000
1000
0001
2000
,
0030
0002
3000
0100
,
0003
0020
0100
2000
,
0000
0000
0000
0000
,
3030
0020
0100
2000
,
0000
0001
0000
0100
,
3030
0002
0100
2000
,
0000
0100
0000
0020
,
3003
0001
1000
0002
,
0030
0000
0010
0000
1003
0100
0010
0100
,
0000
0000
000M
0M00
000M
M000
0000
0000
,
000M
0M00
000M
M000
0000
0000
0000
0000
,
0000
0000
0000
0000
,
0000
0000
0000
0000
,
0000
0000
0000
0001
0100
0001
1000
0000
,
0000
0001
0100
0001
1000
0000
1010
0000
,
1010
0000
0010
1000
0010
1000
0000
0001
,
0100
0001
0100
0001
1000
0000
0100
0000
,
1001
0000
0000
0001
0100
0001
1000
0000
,
0000
0001
0100
0001
1000
0000
1010
0000
,
1010
0000
0010
1000
0010
1000
0000
1000
,
0001
0100
0100
0001
0100
0000
0010
0000
,
1000
0100
0010
0100
1000
0100
0010
0100
,
1000
0100
0010
0000
1000
0100
0010
0000
,
0001
1000
0100
1000
0001
1000
0100
1000
,
0001
1000
0100
0000
0001
1000
0100
0000
,
0010
0100
1000
0100
0010
0100
1000
0100
,
0010
0100
1000
0000
1000
0001
0010
0000
,
0100
0010
0001
0010
0100
0010
0001
0010
,
0100
0010
0001
0000
0001
0010
0100
0000
,
0110
0000
0000
0000
0100
0010
0100
0000
,
0111
0000
1000
0011
,
0000
0100
0011
0000
,
1101
0000
0001
0001
,
0101
0000
0000
0000
0100
0001
0100
0000
,
1110
0000
0100
1010
,
0001
0000
0001
0000
,
0100
1000
0100
1000
0001
0000
2100
0000
,
3100
1200
1300
1002
,
1003
2001
3001
0101
,
0010
0100
0010
0000
0110
0000
1000
0010
,
1000
0110
1000
1002
,
1003
0021
0031
2001
,
3001
1020
1030
0110
,
0001
0010
0001
0000
0011
0000
0100
0010
,
0100
1001
0100
0022
,
0133
0022
1033
0202
,
1303
0202
0313
1100
,
0001
0010
0001
0000
1100
0000
0010
0001
,
0010
0101
0011
0210
,
1000
1320
0001
1032
,
0010
2013
0100
3101
,
1010
0011
1100
1001
,
0000
0000
1000
0000
0001
0000
0000
0001
0100
0100
0010
0000
0000
0010
0100
0100
,
0001
0000
1000
0000
0001
0000
0100
0100
0010
0000
0100
0000
0001
0001
0100
0100
,
0010
0000
0100
0000
0001
0000
0000
0100
0010
0010
0001
0000
0000
0010
0100
0100
,
0001
0000
0100
0000
1000
0000
0100
0100
0001
0000
0100
0000
1000
1000
0100
0100
,
0001
0100
0010
0110
0010
0110
0010
1010
,
0010
0000
1010
0000
0001
0000
0011
0000
0001
0000
0011
0000
0000
1000
0010
1000
,
0010
1010
0100
1001
0100
1001
0100
1010
,
0100
0000
1010
0000
0001
0000
1100
0000
0001
0000
1100
0000
0000
0001
0100
0001
,
0100
1010
0001
0011
0001
0011
1000
0110
,
1000
0000
0110
0000
1000
0000
1001
0000
1000
0000
1001
0000
0000
0001
0010
0001
,
1000
0011
1000
1010
0010
0110
1000
1001
,
0001
0101
1000
1000
1000
1000
000M
0000
,
0102
0000
0010
0000
1103
0000
0010
0100
,
0010
1100
1010
1001
,
1100
0000
0001
0100
0000
1000
0010
0000
,
0110
1000
0101
0010
,
2100
0000
0010
0000
3101
0000
0010
0100
,
0010
0101
1010
1001
,
0101
0000
0010
1000
0001
0000
1010
0000
,
0120
1030
0012
0103
,
2001
0000
0010
0000
3101
0000
0010
0100
,
0010
0101
0011
0110
,
0101
0000
0010
0002
0100
0000
1000
0000
,
0100
0000
1010
0000
0103
0000
1000
0001
,
2000
0010
3002
0100
,
2003
0101
3020
1100
,
0130
0001
0100
0010
1000
0001
1000
0010
1000
0001
0010
0001
1000
0100
0010
0100
,
1000
0000
0000
0100
,
1004
0000
0000
0100
0000
0000
1003
0000
,
1400
0000
0000
0010
0000
0000
1300
0000
,
1004
0000
0000
1000
0000
0000
0010
0000
,
0100
0000
0000
0100
0000
0000
0013
0000
,
4001
0000
0000
0100
0000
0000
3001
0000
,
0401
0000
0000
0010
0000
0000
0301
0000
,
4001
0000
0000
0001
0000
0000
0100
0000
,
0010
0000
0000
0010
0000
0000
3100
0000
,
0010
0001
0001
0010
0100
0100
0010
0001
,
1000
0000
0010
0000
0010
0000
1000
0000
0001
0000
0001
0000
1000
0010
1000
0000
,
0001
0100
0100
0001
1000
1000
0001
0100
,
0010
0000
0001
0000
0001
0000
0010
0000
0100
0000
0100
0000
0010
1000
0010
0000
,
0100
0001
0001
0100
0010
0010
0100
0001
,
1000
0000
0100
0000
0100
0000
1000
0000
0010
0000
0010
0000
1000
0001
1000
0000
,
0100
0010
0010
1000
0010
0010
0100
0010
,
0001
0000
1000
0000
1000
0000
0001
0000
0010
0000
0010
0000
0001
1000
0001
0000
,
2022
0000
0M00
0M00
0M30
0000
0000
00M0
,
00M0
00M0
0003
0000
000M
000M
000M
0000
,
3000
M000
M000
M000
0000
0000
0000
0000
;

//---------------dance-single - Geriatric Patrick----------------
#NOTES:
     dance-single:
     Geriatric Patrick:
     Easy:
     3:
     0.200,0.305,0.005,0.118,0.000:
0000
0000
0000
0000
,
0000
0000
0000
0000
,
0000
0010
0000
0100
,
0000
0000
0000
0000
,
0000
0010
0000
0100
,
0000
1000
0000
0100
,
0000
0010
0000
0001
,
0000
0010
0000
0001
,
0000
1000
0000
1000
,
0000
0001
0000
0100
,
0000
0010
0000
0100
,
0000
0000
0000
0000
,
0000
0010
0000
0100
,
0000
0001
0000
0100
,
0000
0010
0000
1000
,
0000
0010
0000
1000
,
0000
0001
0000
0010
,
0000
0100
0000
1000
,
0000
0001
0000
0001
,
0000
0001
0000
0001
,
0000
0100
0000
0100
,
0000
0010
0000
0010
,
0000
1000
0000
1000
,
0000
1000
0000
1000
,
0000
0001
0000
0001
,
0000
1000
0000
1000
,
0000
0100
0000
0010
,
0000
0100
0000
0010
,
0000
0100
0000
1000
,
0000
0100
0000
1000
,
0000
0001
0000
0010
,
0000
0001
0000
0010
,
0000
0100
0000
0010
,
0000
0100
0000
0010
,
0002
0000
0003
0000
,
2000
0000
3000
0000
,
0200
0000
0300
0000
,
0100
0000
0000
0000
,
0020
0000
0030
0000
,
0002
0000
0003
0000
,
0200
0000
0300
0000
,
0010
0000
0000
0000
,
0010
1000
0000
1000
,
0000
0001
0000
0001
,
0000
0010
0000
0010
,
0000
0100
0000
0100
,
0000
0010
0000
0010
,
0000
0001
0000
0001
,
0000
1000
0000
1000
,
0000
0010
0000
0010
,
0000
1000
0000
1000
,
0000
0100
0000
0100
,
0000
0010
0000
0010
,
0000
0001
0000
0001
,
0000
1000
0000
1000
,
0000
0001
0000
0001
,
0000
1000
0000
0001
,
1000
0000
0000
1000
,
0000
0100
0000
0010
,
0000
0000
0000
0000
,
0000
0100
0000
0010
,
0000
0001
0000
0010
,
0000
0100
0000
1000
,
0000
0100
0000
1000
,
0000
0001
0000
0001
,
0000
1000
0000
0010
,
0000
0100
0000
0010
,
0000
0000
0000
0000
,
0000
0100
0000
0010
,
0000
1000
0000
0010
,
0000
0100
0000
0001
,
0000
0100
0000
0001
,
0000
1000
0000
0100
,
0000
0010
0000
0001
,
0000
0000
0000
0000
0000
M000
0000
0000
,
0000
0000
0000
0000
,
0000
0000
0000
0000
,
0000
0000
0000
0000
,
0000
0000
0000
1000
,
0000
0000
0001
0000
,
0010
0000
0010
0000
,
0100
0000
0100
0000
,
1000
0000
0000
0001
,
0000
0000
1000
0000
,
0010
0000
0010
0000
,
0100
0000
0100
0000
,
0001
0000
1000
0000
,
0010
0000
0010
0000
,
1000
0000
0001
0000
,
0010
0000
0010
0000
,
0001
0000
0100
0000
,
0010
0000
1000
0000
,
1000
0000
0001
0000
,
0010
0000
0010
0000
,
0200
0000
0300
0000
,
2000
0000
3000
0000
,
0020
0000
0030
0000
,
0010
0000
0000
0000
,
0200
0000
0300
0000
,
0002
0000
0003
0000
,
2000
0000
0000
0000
,
3000
0000
0100
0000
,
0010
0000
0010
0000
,
0001
0000
0001
0000
,
1000
0000
1000
0000
,
0010
0000
0010
0000
,
1000
0000
1000
0000
,
0100
0000
0100
0000
,
0010
0000
0010
0000
,
0001
0000
0001
0000
,
1000
0000
1000
0000
,
0010
0000
0010
0000
,
1000
0000
1000
0000
,
0001
0000
0001
0000
,
0010
0000
0010
0000
,
0100
0000
0100
0000
,
0010
0000
0010
0100
,
0000
0000
0000
0000
,
0000
0000
0000
0000
,
0000
0000
0000
0000
,
0000
0000
0000
0000
,
0000
0000
0000
0001
0000
0001
0000
0001
,
0000
0001
0000
0001
0000
0001
0000
1000
,
0000
1000
0000
0001
0000
0001
0000
0001
,
0000
0001
0000
0001
0000
0001
0000
1000
,
0000
1000
0000
0010
0000
0010
0000
0010
,
0000
0010
0000
0010
0000
0010
0000
1000
,
0000
1000
0000
0001
0000
0001
0000
0010
,
0000
0010
0000
0100
0000
0100
0000
0000
,
0000
0010
0000
0001
,
0000
0100
0000
0010
,
0000
0100
0000
0001
,
0000
0010
0000
0100
,
0000
0010
0000
0001
,
0000
1000
0000
0010
,
0000
1000
0000
0001
,
0000
1000
0000
0010
,
0000
1000
0000
0001
,
0000
0010
0000
0100
,
0000
1000
0000
0100
,
0000
0010
0000
0001
,
0000
1000
0000
0001
,
0000
1000
0000
0001
,
0020
0000
0000
0000
,
0030
0000
0000
0000
,
0002
0000
0000
0000
,
0203
0000
0000
0000
,
0302
0000
0000
0000
,
0000
0000
0000
0003
,
2000
0000
0000
0000
,
3200
0000
0000
0000
,
2300
0000
0000
0000
,
0000
0000
0000
3000
,
0002
0000
0000
0000
,
0203
0000
0000
0000
,
0302
0000
0000
0000
,
0000
0000
0000
0003
,
2000
0000
0000
0000
,
3200
0000
0000
0000
,
2300
0000
0000
0000
,
0000
0000
0000
3000
,
1001
0000
0000
0000
;

//---------------dance-single - Geriatric Patrick----------------
#NOTES:
     dance-single:
     Geriatric Patrick:
     Medium:
     6:
     0.470,0.657,0.479,0.431,0.000:
0000
0000
0000
0000
,
0000
0000
0000
0000
,
0000
0020
0100
0032
,
0000
0000
0000
0000
,
0003
2000
0010
3002
,
0000
0023
0000
0230
,
0000
2300
0001
3020
,
0000
2030
0000
3002
,
0000
0023
0032
0023
,
0000
0230
0000
2300
,
0000
3020
0100
2030
,
0000
0000
0000
0000
,
3000
0002
0010
2003
,
0000
3020
0000
0230
,
0000
0302
1000
0023
,
0000
0032
0000
2003
,
0000
3020
2030
3020
,
0000
0230
0000
0302
,
1003
0000
0001
1000
,
0000
0001
1000
1010
,
1010
0001
0010
0000
,
1000
1000
0010
1000
,
1001
0000
1000
0001
,
0000
1000
0001
0011
,
0011
1000
0010
0000
,
1000
0001
1001
0000
,
0010
0100
1000
0010
,
0100
0001
0010
0100
,
0001
0010
0100
1000
,
0001
0010
0100
1000
,
0001
0100
1000
0100
,
0001
0100
1000
0100
,
0001
0010
0100
1000
,
0001
0010
0100
1000
,
2000
0000
3020
0000
,
0230
0000
2300
0000
,
3200
0000
0310
2000
0000
0000
0000
0000
,
0000
0000
0000
3001
,
0020
0000
0230
0000
,
0302
0000
0203
0000
,
2300
0000
3001
0020
0000
0000
0000
0000
,
0001
0100
0100
0031
,
1001
1000
0010
0100
,
1010
1000
0001
0010
,
0110
0110
0001
1000
,
1010
1010
0001
0010
,
0110
0010
0001
1000
,
1010
0010
0100
0010
,
1001
1001
1000
0100
,
0011
0011
1000
0010
,
0101
0001
1000
0100
,
0011
0001
1000
0010
,
0101
0101
1000
0100
,
0110
0110
0001
1000
,
1010
0010
0100
0001
,
0011
0010
0001
0100
,
0110
0110
1010
1010
,
1001
0000
0000
1001
,
0000
0020
0100
0032
,
0000
0100
0000
0100
,
0003
2000
0010
3002
,
0000
0023
0000
0230
,
0000
2300
0001
3020
,
0000
2030
0000
3002
,
0000
0023
0032
0023
,
0000
0230
0000
2300
,
0000
3020
0100
2030
,
0000
0010
0000
0010
,
3000
0002
0010
2003
,
0000
3020
0000
0230
,
0000
0302
1000
0023
,
0000
0032
0000
2003
,
0000
3020
2030
3020
,
0000
0230
0000
0302
,
0003
0000
0000
0M00
0000
0M00
0000
0000
,
0000
00M0
0000
00M0
0000
0000
0000
0000
,
0000
0000
0000
0000
,
0000
0000
0000
0000
,
0000
0000
0100
0100
,
0000
0010
0010
1001
,
1001
0100
0010
0000
,
0100
0001
0010
0000
,
1100
0000
0001
0001
,
0000
1000
1000
0101
,
0101
0010
1000
0000
,
0001
1000
0010
0000
,
1000
0100
0010
0001
,
1000
0001
0010
0001
,
1000
0010
0100
0001
,
0010
0001
1000
0001
,
0010
0100
1000
0010
,
0100
0001
0100
0010
,
0100
0000
1000
0001
,
0010
0001
0100
0001
,
1001
0000
1000
0100
,
1100
0000
0001
0010
,
0000
1000
1010
0000
,
0110
0000
1000
0001
,
0101
0000
0010
0100
,
0110
0000
0001
0011
,
0100
0000
0100
0000
,
0100
1000
0001
1001
,
1000
0010
0100
1010
,
1000
0001
0010
1100
,
1100
0001
0100
1010
,
1010
0001
0010
0110
,
0100
1000
0010
0101
,
0001
0010
0100
0011
,
0011
1000
0010
0101
,
0101
0010
1000
1001
,
0001
0010
0100
0011
,
0001
1000
0010
0101
,
0101
1000
0100
0011
,
0011
1000
0010
0110
,
0100
0001
0010
1100
,
0100
0010
0001
1001
,
1001
0110
1001
0110
,
0000
0000
0001
0000
0010
0010
0000
0001
,
1000
1000
0010
0100
0010
0010
1000
0001
,
1000
1000
0100
0000
0010
0010
0000
0100
,
1000
1000
0001
0100
0010
0010
0100
0001
,
0010
0010
0001
1001
0000
1001
0000
1010
,
0000
1010
0000
0110
0000
0110
0000
0001
,
1000
0001
0000
0101
0000
0101
0000
0110
,
0000
0110
0000
1010
0000
1010
0000
0001
,
0010
0001
0000
1100
0000
1100
0000
0110
,
0000
0110
0000
1001
0000
1001
0000
0010
,
0100
0010
0000
0011
0000
0011
0000
1001
,
0000
1001
0000
0110
0000
0110
0000
0000
,
0001
0010
0100
0010
,
0001
0100
0010
1000
,
0100
0010
0001
0010
,
0100
1000
0010
1000
,
0100
0010
0001
0100
,
0010
1000
0001
1000
,
0010
0100
0001
0010
,
0100
1000
0010
1000
,
0100
0010
0001
1000
,
0010
1000
0001
0010
,
0001
0100
0010
1000
,
0100
1000
0010
0100
,
0002
1000
0203
0010
,
0302
0010
2003
0100
,
3020
0000
0000
0000
,
0030
0000
0000
0100
,
1001
0000
0000
1000
0000
0000
1000
0000
,
0100
0000
0000
0100
0000
0000
0100
0000
,
0010
0000
0000
0010
0000
0000
0010
0000
,
0100
0000
0000
0100
0000
0000
0100
0000
,
1000
0000
0000
1000
0000
0000
1000
0000
,
0001
0000
0000
0001
0000
0000
0001
0000
,
0100
0000
0000
0100
0000
0000
0100
0000
,
0001
0000
0000
0001
0000
0000
0001
0000
,
2020
0000
0000
3030
,
0220
0000
0000
0330
,
2020
0000
0000
0000
,
0000
0000
0000
3030
,
0022
0000
0000
0033
,
0220
0000
0000
0330
,
0022
0000
0000
0000
,
0000
0000
0000
0033
,
2002
0000
0000
0000
,
0000
0000
0000
0000
,
0000
3003
0000
0000
;
