#TITLE:Map Of The Problematique;
#SUBTITLE:;
#ARTIST:MUSE;
#TITLETRANSLIT:;
#SUBTITLETRANSLIT:;
#ARTISTTRANSLIT:;
#GENRE:;
#CREDIT:;
#BANNER:Map Of The Problematique-bn.png;
#BACKGROUND:Map of the Problematique-bg.png;
#LYRICSPATH:;
#CDTITLE:;
#MUSIC:Map of the Problematique.ogg;
#OFFSET:-0.240;
#SAMPLESTART:38.460;
#SAMPLELENGTH:14.880;
#SELECTABLE:YES;
#BPMS:0.000=125.000;
#STOPS:;
#BGCHANGES:;
#KEYSOUNDS:;

//---------------dance-single - nvwls300----------------
#NOTES:
     dance-single:
     nvwls300:
     Challenge:
     10:
     0.794,0.832,0.715,0.000,0.823:
0000
0000
0000
0000
,
0000
0000
0000
0000
,
0000
0000
0000
0000
,
0000
0000
0000
0000
,
0001
0000
0000
0000
0110
0000
0000
0001
1000
0000
0001
0000
0010
0100
1000
0000
,
0100
0000
0000
0000
0011
0000
0000
0100
1000
0000
0100
0000
0001
0010
0100
0000
,
1000
0000
0000
0000
1001
0000
0000
0100
0010
0000
1000
0000
0001
0010
0100
0000
,
0001
0000
0000
0000
1100
0000
0000
0001
0100
0000
0001
0000
0010
0100
1000
0000
,
0001
0000
0000
0000
0101
0000
0000
0010
1000
0000
0001
0000
1000
0010
0100
0000
,
0001
0000
0000
0000
1010
0000
0000
1000
0100
0000
1000
0000
0001
0010
0100
0000
,
1000
0000
0000
0000
0110
0000
0000
0100
1000
0000
0001
0000
1000
0100
0010
0000
,
1000
0000
0000
0000
0011
0000
0000
0100
1000
0000
0100
0000
0010
0001
0100
0000
,
1000
0000
0000
0000
0110
0000
0000
1000
0001
0000
1000
0000
0010
0100
0001
0000
,
0100
0000
0000
0000
1010
0000
0000
0100
0001
0000
0100
0000
1000
0010
0100
0000
,
0001
0000
0000
0000
1001
0000
0000
0100
0010
0000
0001
0000
1000
0010
0100
0000
,
1000
0000
0000
0000
0101
0000
0000
1000
0100
0000
1000
0000
0010
0100
0001
0000
,
1000
0000
0000
0000
1100
0000
0000
0010
0001
0000
1000
0000
0001
0010
0100
0000
,
1000
0000
0000
0000
0011
0000
0000
0001
0100
0000
0001
0000
1000
0010
0100
0000
,
0001
0000
0000
0000
0110
0000
0000
0100
0001
0000
1000
0000
0001
0100
0010
0000
,
0001
0000
0000
0000
1010
0000
0000
0100
0001
0000
0100
0010
1000
0100
1000
0010
,
0100
0001
0010
0001
0010
0001
0100
0001
0010
0001
0010
0001
0100
0001
0010
0001
,
0100
0010
1000
0010
1000
0010
0100
0010
1000
0010
1000
0010
0100
0010
1000
0010
,
0100
0001
1000
0001
1000
0001
0100
0001
1000
0001
1000
0001
0100
0001
1000
0010
,
1000
0010
0100
0001
1000
0010
1000
0010
0100
0001
0010
0001
1000
0100
0010
0001
,
0010
0001
1000
0100
0010
0001
0010
0001
1000
0100
0010
0100
1000
0001
0010
0001
,
1000
0010
0100
0010
0100
0010
1000
0010
0100
0010
0100
0010
1000
0010
0100
0010
,
1000
0001
0010
0001
0010
0001
1000
0001
0010
0001
0010
0001
1000
0010
0100
0010
,
0100
0010
1000
0010
0100
0010
0100
0010
1000
0010
0100
0010
0100
0001
0100
0010
,
1000
0000
0000
0000
0011
0000
0001
0010
0100
1000
0100
0000
1010
0000
0000
0000
,
0100
0000
0000
0000
1010
0000
0010
1000
0001
1000
0100
0000
0011
0000
0000
0000
,
1000
0000
0000
0000
1010
0000
0001
0010
0100
1000
0100
0000
0011
0000
0000
0000
,
0100
0000
0000
0000
0011
0000
0001
0100
0010
1000
0010
0100
0001
0010
0001
1000
,
0100
0000
0000
0000
1001
0000
1000
0100
0001
0100
1000
0000
0011
0000
0000
0000
,
1000
0000
0000
0000
0110
0000
0010
0100
1000
0100
1000
0000
0101
0000
0000
0000
,
0010
0000
0000
0000
1001
0000
0001
0100
1000
0100
0001
0000
0011
0000
0000
0000
,
1000
0000
0000
0000
0110
0000
0010
0001
1000
0001
0010
0100
1000
0100
0010
0001
,
0100
0000
0000
0000
1010
0000
1000
0010
0100
0001
0100
0000
0011
0000
0000
0000
,
0100
0000
0000
0000
0011
0000
0010
0001
1000
0001
0100
0000
1010
0000
0000
0000
,
0001
0000
0000
0000
0011
0000
1000
0010
0100
0001
0100
0000
1010
0000
0000
0000
,
0100
0000
0000
0000
1010
0000
1000
0100
0010
0001
0010
0100
1000
0010
1000
0001
,
0100
0000
0000
0000
1001
0000
0001
0100
1000
0100
0001
0000
1010
0000
0000
0000
,
0001
0000
0000
0000
0110
0000
0010
0100
0001
0100
0001
0000
1100
0000
0000
0000
,
0010
0000
0000
0000
1001
0000
1000
0100
0001
0100
1000
0000
1010
0000
0000
0000
,
0001
0000
0000
0000
0110
0000
0010
1000
0001
1000
0010
0100
0001
0100
0010
1000
,
0100
0000
0000
0000
0011
0000
0001
0010
0100
1000
0100
0000
1010
0000
0000
0000
,
0100
0000
0000
0000
1010
0000
0010
1000
0001
1000
0100
0000
0011
0000
0000
0000
,
1000
0000
0000
0000
1010
0000
0001
0010
0100
1000
0100
0000
0011
0000
0000
0000
,
0100
0000
0000
0000
0011
0000
0001
0100
0010
0001
0010
0100
0001
0010
0001
1000
,
0100
0000
0000
0000
1001
0000
1000
0100
0010
0100
1000
0000
0011
0000
0000
0000
,
1000
0000
0000
0000
0110
0000
0010
0100
0001
0100
0001
0000
1100
0000
0000
0000
,
0010
0000
0000
0000
1001
0000
0001
0100
0010
0100
0001
0000
0011
0000
0000
0000
,
1000
0000
0000
0000
0110
0000
0010
1000
0001
1000
0010
0100
0001
0100
0010
1000
,
0100
0000
0000
0000
1010
0000
1000
0010
0100
0001
0100
0000
0011
0000
0000
0000
,
0100
0000
0000
0000
0011
0000
0010
0001
1000
0001
0100
0000
1010
0000
0000
0000
,
0001
0000
0000
0000
0011
0000
1000
0010
0100
0001
0100
0000
1010
0000
0000
0000
,
0100
0000
0000
0000
1010
0000
1000
0100
0010
1000
0010
0100
1000
0010
1000
0001
,
0100
0000
0000
0000
1001
0000
0001
0100
0010
0100
0001
0000
1010
0000
0000
0000
,
0001
0000
0000
0000
0110
0000
0010
0100
1000
0100
1000
0000
0101
0000
0000
0000
,
0010
0000
0000
0000
1001
0000
1000
0100
0010
0100
1000
0000
1010
0000
0000
0000
,
0001
0000
0000
0000
0110
0000
0010
0001
1000
0001
0010
0100
1000
0100
0010
0001
,
0100
0000
0000
0000
0011
0000
0001
0010
0100
1000
0100
0000
1010
0000
0000
0000
,
0100
0000
0000
0000
1010
0000
0010
1000
0001
1000
0100
0000
0011
0000
0000
0000
,
1000
0000
0000
0000
1010
0000
0001
0010
0100
1000
0100
0000
0011
0000
0000
0000
,
0100
0000
0000
0000
0011
0000
0001
0100
0010
1000
0010
0100
0001
0010
0001
1000
,
0100
0000
0000
0000
1001
0000
1000
0100
0001
0100
0010
0000
0011
0000
0000
0000
,
1000
0000
0000
0000
0110
0000
0010
0100
1000
0100
0001
0000
0101
0000
0000
0000
,
0010
0000
0000
0000
1001
0000
0001
0100
1000
0100
0010
0000
0011
0000
0000
0000
,
1000
0000
0000
0000
0110
0000
0010
0001
1000
0001
0010
0100
0001
0100
0010
0001
,
0101
0000
0101
0000
0010
1000
0010
0001
0010
1000
1100
0000
0010
0001
0010
0001
,
0101
0000
0101
0000
0010
1000
0010
0001
0010
1000
1100
0000
0010
1000
0010
1000
,
1100
0000
1100
0000
0010
0001
0010
1000
0010
0001
0101
0000
0010
1000
0010
1000
,
1100
0000
1100
0000
0010
0001
0010
1000
0010
0001
0101
0000
0010
0001
0010
0001
,
1001
0000
0000
0000
;

//---------------dance-single - nvwls300----------------
#NOTES:
     dance-single:
     nvwls300:
     Hard:
     9:
     0.743,0.676,0.773,0.000,0.632:
0000
0000
0000
0000
,
0000
0000
0000
0000
,
0000
0000
0000
0000
,
0000
0000
0000
0000
,
0001
0000
0000
0000
0110
0000
0000
0001
1000
0000
0001
0000
1000
0100
1000
0000
,
0100
0000
0000
0000
0011
0000
0000
0100
1000
0000
0100
0000
0010
0001
0010
0000
,
0100
0000
0000
0000
1001
0000
0000
0100
0010
0000
1000
0000
0001
0010
0001
0000
,
0100
0000
0000
0000
1010
0000
0000
1000
0100
0000
1000
0000
0001
0100
0001
0000
,
0010
0000
0000
0000
0101
0000
0000
0010
1000
0000
0001
0000
1000
0010
1000
0000
,
0001
0000
0000
0000
0110
0000
0000
1000
0001
0000
1000
0000
0010
0100
0010
0000
,
0001
0000
0000
0000
0110
0000
0000
0001
1000
0000
0100
0000
1000
0001
1000
0000
,
0010
0000
0000
0000
0011
0000
0000
0010
1000
0000
0001
0000
1000
0100
1000
0000
,
0001
0000
0000
0000
0101
0000
0000
0001
1000
0000
0010
0000
0100
0010
0100
0000
,
0001
0000
0000
0000
1010
0000
0000
0100
0001
0000
0100
0000
0001
1000
0100
0000
,
1000
0000
0000
0000
0011
0000
0000
0100
1000
0000
0100
0000
0010
0001
0010
0000
,
0100
0000
0000
0000
0101
0000
0000
0100
1000
0000
0001
0000
0100
0001
1000
0000
,
0100
0000
0000
0000
1100
0000
0000
0010
0001
0000
1000
0000
0001
0010
0001
0000
,
0100
0000
0000
0000
0011
0000
0000
0001
0100
0000
0001
0000
0100
0010
1000
0000
,
0001
0000
0000
0000
1010
0000
0000
1000
0100
0000
0010
0000
0001
1000
0001
0000
,
0010
0000
0000
0000
1100
0000
0000
0001
0100
0001
1000
0001
0010
0001
1000
0001
,
0100
0000
0010
1000
0010
0000
0100
0000
0010
1000
0010
0000
0100
0000
1010
0000
,
0001
0000
0010
0100
0010
0000
0001
0000
0010
0100
0010
0000
0001
0000
0110
0000
,
1000
0000
0001
0100
0010
0000
1000
0000
0001
0100
0010
0000
1000
0000
0100
0010
,
0001
0000
1000
0000
0100
0010
0001
0000
1000
0000
0011
0000
1000
0000
0110
0000
,
0110
0000
1100
1100
0001
0101
1000
1100
,
0001
0011
0011
0000
1001
1001
0100
0110
,
0001
0000
1010
0000
1010
0000
0000
0000
0101
0000
0101
0000
0000
0000
0010
1000
,
0010
0000
0100
0000
0001
0010
0001
0000
0100
0000
1010
0000
0011
0000
0000
0000
,
0100
0000
0000
0000
0011
0000
0001
0010
0100
1000
0100
0000
1100
0000
0000
0000
,
0001
0000
0000
0000
1010
0000
0010
1000
0001
1000
0100
0000
1100
0000
0000
0000
,
0001
0000
0000
0000
1010
0000
1000
0010
0100
0001
0100
0000
0101
0000
0000
0000
,
1000
0000
0000
0000
0011
0000
0001
0100
0010
1000
0010
0100
0010
1000
0010
0100
,
0001
0000
0000
0000
1001
0000
1000
0100
0010
0100
1000
0000
1001
0000
0000
0000
,
0100
0000
0000
0000
0110
0000
0001
0010
0100
1000
0100
0000
0110
0000
0000
0000
,
0001
0000
0000
0000
1001
0000
0001
0100
0010
0100
0001
0000
0011
0000
0000
0000
,
1000
0000
0000
0000
0110
0000
0001
0010
0001
0010
0100
0010
0100
0010
0100
1000
,
0100
0000
0000
0000
1010
0000
1000
0010
0100
0001
0100
0000
0101
0000
0000
0000
,
1000
0000
0000
0000
0011
0000
0010
0001
1000
0001
0100
0000
0110
0000
0000
0000
,
0001
0000
0000
0000
0011
0000
0010
0001
1000
0100
1000
0000
1100
0000
0000
0000
,
0001
0000
0000
0000
1010
0000
1000
0001
0010
0001
1000
0010
0100
0010
1000
0001
,
0010
0000
0000
0000
0110
0000
0100
1000
0001
1000
0100
0000
1100
0000
0000
0000
,
0001
0000
0000
0000
1010
0000
0010
0100
0001
0100
0010
0000
0110
0000
0000
0000
,
1000
0000
0000
0000
1001
0000
1000
0100
0010
0100
1000
0000
1001
0000
0000
0000
,
0100
0000
0000
0000
0110
0000
0001
1000
0001
1000
0100
1000
0100
1000
0100
0010
,
0100
0000
0000
0000
0011
0000
0001
0010
0100
1000
0100
0000
0110
0000
0000
0000
,
1000
0000
0000
0000
1010
0000
0010
1000
0001
1000
0100
0000
0110
0000
0000
0000
,
0001
0000
0000
0000
1010
0000
1000
0010
0100
0001
0100
0000
0110
0000
0000
0000
,
0001
0000
0000
0000
0011
0000
0001
0100
0010
1000
0010
0100
0010
1000
0010
0100
,
0001
0000
0000
0000
1001
0000
1000
0100
0010
0100
1000
0000
1010
0000
0000
0000
,
0100
0000
0000
0000
0110
0000
0001
1000
0010
1000
0100
0000
1100
0000
0000
0000
,
0001
0000
0000
0000
1010
0000
0001
0100
0010
1000
0010
0000
0110
0000
0000
0000
,
1000
0000
0000
0000
0101
0000
0001
0010
0001
0010
0100
0010
0100
0010
0100
1000
,
0100
0000
0000
0000
1010
0000
1000
0001
0010
0100
0010
0000
0011
0000
0000
0000
,
0100
0000
0000
0000
0011
0000
0010
0001
1000
0001
0100
0000
0110
0000
0000
0000
,
0001
0000
0000
0000
1010
0000
0010
1000
0001
0100
0001
0000
1010
0000
0000
0000
,
0001
0000
0000
0000
0110
0000
1000
0001
0010
0001
1000
0010
0100
0010
1000
0001
,
0010
0000
0000
0000
0110
0000
0100
1000
0001
0100
0001
0000
1001
0000
0000
0000
,
0100
0000
0000
0000
1010
0000
0010
0100
0001
0100
0010
0000
0011
0000
0000
0000
,
1000
0000
0000
0000
1001
0000
1000
0100
0010
0100
1000
0000
1001
0000
0000
0000
,
0100
0000
0000
0000
0110
0000
0001
1000
0001
1000
0100
1000
0100
1000
0100
0010
,
0100
0000
0000
0000
0011
0000
0001
0010
0100
1000
0100
0000
1100
0000
0000
0000
,
0001
0000
0000
0000
1010
0000
0010
1000
0001
1000
0100
0000
0110
0000
0000
0000
,
0001
0000
0000
0000
1010
0000
1000
0001
0100
0010
0100
0000
0101
0000
0000
0000
,
0010
0000
0000
0000
0110
0000
0001
0100
0010
1000
0010
0100
0010
1000
0010
0100
,
0001
0000
0000
0000
1001
0000
1000
0100
0010
0001
0010
0000
0011
0000
0000
0000
,
1000
0000
0000
0000
1010
0000
0001
0100
0010
1000
0010
0000
1010
0000
0000
0000
,
0001
0000
0000
0000
0011
0000
0001
0100
0010
0100
0001
0000
0011
0000
0000
0000
,
1000
0000
0000
0000
0110
0000
0001
0010
0001
0010
0100
0010
0100
0010
0001
1000
,
0001
0000
0001
0000
0010
0100
0010
0001
0010
0100
1000
0000
0010
1000
0010
1000
,
0001
0000
0001
0000
0010
0100
0001
0100
0010
0100
1000
0000
0010
0100
0010
0100
,
0001
0000
0001
0000
0010
0100
0010
0001
0010
0100
1000
0000
0010
1000
0010
1000
,
0100
0000
0100
0000
0010
0001
0010
0100
0010
0001
0100
0000
0001
0010
0100
1000
,
1100
0000
0000
0000
;
