#TITLE:Little Cat Steps;
#SUBTITLE:;
#ARTIST:Feed Me;
#TITLETRANSLIT:;
#SUBTITLETRANSLIT:;
#ARTISTTRANSLIT:;
#GENRE:;
#CREDIT:;
#BANNER:Little Cat Steps-bn.png;
#BACKGROUND:Little Cat Steps-bg.png;
#LYRICSPATH:;
#CDTITLE:;
#MUSIC:Little Cat Steps.ogg;
#OFFSET:-0.520;
#SAMPLESTART:52.980;
#SAMPLELENGTH:12.000;
#SELECTABLE:YES;
#BPMS:0.000=128.000,17.500=256.000,19.500=128.000,23.000=256.000,26.000=128.000,28.500=256.000,32.500=128.000,35.500=256.000,37.500=128.000,42.500=256.000,48.500=128.000,58.000=256.000,60.000=128.000,63.500=256.000,66.500=128.000,69.000=256.000,73.000=128.000,76.000=256.000,78.000=128.000,83.000=256.000,89.000=128.000,98.500=256.000,100.500=128.000,104.000=256.000,107.000=128.000,109.500=256.000,113.500=128.000,116.500=256.000,118.500=128.000,123.500=256.000,129.500=128.000,139.000=256.000,141.000=128.000,144.500=256.000,147.500=128.000,150.000=256.000,154.000=128.000,157.000=256.000,159.000=128.000,164.000=256.000,170.000=128.000,179.500=256.000,181.500=128.000,185.000=256.000,188.000=128.000,190.500=256.000,194.500=128.000,197.500=256.000,199.500=128.000,204.500=256.000,210.500=128.000,220.000=256.000,222.000=128.000,225.500=256.000,228.500=128.000,231.000=256.000,235.000=128.000,238.000=256.000,240.000=128.000,245.000=256.000,251.000=128.000;
#STOPS:;
#BGCHANGES:0.000=Little Cat Steps.avi=1.000=0=0=0=StretchNoLoop====,
99999=-nosongbg-=1.000=0=0=0 // don't automatically add -songbackground-
;
#KEYSOUNDS:;

//---------------dance-single - nvwls300----------------
#NOTES:
     dance-single:
     nvwls300:
     Hard:
     9:
     0.554,0.523,0.184,0.213,0.000:
0000
0000
0000
0000
,
0000
0000
0000
0000
,
0000
0000
0000
0000
,
0000
0000
0000
0000
,
1000
0010
0100
0001
0100
0010
1000
0100
,
1000
0010
0100
0001
1000
0100
0010
0100
,
1000
0001
0100
0010
1000
0010
0100
0001
,
1000
0100
1000
0001
0100
0010
1000
0100
,
0010
0001
0010
0100
1000
0010
0100
0001
,
0100
0010
1000
0100
1000
0010
0100
0001
,
1000
0100
0010
0001
0100
0010
0100
0001
,
0010
0100
1000
0001
0100
0010
1000
0100
,
0010
0001
0010
0100
1000
0010
0100
0001
,
1000
0100
0010
0001
0100
0010
1000
0001
,
0010
0100
1000
0001
0100
0001
1000
0100
,
0010
0100
1000
0001
0100
0010
1000
0100
,
1000
0010
0100
0001
1000
0100
1000
0001
,
0100
0010
1000
0010
0100
0001
1000
0100
,
0010
0001
1000
0001
0010
0100
1000
0001
,
0100
0001
1000
0100
0010
0100
1000
0001
,
0100
0010
1000
0100
0010
0001
1000
0001
,
0010
0100
1000
0010
0100
0001
1000
0100
,
0010
0001
1000
0001
0010
0100
1000
0001
,
0100
0010
1000
0100
0010
0001
1000
0010
,
0100
0001
1000
0100
0010
0001
0010
0100
,
1000
0001
1000
0100
0010
0001
0100
0010
,
1000
0010
0100
0001
0010
0100
1000
0100
,
0010
0001
0100
0010
0100
0001
0010
0100
,
1000
0001
0100
0010
0100
0001
1000
0100
,
0010
0001
0010
0100
1000
0001
1000
0100
,
0010
0001
0100
0010
1000
0001
0010
0100
,
0010
0001
1000
0010
0100
0001
0010
0100
,
1000
0001
0100
0010
0100
0001
1000
0100
,
0010
0001
0100
0010
1000
0001
0010
0100
,
1000
0010
0100
0001
0010
0100
1000
0100
,
0010
0001
0100
0001
0010
0100
1000
0001
,
0100
0010
0100
0001
1000
0100
0010
0001
,
0010
0100
1000
0001
0100
0001
1000
0100
,
0010
0001
0100
0010
1000
0010
0100
0001
,
0010
0100
1000
0100
0010
0001
0100
0001
,
0010
0100
1000
0001
0100
0010
1000
0100
,
0010
0100
1000
0010
0100
0001
1000
0100
,
0010
0001
0100
0010
1000
0010
0100
0001
,
0010
0100
1000
0001
0100
0010
1000
0100
,
0010
0001
1000
0010
2MM1
0000
0000
0000
,
0000
0001
0000
0000
0000
0000
0001
0000
,
0000
3000
2MM2
0000
0000
0000
0000
3003
,
M1M2
0000
0000
0000
0000
0100
0000
0000
,
0000
0000
0000
0000
0000
0100
0000
0000
,
0003
22MM
0000
0000
3300
M12M
0000
0000
,
0000
0000
0000
0100
0000
0000
0000
0100
,
0000
0000
0000
0000
0030
22MM
0000
0000
,
0000
0000
3300
2M1M
0000
0000
0000
0000
,
0000
0010
0000
0000
0000
0010
0000
0000
,
3000
M22M
0000
0000
0330
1MM2
0000
0000
,
0000
0000
0110
0000
0000
0000
0000
1000
,
0000
0000
0003
2M2M
0000
0000
0000
0000
,
3030
M2M1
0000
0000
0000
0000
1010
0000
,
0000
0000
0000
0001
,
0000
0300
2MM2
0000
0000
3003
MM12
0000
,
0000
0000
1100
0000
,
0010
0000
0000
0000
0000
0003
M22M
0000
,
0000
0000
0000
0330
1MM2
0000
0000
0000
,
0000
0110
0000
1000
,
0000
0000
0013
0001
0010
0100
0040
0000
,
0000
0000
0000
0000
,
0000
0000
0000
0000
,
0000
0000
0000
0000
0000
0030
0000
0000
;

//---------------dance-single - nvwls300----------------
#NOTES:
     dance-single:
     nvwls300:
     Challenge:
     9:
     0.705,0.523,0.000,0.000,0.000:
0000
0000
0000
0000
,
0000
0000
0000
0000
,
0000
0000
0000
0000
,
0000
0000
0000
0000
,
0001
0100
0010
1000
0010
0100
0001
0010
,
0001
0100
0010
1000
0001
0010
0100
0010
,
0001
1000
0010
0100
0001
0100
0010
1000
,
0001
0010
0001
1000
0010
0100
0001
0010
,
0100
1000
0100
0010
0001
0100
0010
1000
,
0010
0100
0001
0010
0001
0100
0010
1000
,
0001
0010
0100
1000
0010
0100
0010
1000
,
0100
0010
0001
1000
0010
0100
0001
0010
,
0100
1000
0100
0010
0001
0100
0010
1000
,
0001
0010
0100
1000
0010
0100
0001
1000
,
0100
0010
0001
1000
0010
1000
0001
0010
,
0100
0010
0001
1000
0010
0100
0001
0010
,
0001
0100
0010
1000
0001
0010
0001
1000
,
0010
0100
0001
0100
0010
1000
0001
0010
,
0100
1000
0001
1000
0100
0010
0001
1000
,
0010
1000
0001
0010
0100
0010
0001
1000
,
0010
0100
0001
0010
0100
1000
0001
1000
,
0100
0010
0001
0100
0010
1000
0001
0010
,
0100
1000
0001
1000
0100
0010
0001
1000
,
0010
0100
0001
0010
0100
1000
0001
0100
,
0010
1000
0001
0010
0100
1000
0100
0010
,
0001
1000
0001
0010
0100
1000
0010
0100
,
0001
0100
0010
1000
0100
0010
0001
0010
,
0100
1000
0010
0100
0010
1000
0100
0010
,
0001
1000
0010
0100
0010
1000
0001
0010
,
0100
1000
0100
0010
0001
1000
0001
0010
,
0100
1000
0010
0100
0001
1000
0100
0010
,
0100
1000
0001
0100
0010
1000
0100
0010
,
0001
1000
0010
0100
0010
1000
0001
0010
,
0100
1000
0010
0100
0001
1000
0100
0010
,
0001
0100
0010
1000
0100
0010
0001
0010
,
0100
1000
0010
1000
0100
0010
0001
1000
,
0010
0100
0010
1000
0001
0010
0100
1000
,
0100
0010
0001
1000
0010
1000
0001
0010
,
0100
1000
0010
0100
0001
0100
0010
1000
,
0100
0010
0001
0010
0100
1000
0010
1000
,
0100
0010
0001
1000
0010
0100
0001
0010
,
0100
0010
0001
0100
0010
1000
0001
0010
,
0100
1000
0010
0100
0001
0100
0010
1000
,
0100
0010
0001
1000
0010
0100
0001
0010
,
0100
1000
0001
0100
M01M
1000
0001
0010
,
0001
1000
0010
0100
0010
1000
0001
0010
,
0100
1000
0M1M
1000
0100
0010
0001
1000
,
0M1M
1000
0001
0010
0100
1000
0100
0010
,
0001
1000
0010
0100
0001
1000
0001
0100
,
0010
1M0M
0001
0010
0001
1MM0
0010
0100
,
0010
1000
0001
0010
0100
1000
0010
0100
,
0001
0010
0001
0100
0010
1M0M
0100
0010
,
0001
1000
0010
M10M
0001
1000
0001
0100
,
0010
1000
0001
0010
0100
1000
0010
0100
,
0001
MM10
0100
1000
0001
M1M0
0010
1000
,
0100
1000
0010
0100
0001
0100
0010
1000
,
0100
0010
0001
1MM0
0001
0010
0100
1000
,
0010
M10M
0010
1000
0100
0010
0001
0010
,
0100
1000
0010
0100
0001
1000
0100
1000
,
0001
0100
M01M
1000
0100
1000
0M1M
0100
,
0001
0100
0010
1000
0100
0010
0001
1000
,
0010
0100
0001
0100
0010
1000
0MM1
0010
,
0100
1000
0010
0100
M0M1
1000
0100
1000
,
0001
0100
0010
1000
0100
0010
0001
1000
,
0010
0100
0001
0010
0100
1000
0100
1000
,
0100
1000
0100
1000
0100
1000
0100
1000
,
0100
1000
0100
1000
0100
1000
0100
1000
,
0100
1000
0100
1000
0100
1000
0000
0000
;

//---------------dance-single - Hard----------------
#NOTES:
     dance-single:
     Hard:
     Medium:
     5:
     0.182,0.326,0.493,0.290,0.000:
0000
0000
0000
0000
,
0000
0000
0000
0000
,
0000
0000
0000
0000
,
0000
0000
0000
0000
,
1001
0000
0000
0000
,
0000
0000
0000
1001
,
0000
0000
0101
0000
,
0000
0000
0000
0000
,
0000
0000
0000
0000
0000
0101
0000
0000
,
0000
0110
0000
0000
0000
0000
0000
0000
,
0000
0000
0000
0000
,
0000
0110
0000
0000
0000
0000
0000
1010
,
0000
0000
0000
0000
,
0000
0000
0000
0000
0000
0011
0000
0000
,
0000
1001
0000
0000
0000
0000
0000
0000
,
0000
0000
0000
0000
0000
0000
0000
0110
,
0000
0000
0000
0000
0000
1100
0000
0000
,
0000
0000
0000
0000
,
0000
0000
0000
0101
,
0000
0110
0000
0000
,
0000
0000
0000
0000
,
0000
1001
0000
0000
,
1010
0000
0000
0000
,
0000
0000
0000
0110
,
0000
1001
0000
0000
,
0000
0000
0000
0000
,
1001
0000
0000
1100
,
0000
0000
0000
0000
,
0000
0000
0000
0000
0000
0000
0000
0101
,
0000
0000
0000
0110
0000
0000
0000
0000
,
0000
0000
0000
0000
,
0000
0000
0000
0110
0000
0000
0000
0000
,
0000
1001
0000
0000
0000
0000
0000
0000
,
0000
0000
0000
0000
0000
0000
0000
1100
,
0000
0000
0000
0011
0000
0000
0000
0000
,
0000
0000
0000
0000
,
0000
1010
0000
0000
0000
0000
0000
1100
,
0000
0000
0000
0000
,
0000
0000
0000
0000
,
0101
0000
0110
0000
,
0000
0000
0000
0000
,
0000
0000
1001
0000
,
0000
1010
0000
0000
,
0000
0000
0000
0000
,
0011
0000
2200
0000
,
0000
0000
0000
0000
,
0000
3300
2002
0000
0000
0000
0000
3003
,
0202
0000
0000
0000
,
0000
0000
0000
0000
,
0303
2200
0000
0000
3300
0220
0000
0000
,
0000
0000
0000
0000
,
0000
0000
0000
0000
0330
2200
0000
0000
,
0000
0000
3300
2020
0000
0000
0000
0000
,
0000
0000
0000
0000
,
3030
2002
0000
0000
3003
2200
0000
0000
,
0000
0011
0000
0000
,
0000
0000
3300
2020
0000
0000
0000
0000
,
3030
0220
0000
0000
0000
0000
1001
0000
,
0000
0000
0000
0000
,
0000
0330
0202
0000
0000
0303
0022
0000
,
0000
0000
1100
0000
,
0000
0000
0000
0000
0000
0033
0220
0000
,
0000
0000
0000
0330
2002
0000
0000
0000
,
0000
0110
0000
0000
,
0000
3003
0000
0000
,
0000
0000
0000
0000
,
0000
0000
0000
0000
,
0000
0000
M00M
0000
;
