#TITLE:Let's Get This Party Started;
#SUBTITLE:;
#ARTIST:KoRn;
#TITLETRANSLIT:;
#SUBTITLETRANSLIT:;
#ARTISTTRANSLIT:;
#GENRE:;
#CREDIT:;
#BANNER:Let's Get This Party Started-bn.jpg;
#BACKGROUND:Let's Get This Party Started-bg.jpg;
#LYRICSPATH:;
#CDTITLE:;
#MUSIC:Let's Get This Party Started.ogg;
#OFFSET:-0.520;
#SAMPLESTART:61.180;
#SAMPLELENGTH:18.500;
#SELECTABLE:YES;
#BPMS:0.000=55.220,8.000=113.000,12.000=112.000,14.000=111.000,15.500=53.500,16.500=112.000,24.000=111.000,28.000=110.000,30.500=55.000,31.500=110.500,34.000=110.000,45.500=55.400,46.500=110.800,60.500=55.400,61.500=110.800,68.000=111.000,72.000=111.500,76.000=112.500,80.000=110.500,129.000=111.000,139.500=55.400,140.500=111.000,141.000=111.110,154.500=54.500,155.500=111.000,169.500=52.620,170.500=111.110,175.000=111.000,177.000=111.110,179.000=111.200,184.500=55.500,185.500=111.000,190.000=111.500,192.000=110.000,196.000=111.000,200.000=111.000,204.000=110.000,224.000=110.500,240.000=111.000,254.000=108.500,255.500=106.000;
#STOPS:;
#BGCHANGES:;
#KEYSOUNDS:;

//---------------dance-single - nvwls300----------------
#NOTES:
     dance-single:
     nvwls300:
     Challenge:
     10:
     0.684,0.713,0.917,0.224,0.591:
0000
0000
0000
0000
,
0000
0000
0000
0000
,
MM1M
0000
0000
1000
0001
0000
1001
0000
1100
0000
0000
1000
0001
0000
1001
0000
,
1010
0000
0000
0100
0001
0000
0101
0000
0010
1000
0010
1000
0100
0000
2010
0000
,
0000
3001
1001
0000
1100
0000
0000
1000
0001
0000
1001
0000
0101
0000
0000
1000
,
0010
0000
0110
0000
1000
0001
1000
0001
0010
0000
0120
0000
0000
0000
0031
0000
,
1001
0000
0100
0000
0100
0000
0000
0001
0010
0000
1100
0000
1100
0000
0000
0100
,
0010
0000
1001
0000
0100
1000
0100
0010
0001
0000
1002
0000
0000
0013
0110
0000
,
1100
0000
0000
1000
0010
0000
0110
0000
0101
0000
0000
0001
0010
0000
1100
0000
,
0010
0001
1000
0001
0100
0000
0021
0000
0000
0000
0031
0000
1010
0000
0001
0000
,
0100
0000
0000
0001
0010
0000
1010
0000
1100
0000
0000
1000
0010
0000
0110
0000
,
0100
0001
0100
0010
1000
0000
0021
0000
0000
1030
1001
0000
0101
0000
0000
0001
,
1000
0000
0110
0000
1100
0000
0000
1000
0001
0000
0101
0000
1000
0010
1000
0001
,
0100
0000
1020
0000
0000
0000
0031
0000
0011
0000
1000
0000
0100
0000
0000
0001
,
0010
0000
1001
0000
1100
0000
0000
0001
0100
0000
1001
0000
0001
0100
0010
1000
,
0100
0000
0201
0000
0000
0310
1100
0000
1100
0000
0000
1000
0010
0000
0101
0000
,
0101
0000
0000
0100
0010
0000
0001
0000
0001
0000
0100
0000
1010
0000
0100
0000
,
2MM1
0001
0001
0001
,
321M
0010
0010
0010
,
M321
0001
0001
0001
,
123M
0000
0000
0000
0000
0000
1000
0000
0000
0000
0000
0000
1000
0000
0000
0001
0010
0001
0010
0000
0000
0000
0000
0000
,
13M2
1000
1000
1000
,
M213
0010
0010
0010
,
132M
0000
0000
0000
1000
0000
0000
0000
1000
0000
0000
0000
0000
0200
0000
0000
,
0030
0002
0000
0000
0000
1010
0000
0000
0000
1010
0000
0000
0303
0000
0000
0000
,
0001
0010
0100
0010
0011
0001
1000
0100
1000
0001
0100
0001
1001
1000
0010
0100
,
0001
1000
0100
1000
1001
0001
0010
0100
1000
0000
0100
0000
1001
0000
0000
0000
,
1000
0010
0100
0001
1001
1000
0100
0010
0001
1000
0010
0100
0101
0001
0010
0100
,
1000
0100
0010
0001
1001
1000
0010
0100
0001
0000
0100
0000
1001
0000
0100
0000
,
1000
0010
0100
0010
1010
1000
0001
0100
0001
1000
0100
1000
1001
0001
0010
0100
,
1000
0001
0100
0001
1001
1000
0010
0100
0001
0000
0100
0000
1001
0000
0000
0000
,
0001
0010
0100
1000
1001
0001
0100
0010
1000
0001
0010
0100
1100
1000
0010
0100
,
0001
0100
0010
1000
1001
0001
0010
0100
1000
0000
0100
0000
1001
0000
0010
0000
,
0100
0000
0000
0001
1000
0000
1001
0000
0101
0000
0000
0001
1000
0000
1001
0000
,
0011
0000
0000
0100
1000
0000
1100
0000
0010
0001
0010
0001
0100
0000
0012
0000
,
0000
1003
1001
0000
0101
0000
0000
0001
1000
0000
1001
0000
1100
0000
0000
0001
,
0010
0000
0110
0000
0001
1000
0001
1000
0010
0000
0120
0000
0000
0000
1030
0000
,
1001
0000
0100
0000
0100
0000
0000
1000
0010
0000
0101
0000
0101
0000
0000
0100
,
0010
0000
1001
0000
0100
0001
0100
0010
1000
0000
1002
0000
0000
0013
0110
0000
,
0101
0000
0000
0001
0010
0000
0110
0000
1100
0000
0000
1000
0010
0000
0101
0000
,
0010
1000
0001
1000
0100
0000
1020
0000
0000
0000
1030
0000
0011
0000
1000
0000
,
0100
0000
0000
1000
0010
0000
0011
0000
0101
0000
0000
0001
0010
0000
0110
0000
,
0100
1000
0100
0010
0001
0000
1020
0000
0000
0031
1001
0000
1100
0000
0000
1000
,
0001
0000
0110
0000
0101
0000
0000
0001
1000
0000
0101
0000
0001
0010
0001
1000
,
0100
0000
0021
0000
0000
0000
1030
0000
1010
0000
0001
0000
0100
0000
0000
1000
,
0010
0000
1001
0000
0101
0000
0000
1000
0100
0000
1001
0000
1000
0100
0010
0001
,
0100
0000
1200
0000
0000
0310
0101
0000
0101
0000
0000
0001
0010
0000
1100
0000
,
1100
0000
0000
0100
0010
0000
1000
0000
1000
0000
0100
0000
0011
0000
0100
0000
,
1002
M000
1000
M000
1000
M000
1000
M000
,
0213
00M0
0010
00M0
0010
00M0
0010
00M0
,
1320
M000
1000
M000
1000
M000
1000
M000
,
0231
0000
0000
000M
0000
0000
0001
0000
0000
000M
0000
0000
0001
0000
0000
1000
0010
1000
0010
0000
0000
0000
0000
0000
,
2301
000M
0001
000M
0001
000M
0001
000M
,
3210
00M0
0010
00M0
0010
00M0
0010
00M0
,
0321
0000
000M
0000
0001
0000
000M
0000
0001
0000
0000
0000
0000
0200
0000
0000
,
0030
2000
0000
0000
0000
0011
0000
0000
0000
0011
0000
0000
3300
0000
0000
0000
,
1000
0010
0100
0010
1010
1000
0001
0100
0001
1000
0100
1000
1001
0001
0010
0100
,
1000
0001
0100
0001
1001
1000
0010
0100
0001
0000
0100
0000
1001
0000
0000
0000
,
0001
0010
0100
1000
1001
0001
0100
0010
1000
0001
0010
0100
1100
1000
0010
0100
,
0001
0100
0010
1000
1001
0001
0010
0100
1000
0000
0100
0000
1001
0000
0100
0000
,
0001
0010
0100
0010
0011
0001
1000
0100
1000
0001
0100
0001
1001
1000
0010
0100
,
0001
1000
0100
1000
1001
0001
0010
0100
1000
0000
0100
0000
1001
0000
0000
0000
,
1000
0010
0100
0001
1001
1000
0100
0010
0001
1000
0010
0100
0101
0001
0010
0100
,
1000
0100
0010
0001
1001
1000
0010
0100
1000
0000
0001
0000
1010
1000
0001
0000
,
0220
0000
0000
0000
,
0000
0000
0330
0000
;

//---------------dance-single - nvwls300----------------
#NOTES:
     dance-single:
     nvwls300:
     Hard:
     9:
     0.626,0.627,0.515,0.224,0.591:
0000
0000
0000
0000
,
0000
0000
0000
0000
,
0100
0000
0000
1000
0001
0000
1000
0000
1100
0000
0000
1000
0001
0000
1000
0000
,
1010
0000
0000
0100
0001
0000
0100
0000
0010
1000
0010
1000
0100
0000
0020
0000
,
0000
0031
1001
0000
1001
0000
0000
1000
0010
0000
1010
0000
1010
0000
0000
1000
,
0100
0000
1100
0000
0100
1000
0001
1000
0010
0000
0200
0000
0000
0000
0301
0000
,
0010
0000
0001
0000
0101
0000
0000
0100
0010
0000
1000
0000
1100
0000
0000
0001
,
0010
0000
0001
0000
1000
0100
1000
0001
0010
0000
2000
0000
0000
3010
0110
0000
,
0110
0000
0000
0001
1000
0000
1001
0000
1001
0000
0000
0100
0010
0000
0110
0000
,
1000
0001
1000
0001
0100
0000
0020
0000
0000
0000
0130
0000
1000
0000
0100
0000
,
0101
0000
0000
0001
0010
0000
0100
0000
1100
0000
0000
1000
0010
0000
1000
0000
,
0001
0010
0001
1000
0010
0000
0200
0000
0000
0301
1001
0000
1001
0000
0000
0001
,
0100
0000
0101
0000
0101
0000
0000
1000
0010
0000
1010
0000
0001
0100
0010
1000
,
0010
0000
2000
0000
0000
0000
3001
0000
0010
0000
0001
0000
1001
0000
0000
1000
,
0010
0000
0100
0000
0101
0000
0000
0001
1000
0000
0010
0000
0100
0001
0100
0010
,
1000
0000
0020
0000
0000
1030
1100
0000
1100
0000
0000
0001
0010
0000
0011
0000
,
0011
0000
0000
1000
0010
0000
0100
0000
0100
0000
0001
0000
1010
0000
0100
0000
,
2001
0000
0001
0000
0001
0000
0001
3000
,
0210
0000
0010
0000
0010
0000
0010
0300
,
0021
0000
0001
0000
0001
0000
0001
0030
,
1200
0000
0000
0000
0000
0000
1000
0000
0000
0000
0000
0000
1300
0000
0000
0001
0010
0001
0010
0000
0000
0000
0000
0000
,
1002
0000
1000
0000
1000
0000
1000
0003
,
0210
0000
0010
0000
0010
0000
0010
0300
,
1020
0000
0000
0000
1000
0000
0000
0000
1000
0000
0030
0000
0000
0200
0000
0000
,
0000
0002
0000
0000
0000
0010
0000
0000
0000
0010
0000
0000
0303
0000
0000
0000
,
0001
0010
0100
0010
0001
1000
0001
0100
0001
1000
0100
1000
0001
1000
0010
0100
,
0001
1000
0100
1000
0001
1000
0010
0100
0001
0000
0100
0000
1001
0000
0000
0000
,
1000
0010
0100
0001
1000
0001
0100
0010
1000
0001
0010
0100
1000
0100
0010
0001
,
1000
0010
1000
0001
0010
0001
0010
0100
1000
0000
0100
0000
1001
0000
0100
0000
,
0001
0010
0100
0010
0001
1000
0001
0100
0001
1000
0100
1000
0001
1000
0010
0100
,
0001
1000
0100
1000
0001
1000
0010
0100
0001
0000
0100
0000
1001
0000
0000
0000
,
1000
0010
0100
0001
1000
0001
0100
0010
1000
0001
0010
0100
1000
0100
0010
0001
,
0100
0001
1000
0001
0010
0001
1000
0001
0100
0000
0010
0000
1001
0000
0010
0000
,
0100
0000
0000
0001
1000
0000
0001
0000
0101
0000
0000
0001
1000
0000
0001
0000
,
0011
0000
0000
0100
1000
0000
0100
0000
0010
0001
0010
0001
0100
0000
0020
0000
,
0000
1030
1001
0000
1001
0000
0000
0001
0010
0000
0011
0000
0011
0000
0000
0001
,
0100
0000
0101
0000
0100
0001
1000
0001
0010
0000
0200
0000
0000
0000
1300
0000
,
0010
0000
1000
0000
1100
0000
0000
0100
0010
0000
0001
0000
0101
0000
0000
1000
,
0010
0000
1000
0000
0001
0100
0001
1000
0010
0000
0002
0000
0000
0013
0110
0000
,
0110
0000
0000
1000
0001
0000
1001
0000
1001
0000
0000
0100
0010
0000
0110
0000
,
0001
1000
0001
1000
0100
0000
0020
0000
0000
0000
0130
0000
0001
0000
0100
0000
,
1100
0000
0000
1000
0010
0000
0100
0000
0101
0000
0000
0001
0010
0000
0001
0000
,
1000
0010
1000
0001
0010
0000
0200
0000
0000
1300
1001
0000
1001
0000
0000
1000
,
0100
0000
1100
0000
1100
0000
0000
0001
0010
0000
0011
0000
1000
0100
0010
0001
,
0010
0000
0002
0000
0000
0000
1003
0000
0010
0000
1000
0000
1001
0000
0000
0001
,
0010
0000
0100
0000
1100
0000
0000
1000
0001
0000
0010
0000
0100
1000
0100
0010
,
0001
0000
0020
0000
0000
0031
0101
0000
0101
0000
0000
1000
0010
0000
1010
0000
,
1010
0000
0000
0001
0010
0000
0100
0000
0100
0000
1000
0000
0011
0000
0100
0000
,
1002
1000
1000
1000
,
0213
0010
0010
0010
,
1320
1000
1000
1000
,
0231
0000
0000
0000
0000
0000
0001
0000
0000
0000
0000
0000
0301
0000
0000
1000
0010
1000
0010
0000
0000
0000
0000
0000
,
2001
0001
0001
0001
,
3210
0010
0010
0010
,
0321
0000
0000
0000
0001
0000
0000
0000
0001
0000
0000
0000
0000
0200
0000
0000
,
0030
2000
0000
0000
0000
0010
0000
0000
0000
0010
0000
0000
3300
0000
0000
0000
,
1000
0010
0100
0010
1000
0001
1000
0100
1000
0001
0100
0001
1000
0001
0010
0100
,
1000
0001
0100
0001
1000
0001
0010
0100
1000
0000
0100
0000
1001
0000
0000
0000
,
0001
0010
0100
1000
0001
1000
0100
0010
0001
1000
0010
0100
0001
0100
0010
1000
,
0001
0010
0001
1000
0010
1000
0010
0100
0001
0000
0100
0000
1001
0000
0100
0000
,
1000
0010
0100
0010
1000
0001
1000
0100
1000
0001
0100
0001
1000
0001
0010
0100
,
1000
0001
0100
0001
1000
0001
0010
0100
1000
0000
0100
0000
1001
0000
0000
0000
,
0001
0010
0100
1000
0001
1000
0100
0010
0001
1000
0010
0100
0001
0100
0010
1000
,
0100
1000
0001
1000
0010
1000
0001
1000
0100
0000
1000
0000
0010
0001
1000
0000
,
0022
0000
0000
0000
,
0000
0000
0033
0000
;
