#TITLE:Less Talk More Rokk;
#SUBTITLE:;
#ARTIST:Freezepop;
#TITLETRANSLIT:;
#SUBTITLETRANSLIT:;
#ARTISTTRANSLIT:;
#GENRE:;
#CREDIT:;
#BANNER:Less Talk More Rokk-bn.png;
#BACKGROUND:Less Talk More Rokk-bg.png;
#LYRICSPATH:;
#CDTITLE:MunGyo dance 2 CDtitle.PNG;
#MUSIC:Less Talk More Rokk.ogg;
#OFFSET:1.427;
#SAMPLESTART:66.440;
#SAMPLELENGTH:15.280;
#SELECTABLE:YES;
#BPMS:0.000=75.000,6.000=78.000,8.000=81.000,10.000=84.000,14.000=89.000,16.000=92.000,20.000=96.000,22.000=99.000,25.000=102.000,27.000=105.000,29.000=108.000,32.000=111.000,34.000=114.000,36.000=116.000,38.000=119.000,40.000=121.000,42.000=123.000,44.000=125.000;
#STOPS:;
#BGCHANGES:1.667=Less Talk More Rokk.avi=1.000=0=0=0=StretchNoLoop====,
260.000=Less Talk More Rokk-bg.png=1.000=0=0=1=====,
99999=-nosongbg-=1.000=0=0=0 // don't automatically add -songbackground-
;
#KEYSOUNDS:;

//---------------dance-single - Geriatric Patrick----------------
#NOTES:
     dance-single:
     Geriatric Patrick:
     Hard:
     10:
     0.689,0.725,0.123,0.153,0.806:
0000
0000
0000
0000
,
2002
0000
0000
0000
,
0000
0000
0000
3013
,
0100
1000
0100
0010
0001
0010
0001
1000
0010
1000
0010
0100
0002
0000
0000
0000
,
1003
0100
1000
0001
0100
0001
0100
0010
1000
0010
1000
0100
0010
0001
0010
0000
,
0001
0100
0001
0010
0100
0010
0100
1000
0010
1000
0010
0100
0002
0000
0000
0000
,
1003
0100
1000
0010
0100
0010
0100
0001
1000
0001
1000
0100
0010
0001
0010
0000
,
0001
0100
0010
0100
0001
1000
0010
1000
0001
0010
0100
0010
0002
0000
0000
0000
,
1003
0100
0010
0100
1000
0001
0010
0001
1000
0010
0100
0010
1000
0001
1000
0000
,
0100
1000
0001
1000
0010
1000
0001
1000
0001
0100
0001
1000
0020
0000
0000
0000
,
0130
0001
1000
0001
0010
0001
0010
0001
1000
0100
1000
0001
0010
0100
0010
0000
,
0001
0100
0010
1000
0001
0100
0010
1000
0100
1000
0010
0100
0002
0000
0000
0000
,
1003
0100
0010
0001
1000
0100
0010
0001
1000
0010
0100
0010
1000
0001
1000
0000
,
0001
0010
0100
1000
0001
1000
0100
0010
0001
0010
0100
1000
0020
0000
0000
0000
,
1030
0001
0010
0100
1000
0100
0010
0001
1000
0001
0010
0100
1000
0010
1000
0000
,
2002
0000
0000
0000
,
3013
0000
0000
0000
0000
0000
1000
0010
0100
0000
0000
0100
0000
0000
0000
0000
,
0001
0000
0000
0000
0000
0000
0010
0001
0100
0000
0000
0100
0000
0000
0000
0000
,
0001
0000
0000
0000
0000
0000
0010
0001
0100
0000
0000
0100
0000
0000
0000
0000
,
1000
0000
0000
0000
0000
0000
0010
1000
0001
0000
0000
0001
0000
0000
0000
0000
,
1000
0000
0000
0000
0000
0000
0010
1000
0001
0000
0000
0001
0000
0000
0000
0000
,
0100
0000
0000
0000
0000
0000
0010
1000
0100
0000
0000
0100
0000
0000
0000
0000
,
0100
0000
0000
0000
0000
0000
0010
0001
0100
0000
0000
0001
0000
0000
0000
0000
,
1001
0000
0000
0000
0000
0000
0010
0100
0001
0000
0000
0001
0000
0000
0000
0000
,
1001
0000
0000
0000
0000
0000
0010
0100
1000
0000
0000
1000
0000
0000
0000
0000
,
1010
0000
0000
0000
0000
0000
0010
0001
1000
0000
0000
1000
0000
0000
0000
0000
,
0011
0000
0000
0000
0000
0000
0010
1000
0001
0000
0000
0001
0000
0000
0000
0000
,
0110
0000
0000
0000
0000
0000
0010
0001
0100
0000
0000
0100
0000
0000
0000
0000
,
0110
0000
0000
0000
0000
0000
0010
1000
0100
0000
0000
0100
0000
0000
0000
0000
,
0011
0000
0000
0000
0000
0000
0010
1000
0100
0000
0000
0100
0000
0000
0000
0000
,
1010
0000
0000
0000
0000
0000
0010
0001
0100
0000
0000
0001
0000
0000
0010
0100
,
1000
0000
0000
0000
0000
0000
0000
0000
0000
0000
0000
0010
0001
0000
0000
0000
,
1000
0010
0100
0001
1000
0010
0100
0001
1000
0010
0100
0001
0020
0000
0000
0000
,
0031
0100
0010
1000
0001
0100
0010
1000
0001
0100
0010
1000
0001
0010
0001
0000
,
0010
0100
1000
0100
0010
0001
1000
0001
0010
0100
1000
0100
0020
0000
0000
0000
,
0031
0100
0001
1000
0100
1000
0100
1000
0001
0100
0010
0100
0001
1000
0001
0000
,
0100
0001
1000
0100
0010
0001
1000
0100
0010
0001
1000
0100
0020
0000
0000
0000
,
0130
1000
0001
0100
0010
1000
0001
0100
0010
1000
0001
0100
0010
1000
0010
0000
,
0100
0001
1000
0100
0010
0100
1000
0001
0010
0001
1000
0100
0020
0000
0000
0000
,
0130
1000
0100
0010
0001
0010
0001
0010
0100
1000
0001
1000
0100
0010
0100
0000
,
1000
0010
0100
0001
1000
0010
0100
0001
1000
0010
0100
0001
0020
0000
0000
0000
,
0031
0100
0010
1000
0001
0100
0010
1000
0001
0100
0010
1000
0001
0010
0001
0000
,
0010
0100
1000
0100
0010
0001
1000
0001
0010
0100
1000
0100
0020
0000
0000
0000
,
0031
0100
0001
1000
0100
1000
0100
1000
0001
0100
0010
0100
0001
1000
0001
0000
,
0100
0001
1000
0100
0010
0001
1000
0100
0010
0001
1000
0100
0020
0000
0000
0000
,
0130
1000
0001
0100
0010
1000
0001
0100
0010
1000
0001
0100
0010
1000
0010
0000
,
0100
0001
1000
0100
0010
0100
1000
0001
0010
0001
1000
0100
0020
0000
0000
0000
,
0030
0000
0000
0000
0000
0000
1000
0000
1010
0000
0000
0001
0000
0000
0100
0000
,
0110
0001
1000
0100
M001
0100
0010
0100
,
M001
0100
1000
0100
M001
0100
0010
0001
,
0100
0010
1000
0010
M001
0010
0100
0010
,
M001
0010
1000
0010
M001
0010
0100
0001
,
0110
0100
0001
0100
100M
0100
0010
0100
,
100M
0100
0001
0100
100M
0100
0010
1000
,
0100
0010
0001
0010
100M
0010
0100
0010
,
100M
0010
0001
0010
100M
0010
0100
0010
,
1001
0001
0100
100M
0M01
1000
0100
0001
,
1000
0001
0100
100M
0M01
1000
0100
0001
,
1000
0001
0010
100M
00M1
1000
0010
0001
,
1000
0001
0010
100M
00M1
1000
0010
0001
,
1001
1000
0100
M001
1M00
0001
0100
1000
,
0001
1000
0100
M001
1M00
0001
0100
1000
,
0001
1000
0010
M001
10M0
0001
0010
1000
,
0001
0000
1000
0000
0010
0000
M001
0000
10M0
0001
0000
0010
0000
0000
1000
0000
,
2002
0000
0000
0000
,
3003
M00M
0000
0000
0000
0000
0000
0000
;

//---------------dance-single - Geriatric Patrick----------------
#NOTES:
     dance-single:
     Geriatric Patrick:
     Challenge:
     11:
     0.837,0.825,0.115,0.246,1.000:
0000
0000
0000
0000
,
2002
0010
0010
0010
,
0010
0000
0000
0000
0000
0000
0000
0000
0000
0000
0000
0000
0000
0000
0000
0000
0010
0000
0000
0000
0000
0000
0000
0000
0000
0000
0000
0000
0000
0000
0000
0000
0010
0000
0000
0000
0000
0000
0000
0000
0000
0000
0000
0000
0000
0000
0000
3000
1013
0000
0000
0000
0000
0000
0000
0000
0000
0000
0000
0000
0000
0000
0000
0000
,
0001
1000
0100
1000
0001
0010
0100
0010
0001
1000
0100
0010
0002
0010
0000
0010
,
1003
0100
1000
0001
0010
0100
0010
0001
1000
0010
1000
0001
0010
0100
0010
0000
,
0001
0100
0010
0100
0001
1000
0010
1000
0001
0100
0010
1000
0002
0000
0000
0000
,
1003
0010
1000
0001
0100
0010
0100
0001
1000
0010
1000
0001
0010
0100
0010
0000
,
1000
0100
0010
0001
1000
0100
0010
0001
1000
0010
1000
0001
0020
0000
0000
0000
,
0130
1000
0100
0010
0001
0010
0001
1000
0010
0100
0010
1000
0001
0010
0001
0000
,
1000
0001
0100
0010
1000
0001
0100
0010
1000
0001
0010
0100
0020
0000
0000
0000
,
0031
1000
0001
0010
0100
0010
0100
1000
0001
1000
0100
1000
0001
0010
0001
0000
,
0100
1000
0010
0100
0001
0010
0001
0100
0010
1000
0100
1000
0020
0000
0000
0000
,
0130
0001
1000
0100
0010
0100
1000
0001
0100
0010
1000
0001
0010
0100
0010
0000
,
0001
0100
0010
1000
0100
1000
0010
0100
0001
0010
0001
0100
0020
0000
0000
0000
,
1030
0001
0010
0100
1000
0100
0010
0001
0100
0001
1000
0100
0010
0001
0010
0000
,
0220
0000
0000
0000
,
0331
0000
0000
0000
0000
0000
0010
0001
0100
0000
0000
0100
0000
0000
0000
0000
,
0010
0000
0000
0000
0000
0000
1000
0010
0001
0000
0000
0001
0000
0000
0000
0000
,
0010
0000
0000
0000
0000
0000
1000
0010
0001
0000
0000
0001
0000
0000
0000
0000
,
1000
0000
0000
0000
0000
0000
0010
1000
0100
0000
0000
0100
0000
0000
0000
0000
,
1000
0000
0000
0000
0000
0000
0010
1000
0100
0000
0000
0100
0000
0000
0000
0000
,
0010
0000
0000
0000
0000
0000
0001
0010
1000
0000
0000
1000
0000
0000
0000
0000
,
0010
0000
0000
0000
0000
0000
0001
0010
1000
0000
0000
0100
0000
0000
0000
0000
,
0001
0100
0000
0000
0000
0000
0010
1000
0100
0000
0000
1100
0000
0000
0000
0000
,
0001
0100
0000
0000
0000
0000
0010
1000
0100
0000
0000
1100
0000
0000
0000
0000
,
0010
0001
0000
0000
0000
0000
1000
0010
0001
0000
0000
0011
0000
0000
0000
0000
,
0010
1000
0000
0000
0000
0000
0001
0010
1000
0000
0000
1010
0000
0000
0000
0000
,
0100
1000
0000
0000
0000
0000
0010
1000
0100
0000
0000
0110
0000
0000
0000
0000
,
0001
0100
0000
0000
0000
0000
0010
1000
0100
0000
0000
1001
0000
0000
0000
0000
,
0100
0010
0000
0000
0000
0000
0001
0010
1000
0000
0000
0011
0000
0000
0000
0000
,
0100
0010
0000
0000
0000
0000
1000
0010
0001
0000
0000
0010
0100
0000
0001
1000
,
0100
0000
0000
0000
0000
0000
0000
0000
0000
0000
0000
1000
0011
0000
0000
0000
,
1000
0100
0010
0001
1000
0100
0010
0001
1000
0010
0100
0001
0020
0000
0000
0000
,
0031
0100
0010
1000
0100
1000
0010
0100
0001
0100
0010
1000
0100
0010
0100
0000
,
1000
0001
1000
0001
0100
0001
1000
0010
1000
0100
0010
0001
0020
0000
0000
0000
,
0130
1000
0001
1000
0010
1000
0001
1000
0100
0010
0100
1000
0100
0010
0001
0000
,
1000
0010
0100
0001
0010
0100
1000
0100
0010
0001
0100
0010
2000
0000
0000
0000
,
3001
0010
0100
1000
0001
0100
0010
1000
0100
1000
0010
0100
0001
0010
0001
0000
,
0010
0100
0010
0100
1000
0001
1000
0010
0100
0001
0100
0001
0020
0000
0000
0000
,
0031
0100
0010
0100
1000
0100
0010
0100
0001
1000
0001
0100
0010
1000
0010
0000
,
0001
0100
0010
1000
0001
0100
0010
1000
0001
0010
0100
1000
0020
0000
0000
0000
,
1030
0100
0010
0001
0100
0001
0010
0100
1000
0100
0010
0001
0100
0010
0100
0000
,
0001
1000
0001
1000
0100
1000
0001
0010
0001
0100
0010
1000
0020
0000
0000
0000
,
0130
0001
1000
0001
0010
0001
1000
0001
0100
0010
0100
0001
0100
0010
1000
0000
,
0001
0010
0100
1000
0010
0100
0001
0100
0010
1000
0100
0010
0002
0000
0000
0000
,
1003
0010
0100
0001
1000
0100
0010
0001
0100
0001
0010
0100
1000
0010
1000
0000
,
0010
0100
0010
0100
0001
1000
0001
0010
0100
1000
0100
1000
0020
0000
0000
0000
,
1030
0100
0010
0100
0001
0100
0010
0100
1000
0001
1000
0100
0010
0001
0010
0000
,
0001
0100
0001
1000
0100
1000
0100
0010
0001
0010
0001
1000
0020
0000
0000
0000
,
0130
0001
0100
0010
1000
0010
1000
0001
0010
0001
0010
0100
2000
0000
0000
0000
,
3001
0100
0010
0100
0001
1000
0010
1000
0001
0010
0100
0010
0001
1000
0001
0000
,
1000
0100
0010
0100
1000
0001
0100
0001
1000
0010
0100
0010
1000
0001
1000
0000
,
0010
0100
0010
1000
0100
1000
0100
0010
0001
0010
0001
1000
0020
0000
0000
0000
,
1030
0001
1000
0100
0010
0100
0010
0001
0100
0001
0100
0010
2000
0000
0000
0000
,
3001
0100
0010
0100
0001
1000
0100
0010
0001
1000
0010
1000
0001
0010
0001
0000
,
1000
0010
0100
0010
1000
0001
0010
0100
1000
0010
0100
0010
1000
0001
1000
0000
,
0001
0000
0000
0000
0100
0000
0000
0000
0010
0000
0000
0000
1000
0000
0000
0000
0001
0000
0000
0000
0100
0000
0000
0000
0010
0000
0000
0000
1000
0000
0000
0000
0001
0000
0000
0000
0010
0000
0000
0000
0100
0000
0000
0000
1000
0000
0000
0000
2020
0000
0000
0000
0000
0000
0000
0000
0000
0000
0000
0000
0000
0000
0000
0030
,
3010
0000
0000
0000
0100
0000
0000
0000
1000
0000
0000
0000
0001
0000
0000
0000
0100
0000
0000
0000
0010
0000
0000
0000
1000
0000
0000
0000
0001
0000
0000
0000
0100
0000
0000
0000
0010
0000
0000
0000
1000
0000
0000
0000
0001
0000
0000
0000
0022
0000
0000
0000
0000
0000
0000
0000
0000
0000
0000
0000
0000
0000
0000
0030
,
0013
0100
0001
0100
0010
0100
1000
0100
0010
1000
0100
1000
0001
0010
0001
0000
,
0010
0100
1000
0100
0010
0100
0001
0100
0010
1000
0100
1000
0010
0100
0010
0000
,
1000
0000
0000
0000
0100
0000
0000
0000
0010
0000
0000
0000
0001
0000
0000
0000
1000
0000
0000
0000
0100
0000
0000
0000
0010
0000
0000
0000
0001
0000
0000
0000
1000
0000
0000
0000
0010
0000
0000
0000
0100
0000
0000
0000
0001
0000
0000
0000
0022
0000
0000
0000
0000
0000
0000
0000
0000
0000
0000
0000
0000
0000
0000
0030
,
0013
0000
0000
0000
0100
0000
0000
0000
0001
0000
0000
0000
1000
0000
0000
0000
0100
0000
0000
0000
0010
0000
0000
0000
0001
0000
0000
0000
1000
0000
0000
0000
0100
0000
0000
0000
0010
0000
0000
0000
0001
0000
0000
0000
1000
0000
0000
0000
2020
0000
0000
0000
0000
0000
0000
0000
0000
0000
0000
0000
0000
0000
0000
0030
,
3010
0100
1000
0100
0010
0100
0001
0100
0010
0001
0100
0001
1000
0010
1000
0000
,
0010
0100
0001
0100
0010
0100
1000
0100
0010
0001
0100
0001
0010
0100
0020
0200
,
0000
0000
0000
0000
,
0330
0MM0
0MM0
0000
0000
0000
0000
0000
0000
0000
0000
0000
0000
0000
0000
0000
;

//---------------dance-single - Geriatric Patrick----------------
#NOTES:
     dance-single:
     Geriatric Patrick:
     Medium:
     9:
     0.607,0.723,0.115,0.230,0.487:
0000
0000
0000
0000
,
2001
0001
0001
0001
,
0001
0001
0001
3010
,
0100
0001
0100
0010
1000
0010
1000
0001
0010
0001
0010
0100
2000
0000
0000
0000
,
3001
0100
0001
1000
0100
1000
0100
0010
0001
0010
0001
0100
0010
1000
0010
0000
,
1000
0100
1000
0010
0100
0010
0100
0001
0010
0001
0010
0100
2000
0000
0000
0000
,
3001
0100
0001
0010
0100
0010
0100
1000
0001
1000
0001
0100
0010
1000
0010
0000
,
1000
0100
0010
0100
1000
0001
0010
0001
1000
0010
0100
0010
2000
0000
0000
0000
,
3001
0100
0010
0100
0001
1000
0010
1000
0001
0010
0100
0010
0001
1000
0001
0000
,
0100
0001
1000
0001
0010
0001
1000
0001
1000
0100
1000
0001
0010
0000
0000
0000
,
0100
1000
0001
1000
0010
1000
0010
1000
0001
0100
0001
1000
0010
0100
0010
0000
,
1000
0100
0010
0001
1000
0100
0010
0001
0100
0001
0010
0100
2000
0000
0000
0000
,
3001
0100
0010
1000
0001
0100
0010
1000
0001
0010
0100
0010
0001
1000
0001
0000
,
1000
0010
0100
0001
1000
0001
0100
0010
1000
0010
0100
0001
0020
0000
0000
0000
,
0031
1000
0010
0100
0001
0100
0010
1000
0001
1000
0010
0100
0001
0010
0001
0000
,
2002
0000
0000
0000
,
3013
0000
0000
0000
0000
0000
0001
0010
0100
0000
0000
0100
0000
0000
0000
0000
,
1000
0000
0000
0000
0000
0000
0010
1000
0100
0000
0000
0100
0000
0000
0000
0000
,
1000
0000
0000
0000
0000
0000
0010
1000
0100
0000
0000
0100
0000
0000
0000
0000
,
0001
0000
0000
0000
0000
0000
0010
0001
1000
0000
0000
1000
0000
0000
0000
0000
,
0001
0000
0000
0000
0000
0000
0010
0001
1000
0000
0000
1000
0000
0000
0000
0000
,
0100
0000
0000
0000
0000
0000
0010
0001
0100
0000
0000
0100
0000
0000
0000
0000
,
0100
0000
0000
0000
0000
0000
0010
1000
0100
0000
0000
1000
0000
0000
0000
0000
,
1001
0000
0000
0000
0000
0000
0010
0100
1000
0000
0000
1000
0000
0000
0000
0000
,
1001
0000
0000
0000
0000
0000
0010
0100
0001
0000
0000
0001
0000
0000
0000
0000
,
0011
0000
0000
0000
0000
0000
0010
1000
0001
0000
0000
0001
0000
0000
0000
0000
,
1010
0000
0000
0000
0000
0000
0010
0001
1000
0000
0000
1000
0000
0000
0000
0000
,
0110
0000
0000
0000
0000
0000
0010
1000
0100
0000
0000
0100
0000
0000
0000
0000
,
0110
0000
0000
0000
0000
0000
0010
0001
0100
0000
0000
0100
0000
0000
0000
0000
,
1010
0000
0000
0000
0000
0000
0010
0001
0100
0000
0000
0100
0000
0000
0000
0000
,
0011
0000
0000
0000
0000
0000
0010
1000
0100
0000
0000
1000
0000
0000
0010
0100
,
0001
0000
0000
0000
0000
0000
0000
0000
0000
0000
0000
0010
1000
0000
0000
0000
,
0001
0010
0100
1000
0001
0100
0020
0000
,
0130
0000
0001
0000
1000
0000
0100
0000
0010
0000
0001
0000
1000
0010
1000
0000
,
0001
0010
0100
0010
0001
1000
0020
0000
,
1030
0000
0001
0000
0010
0000
0001
0000
0100
0000
0001
0000
0010
0100
0010
0000
,
0001
0100
0010
1000
0100
0010
0002
0000
,
0013
0000
0100
0000
1000
0000
0010
0000
0100
0000
0001
0000
0010
0001
0010
0000
,
0001
1000
0001
0010
0100
1000
0020
0000
,
1030
0000
0100
0000
1000
0000
0001
0000
1000
0000
0010
0000
1000
0001
1000
0000
,
0100
0010
0001
1000
0010
0100
0002
0000
,
0103
0000
0010
0000
1000
0000
0001
0000
0010
0000
0100
0000
1000
0010
1000
0000
,
0100
0010
0001
0010
0100
1000
0020
0000
,
0130
0000
0001
0000
0010
0000
0001
0000
1000
0000
0001
0000
0010
0100
0010
0000
,
0001
0100
0010
1000
0100
0010
0002
0000
,
0103
0000
0001
0000
0010
0000
0100
0000
1000
0000
0001
0000
0010
0001
0010
0000
,
0100
1000
0001
0010
0001
0100
0020
0000
,
0030
0000
0000
0000
0000
0000
0001
0000
0010
0000
0000
0001
0000
0000
0100
0000
,
0110
0100
0001
0010
0100
1000
0020
0000
,
0130
0100
0001
0010
0100
1000
0020
0000
,
1030
0000
0100
0000
0001
0000
0100
0000
1000
0000
0100
0000
0010
0001
0010
0000
,
0001
0000
0100
0000
1000
0000
0100
0000
0001
0000
0100
0000
0010
1000
0010
0000
,
0100
0100
0001
1000
0100
0010
0002
0000
,
0103
0100
0001
1000
0100
0010
0002
0000
,
1003
0000
0010
0000
0001
0000
0010
0000
1000
0000
0001
0000
0010
0100
0010
0000
,
1000
0000
0010
0000
0001
0000
0010
0000
0100
0000
0010
0000
0001
1000
0001
0000
,
1000
0000
0000
0000
0000
0000
0000
0000
1000
0000
0000
0000
0000
0000
0000
0000
0100
0000
0000
0000
0000
0000
0000
0000
0010
0000
0000
0000
0000
0000
0000
0000
0001
0000
0000
0000
0000
0000
0000
0000
0100
0000
0000
0000
0000
0000
0000
0000
2200
0000
0000
0000
0000
0000
0000
0000
0000
0000
0000
0000
0000
0000
0000
3000
,
0301
0000
0000
0000
0000
0000
0000
0000
0001
0000
0000
0000
0000
0000
0000
0000
0100
0000
0000
0000
0000
0000
0000
0000
0010
0000
0000
0000
0000
0000
0000
0000
1000
0000
0000
0000
0000
0000
0000
0000
0100
0000
0000
0000
0000
0000
0000
0000
0202
0000
0000
0000
0000
0000
0000
0000
0000
0000
0000
0000
0000
0000
0000
0003
,
0310
0000
0100
0000
0001
0000
0100
0000
0010
0000
0100
0000
1000
0001
1000
0000
,
0010
0000
0100
0000
1000
0000
0100
0000
0010
0000
0100
0000
0001
1000
0001
0000
,
0010
0000
0000
0000
0000
0000
0000
0000
0010
0000
0000
0000
0000
0000
0000
0000
0100
0000
0000
0000
0000
0000
0000
0000
1000
0000
0000
0000
0000
0000
0000
0000
0010
0000
0000
0000
0000
0000
0000
0000
0100
0000
0000
0000
0000
0000
0000
0000
2200
0000
0000
0000
0000
0000
0000
0000
0000
0000
0000
0000
0000
0000
0000
3000
,
0310
0000
0000
0000
0000
0000
0000
0000
0010
0000
0000
0000
0000
0000
0000
0000
0100
0000
0000
0000
0000
0000
0000
0000
0001
0000
0000
0000
0000
0000
0000
0000
0010
0000
0000
0000
0000
0000
0000
0000
0100
0000
0000
0000
0000
0000
0000
0000
0202
0000
0000
0000
0000
0000
0000
0000
0000
0000
0000
0000
0000
0000
0000
0003
,
0310
0000
0001
0000
1000
0000
0001
0000
0100
0000
0010
0000
0001
1000
0001
0000
,
0010
0000
1000
0000
0001
0000
1000
0000
0100
0000
0010
0000
1000
0001
2000
0002
,
0000
0000
0000
0000
,
3003
0000
0000
0000
;

//---------------dance-single - Geriatric Patrick----------------
#NOTES:
     dance-single:
     Geriatric Patrick:
     Easy:
     5:
     0.262,0.200,0.023,0.023,0.058:
0000
0000
0000
0000
,
2001
0001
0001
0001
,
0001
0001
0001
3010
,
0001
0100
0001
0010
,
0100
1000
0001
0010
,
0100
1000
0100
0010
,
0001
0100
0010
1000
,
0001
0010
0100
0010
,
0001
1000
0010
0100
,
0001
1000
0010
1000
,
0100
0010
0001
1000
,
0010
0100
0010
1000
,
0001
0010
0100
1000
,
0001
0100
0001
1000
,
0100
0010
0001
1000
,
0020
0000
0000
0000
,
0130
0000
0000
0000
0000
0000
0000
0000
0001
0000
0000
0001
0000
0000
0000
0000
,
0010
0000
0000
0000
0000
0000
0000
0000
0100
0000
0000
0100
0000
0000
0000
0000
,
0010
0000
0000
0000
0000
0000
0000
0000
0001
0000
0000
0001
0000
0000
0000
0000
,
1000
0000
0000
0000
0000
0000
0000
0000
0010
0000
0000
0010
0000
0000
0000
0000
,
0100
0000
0000
0000
0000
0000
0000
0000
0010
0000
0000
0010
0000
0000
0000
0000
,
1000
0000
0000
0000
0000
0000
0000
0000
0001
0000
0000
0001
0000
0000
0000
0000
,
1000
0000
0000
0000
0000
0000
0000
0000
0100
0000
0000
0010
0000
0000
0000
0000
,
0001
0000
0000
0000
0000
0000
0000
0000
0100
0000
0000
0100
0000
0000
0000
0000
,
0010
0000
0000
0000
0000
0000
0000
0000
0100
0000
0000
0100
0000
0000
0000
0000
,
1000
0000
0000
0000
0000
0000
0000
0000
0001
0000
0000
0001
0000
0000
0000
0000
,
1000
0000
0000
0000
0000
0000
0000
0000
0010
0000
0000
0010
0000
0000
0000
0000
,
0001
0000
0000
0000
0000
0000
0000
0000
0010
0000
0000
0010
0000
0000
0000
0000
,
0100
0000
0000
0000
0000
0000
0000
0000
0010
0000
0000
0010
0000
0000
0000
0000
,
1000
0000
0000
0000
0000
0000
0000
0000
0100
0000
0000
0100
0000
0000
0000
0000
,
1000
0000
0000
0000
0000
0000
0000
0000
0001
0000
0000
0100
0000
0000
0000
0000
,
0010
0000
0000
0110
,
1000
0100
0010
0001
,
1000
0010
0100
0010
,
1000
1000
0001
0010
,
0100
0001
0100
1000
,
0001
0100
0010
1000
,
0100
0010
0001
0010
,
0100
0100
1000
0001
,
0100
0010
0001
0010
,
1000
0001
0010
0100
,
1000
0001
0100
0001
,
0010
0010
0100
1000
,
0001
0100
1000
0100
,
0001
0010
0100
1000
,
0010
0100
0010
1000
,
0001
0001
0010
0100
,
1000
0100
0001
0100
,
1000
0001
0100
0010
,
1000
0001
0010
0100
,
1000
1000
0001
0010
,
0100
0100
0010
0001
,
1000
0010
0100
0001
,
1000
0100
0010
0001
,
1000
1000
0010
0100
,
0001
0001
0100
0010
,
1000
0001
0010
0100
,
1000
0001
0100
0010
,
1000
1000
0100
0010
,
1000
1000
0010
0100
,
0001
0100
0010
1000
,
0001
0010
0100
1000
,
0001
0001
0100
0010
,
0001
0001
0010
0100
,
2001
0000
0000
0000
,
3000
0000
0000
0000
;
