#TITLE:Killing You;
#SUBTITLE:;
#ARTIST:Tech N9ne;
#TITLETRANSLIT:;
#SUBTITLETRANSLIT:;
#ARTISTTRANSLIT:;
#GENRE:;
#CREDIT:;
#BANNER:Killing You-bn.png;
#BACKGROUND:Killing You-bg.png;
#LYRICSPATH:;
#CDTITLE:;
#MUSIC:Killng You.ogg;
#OFFSET:0.080;
#SAMPLESTART:77.140;
#SAMPLELENGTH:15.000;
#SELECTABLE:YES;
#BPMS:0.000=128.000,38.000=256.000,38.250=128.000,74.000=132.000,75.000=128.000,81.000=132.000,82.000=128.000,182.000=131.000,183.000=64.000,184.000=128.000,212.000=131.000,213.000=64.000,214.000=128.000,345.563=-128.000,353.563=128.000,382.000=131.000,383.000=64.000,384.000=128.000,412.000=131.000,413.000=64.000,414.000=128.000;
#STOPS:38.250=0.060
,74.000=0.115
,74.250=0.120
,74.500=0.120
,74.750=0.120
,81.000=0.120
,81.250=0.120
,81.500=0.120
,81.750=0.125
,182.000=0.180
,182.375=0.180
,182.750=0.120
,212.000=0.180
,212.375=0.180
,212.750=0.120
,345.500=1.865
,382.000=0.180
,382.375=0.180
,382.750=0.120
,412.000=0.180
,412.375=0.180
,412.750=0.120
;
#BGCHANGES:;
#KEYSOUNDS:;

//---------------dance-single - nvwls300----------------
#NOTES:
     dance-single:
     nvwls300:
     Challenge:
     10:
     0.643,0.803,0.265,0.232,0.820:
0000
0000
0000
0000
,
0000
0000
0000
0000
,
0000
0000
0000
0000
,
0000
0000
0000
0000
,
0000
0000
0000
0000
,
0000
0000
0000
0000
,
0000
0000
0000
0000
,
0000
0000
0000
0000
,
0000
0000
0000
0000
,
1100
0000
0001
1000
0001
1000
0010
0000
0110
0000
0100
0001
1000
0001
0010
0000
,
M00M
0000
0100
1000
0001
1000
0100
0010
0001
0010
0100
1000
0001
1000
0001
1000
,
00MM
0000
0001
1000
0100
1000
0001
0000
M00M
1000
0100
0010
0100
0010
0001
0000
,
00MM
1000
0010
0100
0001
0010
0001
0010
0100
0010
0100
0010
0100
1000
0100
1000
,
0M0M
0001
0100
0001
1000
0100
1000
0001
0010
0100
1000
0000
1000
0100
1000
0001
,
0100
0010
1000
0000
1000
0010
1000
0001
0010
0100
0001
0000
0001
0100
M00M
0000
,
0MM0
0001
1000
0000
0001
0100
0010
1000
0001
1000
0010
0000
0010
1000
0001
0010
,
0100
0010
0001
0000
0001
1000
0100
0010
1000
0010
0100
0000
0100
1000
0MM0
0000
,
M00M
1000
0010
0100
0010
1000
0001
0010
0100
0000
0100
0010
0001
0010
0100
1000
,
0001
0000
1000
0100
0010
0001
0010
0100
1000
0010
0001
0100
1000
0100
0010
0100
,
1000
0100
0010
0001
0010
0000
0000
1000
0010
0100
0001
1000
0001
0000
0000
0001
,
1000
0100
1000
0000
0010
0001
0100
1000
0001
0100
0001
1000
0010
1000
0001
0010
,
0100
1000
0100
0010
0001
0000
0010
0001
1000
0010
1000
0001
0010
0001
1000
0100
,
0010
0001
1000
0001
0010
0000
1000
0001
0100
0010
0100
0000
0100
0000
0M0M
0000
,
0001
0010
0001
0000
0001
0000
00MM
0001
1000
0010
1000
0100
0010
0100
1000
0001
,
0100
0010
0100
0000
0210
0000
M0MM
0000
0300
0000
0001
0000
1000
0000
0100
0010
,
0000
0010
0100
0000
1100
0000
0001
0000
MMMM
0000
1000
0000
0100
0000
0010
0001
,
0000
0001
0010
0000
0110
0000
1000
0000
MMMM
0000
0001
0000
0100
0000
0010
1000
,
0000
1000
0001
0000
0101
0000
1000
0100
0000
0100
0010
0000
0011
0000
0100
1000
,
0000
1000
0001
0000
1001
0000
0001
0000
MMMM
0000
1001
0000
0100
0000
0001
0010
,
0000
0100
0010
1000
0100
1000
0010
0000
MMMM
0001
0100
0000
0001
0000
1000
0100
,
0010
0100
1000
0001
0100
0010
0100
0000
MMMM
0000
0110
0000
0100
0000
0001
1000
,
0000
1000
0100
1000
0001
1000
0100
0000
MMMM
0000
1000
0001
0100
0010
0100
0001
,
0000
0001
0100
0010
1000
0001
1000
0000
MMMM
0001
0010
0100
1000
0000
0100
0010
,
0000
0100
1000
0000
0011
0000
0001
0000
MMMM
1000
0010
0100
0001
0000
0100
0010
,
0000
0100
1000
0000
1010
0000
1000
0000
MMMM
0001
0100
0001
1000
0000
0001
0010
,
0000
0100
1000
0000
1100
0000
0010
0001
0000
0010
0100
1000
0100
0000
0001
1000
,
0000
0001
1000
0000
0110
0000
1001
0000
MMMM
0001
0010
0000
1000
0000
0010
0001
,
1000
0100
1000
0000
0011
0000
0001
0000
MMMM
1000
0100
1000
0001
0000
0010
0100
,
1000
0100
0010
0000
1010
0000
0100
0000
MMMM
0100
0010
0100
0001
0000
0100
0010
,
0001
0000
0000
1000
0000
0000
0001
0000
0000
0000
0000
0000
1001
0000
0000
0000
0000
0000
1000
0000
0000
0001
0000
0000
1000
0000
0000
0000
0100
0000
0000
0000
0010
0000
0000
0000
1000
0000
0000
0000
0010
0000
0000
0000
0100
0000
0000
0000
,
1000
0000
0100
0000
0010
0000
0021
0000
0000
0002
0000
0000
0000
0000
0000
0033
0000
0000
2000
0000
0000
0000
0000
0000
,
0010
0001
3002
0100
,
0000
0000
1000
1000
0203
1000
1000
0000
,
0010
0001
0300
2000
,
0110
0002
3003
0011
,
0110
0000
0000
0000
0000
0000
0000
0000
1100
0000
0000
0000
0000
0000
0000
0000
M1MM
0000
0000
MM1M
0000
0000
M1MM
0000
1001
0000
0000
0000
0000
0000
0000
0000
,
0001
0100
0002
0000
0000
0000
0000
0000
1000
0010
1000
0000
0000
0000
0000
0000
,
1003
0100
2000
0000
0000
0000
0000
0000
0001
0010
0001
0000
0000
0000
0000
0000
,
3000
0020
0032
0203
,
0302
0000
1000
2000
0000
0010
0010
0000
,
3003
0000
1000
0020
0000
0001
0000
1030
,
0100
0200
0010
0020
0000
0001
0001
0000
,
0330
1100
0011
1100
,
MMM1
0000
0000
M1MM
0000
0000
M1MM
0000
1010
0000
0000
0000
0000
0000
0000
0000
1000
0000
0002
0000
1000
0000
0000
0000
M000
0000
M000
0000
0003
0000
0000
0000
,
0001
2000
0001
0000
000M
000M
3000
0000
1000
0200
0010
0000
00M0
00M0
0300
0000
,
0010
0200
0001
0000
000M
000M
0300
0000
0000
0100
0010
0001
0010
0001
0000
0001
,
0100
0010
1000
0000
1000
0000
1000
0001
0010
0100
1000
0000
1000
0000
0001
1000
,
0100
0010
0001
0000
0001
0000
0000
0000
2000
0100
3100
0010
0001
1000
0010
1000
,
0001
0010
0100
0000
0100
0000
1000
0100
0010
0001
0100
0000
0100
0000
0001
1000
,
0100
0010
0001
0000
0001
0000
0000
0000
00MM
0001
0100
0010
0100
0001
1000
0010
,
0100
0000
0001
0000
0100
0000
0010
0000
1000
0000
0001
0000
1000
0000
0000
0000
M00M
0000
1000
0000
0100
0000
0010
0000
0001
0000
0010
0000
0100
0000
1000
0001
,
1000
0100
0010
0100
1000
0001
1000
0000
M00M
0100
0010
0100
1000
0001
0100
0001
,
0010
0000
0000
0000
0000
0000
1000
0000
0000
0100
0000
0000
0001
0000
0000
0100
0000
0000
1000
0000
0000
0000
0000
0000
M01M
0000
0000
0000
0100
0000
0000
0000
1000
0000
0000
0000
0001
0000
0000
0000
0100
0000
0000
0000
0001
0000
0000
0000
,
1000
0000
0000
0000
0010
0000
0000
0000
1000
0000
0000
0000
0001
0000
0000
0000
0010
0000
0000
0000
0001
0000
0000
0000
0MM0
0000
0000
0000
0000
0000
0001
0000
0000
0000
0000
0000
0000
0000
0000
0110
0000
0000
0000
0000
0000
0000
0000
0000
,
1000
0001
MM00
0000
1001
0000
0000
0010
0000
0000
0100
0010
0M0M
0100
0000
0000
,
0011
0000
0001
0010
0000
0000
1000
0000
0010
0000
1000
0100
1000
0001
1000
0100
,
0010
0100
1000
0100
0001
0000
1000
0100
0010
0001
1000
0010
0100
0010
1000
0001
,
0010
0000
0000
0000
0000
0000
0001
0000
0000
1000
0000
0000
0000
0000
0000
0000
0000
0000
1000
0000
0000
0001
0000
0000
0010
0000
0000
0000
0001
0000
0000
0000
0100
0000
0000
0000
0010
0000
0000
0000
1000
0000
0000
0000
0100
0000
0000
0000
,
1000
0000
0010
0000
0100
0000
0001
0000
0000
M00M
0001
0000
0100
0000
0010
0000
1000
0000
0010
0000
0100
0000
0001
0000
,
0010
0000
0100
0000
1000
0000
0010
0000
0000
0MM0
0000
0000
1000
0000
0100
0000
1000
0000
0001
0000
0010
0000
0001
0000
,
0100
0000
0000
0000
1000
0000
0000
0000
0100
0000
0000
0000
0010
0000
0000
0000
0000
0000
0100
0000
0000
0010
0000
0000
0100
0000
0000
0000
0000
0000
0001
0000
0000
1000
0000
0000
0100
0000
0000
1000
0000
0000
0100
0000
0000
0000
0000
0000
,
0010
0000
0000
0000
0001
0000
0000
0000
0010
0000
0000
0000
0011
0000
0000
0000
0000
0000
0000
0000
0000
0000
0000
0000
1000
0000
0000
0100
0000
0000
0000
0000
0000
0100
0000
0000
0000
0000
0000
1000
0000
0000
0001
0000
0000
0100
0000
0000
,
0001
0000
0010
0000
0011
0000
00MM
0000
0001
0100
0000
0001
0000
0100
0001
0000
,
1001
1000
1100
MM00
0110
0001
0100
0MM0
,
0001
0010
0100
0010
0000
0010
0000
1000
0100
1000
0001
0100
0001
0000
1000
0000
,
1010
0000
0001
0000
0101
0000
M00M
0000
1000
0010
0000
0010
0100
0010
1000
0001
,
0010
0000
0001
0000
1001
0000
00MM
0000
0001
0010
0001
1000
0010
1000
0001
0100
,
0010
0000
0001
0000
0011
0000
M0M0
1000
0010
0100
0010
1000
0000
1010
0M0M
0100
,
0010
0001
0010
0100
0000
0110
M00M
0001
0010
0100
0010
0001
1000
0001
0010
0100
,
0001
0000
0100
0000
1100
0000
M00M
1000
0001
0100
0001
1000
0001
0010
0001
1000
,
0020
0000
0000
0000
1030
0000
0MM0
0001
1000
0010
1000
0001
0100
0001
1000
0100
,
0020
0000
0000
0000
0130
0000
MM00
0100
0010
0001
0000
0010
0100
1000
0100
1000
,
0020
0000
0000
0000
0130
0000
M0M0
0010
1000
0001
0000
0001
1000
0010
0100
0001
,
0020
0000
0000
0000
0031
0000
00MM
0001
1000
0001
0100
0001
1000
0100
0010
0100
,
2000
0000
0000
0000
3001
0000
0M0M
0001
1000
0001
0000
1001
0000
1000
0100
0010
,
0002
0000
0000
0000
1003
0000
1000
0001
0010
0100
1000
0010
1000
0100
0010
0001
,
2000
3101
0000
0000
,
0000
0000
0000
0000
,
0000
0000
0000
0000
,
0000
0000
0000
0000
,
0000
0000
0000
2000
,
0010
0001
3002
0100
,
0000
0000
1000
1000
0203
1000
1000
0000
,
0010
0001
0300
2000
,
0110
0002
3003
0011
,
0110
0000
0000
0000
0000
0000
0000
0000
1100
0000
0000
0000
0000
0000
0000
0000
M1M1
0000
0000
MM1M
0000
0000
M1MM
0000
1001
0000
0000
0000
0000
0000
0000
0000
,
0001
0100
0002
0000
0000
0000
0000
0000
1000
0010
0010
0000
0000
0000
0000
0000
,
1003
0100
2000
0000
0000
0000
0000
0000
0001
0001
0010
0000
0000
0000
0000
0000
,
3000
0020
0032
0203
,
0302
0000
1000
2000
0000
0010
0010
0000
,
3003
0000
1000
0020
0000
0001
0000
1030
,
0100
0200
0010
0020
0000
0001
0001
0000
,
0330
1100
1010
1100
,
1MM1
0000
0000
M1MM
0000
0000
M1MM
0000
1010
0000
0000
0000
0000
0000
0000
0000
1000
0000
0200
0000
0001
0000
0000
0000
000M
0000
000M
0000
0300
0000
0000
0000
,
0001
0200
1000
0000
M000
M000
0300
0000
1000
0200
0010
0000
00M0
00M0
0300
0000
,
0100
0020
0001
0000
000M
000M
0031
0000
0000
0000
0000
0000
0000
0000
0000
0000
,
MMMM
0MM0
0MM0
0MM0
0MM0
0MM0
0MM0
0MM0
,
0MM0
0000
0000
0000
MMMM
M000
M000
M000
,
MMMM
M000
M000
M000
MMMM
0000
0000
0000
,
MMMM
M000
M000
M000
M000
M000
M000
M000
,
MMMM
0000
0000
0000
M00M
M00M
M00M
M00M
,
MMMM
M00M
M00M
M00M
M00M
0000
0000
0000
,
MMMM
M00M
M00M
M00M
MMMM
000M
000M
000M
,
MMMM
0000
0000
0000
;

//---------------dance-single - nvwls300----------------
#NOTES:
     dance-single:
     nvwls300:
     Hard:
     10:
     0.637,0.803,0.213,0.256,0.801:
0000
0000
0000
0000
,
0000
0000
0000
0000
,
0000
0000
0000
0000
,
0000
0000
0000
0000
,
0000
0000
0000
0000
,
0000
0000
0000
0000
,
0000
0000
0000
0000
,
0000
0000
0000
0000
,
0000
0000
0000
0000
,
1100
0000
0001
1000
0001
1000
0010
0000
0110
0000
0100
0001
1000
0001
0010
0000
,
0000
0000
0100
1000
0001
1000
0100
0010
0001
0010
0100
1000
0001
1000
0001
1000
,
0000
0000
0001
1000
0100
1000
0001
0000
0000
1000
0100
0010
0100
0010
0001
0000
,
0000
1000
0010
0100
0001
0010
0001
0010
0100
0010
0100
0010
0100
1000
0100
1000
,
0000
0001
0100
0001
1000
0100
1000
0001
0010
0100
1000
0000
1000
0100
1000
0001
,
0100
0010
1000
0000
1000
0010
1000
0001
0010
0100
1000
0000
1000
0100
0000
0000
,
0000
0001
1000
0000
0001
0100
0010
1000
0001
1000
0010
0000
0010
1000
0001
0010
,
0100
0010
0001
0000
0001
1000
0100
0010
0001
0010
0100
0000
0100
1000
0000
0000
,
0000
1000
0010
0100
0010
1000
0001
0010
0100
0000
0100
0010
0001
0010
0100
1000
,
0001
0000
1000
0100
0010
0001
0010
0100
1000
1000
0001
0001
1000
0100
0010
0100
,
1000
0100
0010
0001
0010
0000
0000
0001
0100
0010
1000
0001
1000
0000
0000
1000
,
0001
0100
0001
0000
0010
0010
0100
0100
1000
0100
1000
0001
0010
0001
1000
0010
,
0100
0001
0100
0010
1000
0000
0010
1000
0001
0010
0001
1000
0010
1000
0001
0100
,
0010
1000
0001
1000
0010
0000
1000
0001
0100
0010
0100
0000
0100
0000
0000
0000
,
0001
0010
0001
0000
0001
0000
0000
0001
1000
0010
1000
0100
0010
0100
1000
0001
,
0100
0010
0100
0000
0210
0000
0000
0000
0300
0000
0001
0000
1000
0000
0100
0010
,
0000
0010
0100
0000
1100
0000
1000
0000
0000
0000
1000
0000
0100
0000
0010
0001
,
0000
0001
0010
0000
0110
0000
0100
0000
0000
0000
0001
0000
0100
0000
0010
1000
,
0000
1000
0001
0000
1001
0000
1000
0100
0000
0100
0010
0000
0110
0000
0100
1000
,
0000
1000
0010
0000
1010
0000
1000
0000
0000
0000
0001
0000
0100
0000
0001
0010
,
0000
0010
0001
1000
0001
0100
0001
0000
0000
0001
1000
0000
0100
0000
1000
0100
,
0010
0100
1000
0001
0100
0010
0100
0000
0000
0000
0110
0000
0100
0000
1000
0001
,
0000
0001
0100
0001
1000
0001
0100
0000
0000
0000
0001
1000
0100
0010
0100
1000
,
0000
1000
0100
0010
0001
1000
0001
0000
0000
0001
0010
0100
1000
0000
0100
0010
,
0000
0100
1000
0000
1001
0000
0001
0000
0000
1000
0010
0100
0001
0000
0100
0010
,
0000
0100
0001
0000
1001
0000
1000
0000
0000
0001
0100
0001
1000
0000
0001
0010
,
0000
0001
1000
0000
1001
0000
0001
0100
0000
0100
0001
1000
0001
0000
0100
0010
,
0000
0010
0100
0000
1001
0000
1001
0000
0000
0001
0010
0000
0010
0000
0001
1000
,
0100
1000
0001
0000
0011
0000
0010
0000
0000
1000
0100
1000
0001
0000
0100
0010
,
1000
0010
0100
0000
0101
0000
0001
0000
0000
0100
0010
0100
0001
0000
0100
0010
,
1000
0000
0000
0001
0000
0000
1000
0000
0000
0000
0000
0000
1001
0000
0000
0000
0000
0000
0001
0000
0000
1000
0000
0000
0001
0000
0000
0000
0100
0000
0000
0000
0010
0000
0000
0000
1000
0000
0000
0000
0001
0000
0000
0000
1000
0000
0000
0000
,
0010
0000
0100
0000
0001
0000
0012
0000
0000
0020
0000
0000
0000
0000
0000
0033
0000
0000
2000
0000
0000
0000
0000
0000
,
0010
0001
3002
0100
,
0000
0000
1000
1000
0203
1000
1000
0000
,
0010
0001
0300
2000
,
0200
0020
3330
1000
,
0001
0000
0000
0000
0000
0000
0000
0000
0100
0000
0000
0000
0000
0000
0000
0000
1000
0000
0000
0100
0000
0000
0100
0000
1001
0000
0000
0000
0000
0000
0000
0000
,
0001
0100
0002
0000
0000
0000
0000
0000
1003
0010
2000
0000
0000
0000
0000
0000
,
3001
0010
0002
0000
0000
0000
0000
0000
1000
0100
2003
0000
0000
0000
0000
0000
,
3000
0020
0032
0203
,
0302
0000
1000
2000
0000
0010
0010
0000
,
3003
0000
1000
0020
0000
0001
0000
1030
,
0100
0200
0010
0020
0000
0001
0001
0000
,
0330
1100
1010
1100
,
0001
0000
0000
0100
0000
0000
0100
0000
1010
0000
0000
0000
0000
0000
0000
0000
0100
0000
2000
0000
0100
0000
0000
0000
0000
0000
0000
0000
3000
0000
0000
0000
,
0010
0002
0010
0000
0000
0000
0003
0000
0001
0200
0001
0000
0000
0000
0300
0000
,
0010
2000
0010
0000
0000
0000
3000
0000
0000
0100
0010
0001
0010
0001
0000
0001
,
0100
0010
1000
0000
1000
0000
1000
0001
0010
0100
1000
0000
1000
0000
0001
1000
,
0100
0010
0001
0000
0001
0000
0000
0000
0000
1000
0100
0010
0001
1000
0010
1000
,
0001
0010
0100
0000
0100
0000
1000
0100
0010
0001
0100
0000
0100
0000
0001
1000
,
0100
0010
0001
0000
0001
0000
0000
0000
0000
0001
0100
0010
0100
0001
1000
0010
,
0100
0000
0001
0000
0100
0000
0010
0000
1000
0000
0001
0000
1000
0000
0000
0000
0000
0000
1000
0000
0100
0000
0010
0000
0001
0000
0010
0000
0100
0000
1000
0001
,
1000
0100
0010
0100
1000
0001
1000
0000
0000
0100
0010
0100
1000
0001
0100
0001
,
0010
0000
0000
0000
0000
0000
0001
0000
0000
0100
0000
0000
0001
0000
0000
0100
0000
0000
1000
0000
0000
0000
0000
0000
0000
0000
0000
0000
0100
0000
0000
0000
0001
0000
0000
0000
0010
0000
0000
0000
0100
0000
0000
0000
1000
0000
0000
0000
,
0010
0000
0000
0000
1000
0000
0000
0000
0100
0000
0000
0000
0010
0000
0000
0000
0100
0000
0000
0000
0010
0000
0000
0000
0000
0000
0000
0000
0000
0000
0001
0000
0000
0000
0000
0000
0000
0000
0000
0110
0000
0000
0000
0000
0000
0000
0000
0000
,
1000
0001
0000
0000
1001
0000
0000
0010
0000
0000
0100
0010
0000
0100
0000
0000
,
0011
0000
0000
0010
0000
0000
1000
0000
0010
0000
1000
0100
1000
0001
1000
0100
,
0010
0100
1000
0100
0010
0000
1000
0100
0010
0001
1000
0010
0100
0010
1000
0001
,
0010
0000
0000
0000
0000
0000
0001
0000
0000
1000
0000
0000
0000
0000
0000
0000
0000
0000
1000
0000
0000
0001
0000
0000
0010
0000
0000
0000
0001
0000
0000
0000
0100
0000
0000
0000
0010
0000
0000
0000
1000
0000
0000
0000
0100
0000
0000
0000
,
1000
0010
0100
0001
0000
0001
0100
0010
1000
0010
0100
0001
,
0010
0100
1000
0010
0000
0000
1000
0100
1000
0001
0010
0001
,
0100
0000
0000
0000
1000
0000
0000
0000
0100
0000
0000
0000
0010
0000
0000
0000
0000
0000
0100
0000
0000
0010
0000
0000
0100
0000
0000
0000
0000
0000
0001
0000
0000
1000
0000
0000
0100
0000
0000
1000
0000
0000
0100
0000
0000
0000
0000
0000
,
0010
0000
0000
0000
0001
0000
0000
0000
0010
0000
0000
0000
0011
0000
0000
0000
0000
0000
0000
0000
0000
0000
0000
0000
1000
0000
0000
0100
0000
0000
0000
0000
0000
0100
0000
0000
0000
0000
0000
1000
0000
0000
0001
0000
0000
0100
0000
0000
,
0001
0000
0010
0000
0011
0000
0000
0000
0001
0100
0000
0001
0000
0100
0001
0000
,
1001
1000
1100
0000
0110
0001
0100
0000
,
0001
0010
0100
0010
0000
0010
0000
0001
1000
0001
0010
0001
1000
0000
0010
0000
,
0110
0000
0100
0000
0101
0000
0000
0000
1000
0010
0000
0010
0100
0010
1000
0001
,
0010
0000
0001
0000
1001
0000
0000
0000
0001
0010
0001
1000
0010
1000
0001
0100
,
0010
0000
0100
0000
0101
0000
0000
1000
0010
0100
0010
1000
0000
1000
0000
0001
,
0010
0100
0010
0001
0000
0001
0000
1000
0010
0100
0001
1000
0001
0100
0010
0100
,
0001
0000
1000
0000
1100
0000
0000
1000
0001
0100
0001
1000
0001
0010
0001
1000
,
0020
0000
0000
0000
1030
0000
0000
0001
1000
0010
1000
0001
0100
0001
1000
0100
,
0020
0000
0000
0000
0130
0000
0000
0100
0010
0001
0000
0010
0100
1000
0100
1000
,
0020
0000
0000
0000
0130
0000
0000
0010
1000
0001
0000
0001
1000
0010
0100
0001
,
0020
0000
0000
0000
0031
0000
0000
0001
1000
0001
0100
0001
1000
0100
0010
0100
,
2000
0000
0000
0000
3001
0000
0000
0001
1000
0001
0000
1001
0000
1000
0100
0010
,
0002
0000
0000
0000
1003
0000
1000
0001
0010
0100
1000
0001
1000
0100
0010
0001
,
2000
3101
0000
0000
,
0000
0000
0000
0000
,
0000
0000
0000
0000
,
0000
0000
0000
0000
,
0000
0000
0000
2000
,
0010
0001
3002
0100
,
0000
0000
1000
1000
0203
1000
1000
0000
,
0010
0001
0300
2000
,
0200
0020
3330
0001
,
0100
0000
0000
0000
0000
0000
0000
0000
1000
0000
0000
0000
0000
0000
0000
0000
0101
0000
0000
0100
0000
0000
0100
0000
1001
0000
0000
0000
0000
0000
0000
0000
,
0001
0100
0002
0000
0000
0000
0000
0000
1003
0010
0020
0000
0000
0000
0000
0000
,
1030
0100
2000
0000
0000
0000
0000
0000
3001
0001
0020
0000
0000
0000
0000
0000
,
0030
2000
3002
0203
,
0302
0000
1000
2000
0000
0010
0010
0000
,
3003
0000
1000
0020
0000
0001
0000
1030
,
0100
0200
0010
0020
0000
0001
0001
0000
,
0330
1100
0011
1100
,
1001
0000
0000
0100
0000
0000
0100
0000
1010
0000
0000
0000
0000
0000
0000
0000
1000
0000
0200
0000
0001
0000
0000
0000
0000
0000
0000
0000
0300
0000
0000
0000
,
0001
0200
1000
0000
0000
0000
0300
0000
1000
0200
0010
0000
0000
0000
03M0
0000
,
0100
0020
0001
0000
0000
0000
0030
0000
0000
0000
0000
0000
0000
0000
0000
0000
,
MMMM
0MM0
0MM0
0MM0
0MM0
0MM0
0MM0
0MM0
,
0MM0
0000
0000
0000
MMMM
M000
M000
M000
,
MMMM
M000
M000
M000
MMMM
0000
0000
0000
,
MMMM
M000
M000
M000
M000
M000
M000
M000
,
MMMM
0000
0000
0000
M00M
M00M
M00M
M00M
,
MMMM
M00M
M00M
M00M
M00M
0000
0000
0000
,
MMMM
M00M
M00M
M00M
MMMM
000M
000M
000M
,
MMMM
0000
0000
0000
;

//---------------dance-single - nvwls300----------------
#NOTES:
     dance-single:
     nvwls300:
     Medium:
     8:
     0.425,0.536,0.104,0.218,0.275:
0000
0000
0000
0000
,
0000
0000
0000
0000
,
0000
0000
0000
0000
,
0000
0000
0000
0000
,
0000
0000
0000
0000
,
0000
0000
0000
0000
,
0000
0000
0000
0000
,
0000
0000
0000
0000
,
0000
0000
0000
0000
,
0000
0100
0001
0010
0000
0100
1000
0010
,
MMMM
1000
0100
0010
0001
0010
0100
1000
,
MMMM
0001
0100
0010
MMMM
0100
0001
0010
,
MMMM
0001
0100
0010
0001
0010
0100
1000
,
MMMM
0000
0100
0000
0001
0000
0000
0010
0000
0000
1000
0000
0100
0000
0000
1000
,
0000
0000
0010
0000
0100
0000
0000
1000
0000
0000
0001
0000
0100
0001
MM00
0000
,
00MM
0000
1000
0000
0100
0000
0000
0001
0000
0000
0100
0000
0010
0000
0000
1000
,
0000
0000
0001
0000
0100
0000
0000
1000
0000
0000
0100
0000
0010
0001
0MM0
0000
,
M00M
0010
1000
0100
0100
0010
0001
1000
,
1000
0000
0010
0000
0100
0000
0001
0000
1000
1000
0100
0100
0010
0000
0001
0000
,
1000
0001
0100
0000
0001
0100
1000
0000
,
0100
0000
0001
0000
0010
0010
0001
0001
0100
0000
0000
1000
0000
0000
0100
0000
,
0010
0000
1000
0000
0001
0000
0010
0000
0100
0000
0000
0001
0000
0000
0100
0000
,
1000
0010
0100
0100
0001
1000
0001
MMMM
,
1000
0000
0010
0000
1000
0000
MMMM
0000
0010
0000
0000
0110
0000
0000
0100
0000
,
0001
0000
1000
0000
1001
0000
MMMM
0000
0000
0000
0001
0000
0100
0000
0000
0001
,
0000
0000
0001
0000
1000
0000
1000
0000
MMMM
0000
0100
0000
0010
0000
0000
0001
,
0000
0000
1000
0000
0001
0000
0001
0000
MMMM
0000
0001
0000
0100
0000
0000
0010
,
0000
0000
0001
0000
1000
0000
0000
0100
0000
0000
0001
0000
0010
0000
0000
1000
,
0000
0000
1000
0000
0001
0000
0001
0000
MMMM
0000
1000
0000
0001
0000
0000
0010
,
0000
0000
0010
0000
1000
0000
1000
0000
MMMM
0000
0001
0000
0100
0000
0000
0010
,
0000
0000
0010
0000
0100
0000
1000
0000
MMMM
0000
0100
0000
0010
0000
0000
1000
,
0000
0000
1000
0000
0001
0000
0001
0000
MMMM
0000
0001
0000
0001
0000
0000
0001
,
0000
0000
0001
0000
0001
1000
0001
0000
MMMM
0000
0100
0000
0010
0000
0000
0001
,
0000
0000
0001
0000
0010
0000
1000
0000
MMMM
0000
0001
0000
0100
0000
0000
1000
,
0000
0000
1000
0000
0100
0000
0001
0000
MMMM
0000
1000
0000
0100
0000
0000
0010
,
0000
0000
1000
0000
0010
0000
0000
0100
0000
0000
0001
0000
0100
0000
0000
1000
,
0000
0000
0010
0000
0001
0000
0001
0000
MMMM
0000
0100
0000
0010
0000
0000
1001
,
0000
0000
0010
0000
0100
0000
1000
0000
MMMM
0000
0100
0000
0001
0000
0000
0110
,
0000
0000
1000
0000
0010
0000
0001
0000
MMMM
0000
0100
0000
0001
0000
0000
0011
,
0000
0000
0000
0100
0000
0000
1000
0000
0000
0001
0000
0000
1000
0000
0100
0000
1000
0000
0001
0000
0010
0000
0001
0000
,
1000
0000
0100
0000
1000
0000
0010
0000
0000
0020
0000
0000
0000
0000
0000
0030
0000
0000
2000
0000
0000
0000
0000
0000
,
0010
0001
3002
0100
,
0000
0000
1000
1000
0203
1000
1000
0000
,
0010
0001
0300
2000
,
0110
0002
3003
0001
,
0100
0000
0000
0000
0000
0000
0000
0000
1000
0000
0000
0000
0000
0000
0000
0000
M10M
0000
0000
M10M
0000
0000
M10M
0000
1001
0000
0000
0000
0000
0000
0000
0000
,
0001
0100
0002
0000
0000
0000
0000
0000
1000
0010
1000
0000
0000
0000
0000
0000
,
1003
0100
2000
0000
0000
0000
0000
0000
0001
0010
0001
0000
0000
0000
0000
0000
,
3000
0020
0032
0203
,
0302
0000
1000
2000
0000
0010
0010
0000
,
3003
0000
1000
0020
0000
0001
0000
1030
,
0100
0200
0010
0020
0000
0001
0001
0000
,
0330
0100
0001
1000
,
10M1
0000
0000
10M1
0000
0000
10M1
0000
0010
0000
0000
0000
0000
0000
0000
0000
0100
0000
0020
0000
0100
0000
0000
0000
0000
0000
0M00
0000
0030
0000
0000
0000
,
0100
0020
0100
0000
0000
0M00
0030
0000
1000
0002
1000
0000
0000
M000
0003
0000
,
1000
0002
1000
0000
0000
M000
0003
0000
0000
0000
0100
0000
0010
0000
0000
0000
,
0100
0001
0001
1000
0100
0001
0001
0100
,
0010
0001
0001
0000
0000
1000
0010
1000
,
0001
0100
0100
1000
0100
0010
0010
0001
,
0010
1000
1000
0000
MMMM
0100
0010
0100
,
1000
0000
0001
0000
1000
0100
1000
0000
MMMM
0000
0001
0000
0000
0001
0000
0000
,
0100
0000
0010
0000
1000
0010
1000
0000
MMMM
0000
0100
0000
0010
0000
0000
0010
,
0000
0000
0010
0000
0100
0010
0100
0000
MMMM
0000
1000
0000
0001
0000
0000
0011
,
0000
0000
1000
0000
0010
0100
0010
0000
MMMM
0000
1000
0000
0000
0010
0000
0000
,
1000
0000
MMMM
0000
0001
0000
0000
0010
0000
0000
0001
0000
MMMM
0100
0000
0000
,
0010
0000
0000
0100
0000
0000
1000
0000
0010
0000
0001
0000
0010
0000
1000
0000
,
0100
0100
0010
0100
0001
0100
1000
0100
,
0001
0000
0000
0000
0000
0000
0000
0000
0000
0101
0000
0000
0000
0000
0000
0000
0000
0000
0100
0000
0000
0000
0000
0000
1000
0000
0000
0000
0010
0000
0000
0000
1000
0000
0000
0000
0001
0000
0000
0000
0100
0000
0000
0000
0001
0000
0000
0000
,
1000
0000
0010
0000
1000
0000
0100
0000
0000
MMMM
0000
0000
0010
0000
0001
0000
0010
0000
0001
0000
1000
0000
0001
0000
,
0100
0000
0001
0000
0100
0000
0010
0000
0000
MMMM
0000
0000
1000
0000
0100
0000
0010
0000
0001
0000
0100
0000
0001
0000
,
0010
0000
0100
0000
1000
0000
0010
0000
0000
1000
0000
0000
1001
0000
0000
0001
0000
0000
0010
0000
0000
0001
0000
0000
,
0100
0000
0000
0000
1000
0000
0000
0000
0100
0000
0000
0000
0001
0000
0000
0000
0000
0000
0000
0000
0000
0000
0000
0000
1001
0000
0000
0000
0000
0000
0000
0000
0000
0010
0000
0000
0000
0000
0000
0000
0000
0000
1000
0000
0000
0000
0000
0000
,
0001
0000
0100
0000
0001
0000
MMMM
0000
0010
0000
0000
0100
0000
0000
0010
0000
,
0001
0100
1000
MMMM
0001
0100
1000
MMMM
,
0010
0000
0000
1000
0000
0001
0000
0000
1000
0000
0000
0010
0100
0000
0010
0000
,
1000
0000
0100
0000
0001
0000
MMMM
0000
1000
0000
0000
0001
1000
0000
0100
0000
,
0010
0000
0001
0000
0100
0000
MMMM
0000
0010
0000
0000
1000
0000
0000
0010
0100
,
0010
0000
1000
0000
0100
0000
MMMM
0000
1000
0000
0000
0001
0000
0001
MMMM
0000
,
1000
0000
0000
0001
0000
0001
MMMM
0000
1000
0000
0000
0100
0000
0000
1000
0000
,
0001
0100
1000
MMMM
0001
0010
0100
0010
,
2000
0000
0000
0000
3100
0000
MMMM
0000
0010
0000
0000
1001
0000
0000
0001
0000
,
0200
0000
0000
0000
1300
0000
MMMM
0000
0010
0000
0000
1000
0000
0000
0100
0000
,
0002
0000
0000
0000
0103
0000
MMMM
0000
1000
0000
0000
0110
0000
0000
0001
0000
,
2000
0000
3001
MMMM
1000
0100
0001
0100
,
0020
0000
0000
0000
0031
0000
MMMM
0000
1000
0000
0000
1001
0000
0000
0001
0000
,
0020
0000
0130
0010
0100
1000
0010
1000
,
0002
1003
0000
0000
,
0000
0000
0000
0000
,
0000
0000
0000
0000
,
0000
0000
0000
0000
,
0000
0000
0000
2000
,
0010
0001
3002
0100
,
0000
0000
1000
1000
0203
1000
1000
0000
,
0010
0001
0300
2000
,
0110
0002
3003
0010
,
0100
0000
0000
0000
0000
0000
0000
0000
0001
0000
0000
0000
0000
0000
0000
0000
0100
0000
0000
0100
0000
0000
0100
0000
1001
0000
0000
0000
0000
0000
0000
0000
,
0001
0100
0002
0000
0000
0000
0000
0000
1000
0010
0010
0000
0000
0000
0000
0000
,
1003
0100
2000
0000
0000
0000
0000
0000
0001
0001
0010
0000
0000
0000
0000
0000
,
3000
0020
0032
0203
,
0302
0000
1000
2000
0000
0010
0010
0000
,
3003
0000
1000
0020
0000
0001
0000
1030
,
0100
0200
0010
0020
0000
0001
0001
0000
,
0330
0010
0001
0100
,
1001
0000
0000
1001
0000
0000
1001
0000
0010
0000
0000
0000
0000
0000
0000
0000
0100
0000
0020
0000
0100
0000
0000
0000
0000
0000
0000
0000
0030
0000
0000
0000
,
0100
0010
0200
0000
0000
0000
0300
0000
0001
2000
0001
0000
0000
0000
3000
0000
,
0001
1000
0002
0000
0000
0000
1003
0000
0000
0000
0000
0000
0000
0000
0000
0000
,
MMMM
0MM0
0MM0
0MM0
0MM0
0MM0
0MM0
0MM0
,
0MM0
0000
0000
0000
MMMM
M000
M000
M000
,
MMMM
M000
M000
M000
MMMM
0000
0000
0000
,
MMMM
M000
M000
M000
M000
M000
M000
M000
,
MMMM
0000
0000
0000
M00M
M00M
M00M
M00M
,
MMMM
M00M
M00M
M00M
M00M
0000
0000
0000
,
MMMM
M00M
M00M
M00M
MMMM
000M
000M
000M
,
MMMM
0000
0000
0000
;

//---------------dance-single - nvwls300----------------
#NOTES:
     dance-single:
     nvwls300:
     Easy:
     8:
     0.419,0.499,0.095,0.218,0.251:
0000
0000
0000
0000
,
0000
0000
0000
0000
,
0000
0000
0000
0000
,
0000
0000
0000
0000
,
0000
0000
0000
0000
,
0000
0000
0000
0000
,
0000
0000
0000
0000
,
0000
0000
0000
0000
,
0000
0000
0000
0000
,
0000
0100
0001
0010
0000
0100
1000
0010
,
0000
1000
0100
0010
0001
0010
0100
1000
,
0000
0001
0100
0010
0000
1000
0100
0010
,
0000
0001
0100
0010
1000
0010
0100
0001
,
0000
0000
1000
0000
0100
0000
0000
0010
0000
0000
0001
0000
0100
0000
0000
0010
,
0000
0000
1000
0000
0001
0000
0000
0010
0000
0000
0001
0000
1000
0000
0000
0000
,
0000
0000
0001
0000
0100
0000
0000
0010
0000
0000
1000
0000
0001
0000
0000
0010
,
0000
0000
0100
0000
1000
0000
0000
0001
0000
0000
0100
0000
0010
0000
0000
0000
,
0000
0100
0001
1000
0100
1000
0001
0010
,
0100
0010
0001
0100
0010
0001
1000
0010
,
0100
0001
0010
0000
0001
0100
0010
0000
,
0100
0000
0001
0000
0010
0000
1000
0000
0001
0000
0000
0100
0000
0000
0001
0000
,
0010
0000
0100
0000
1000
0000
0010
0000
0100
0000
0000
0001
0000
0000
0100
0000
,
0010
1000
0100
0010
0001
1000
0001
0000
,
1000
0000
0010
0000
1000
0000
0000
0000
0001
0000
0000
0100
0000
0000
0001
0000
,
1000
0000
0100
0000
1100
0000
0000
0000
0000
0000
0001
0000
0100
0000
0000
0100
,
0000
0000
0001
0000
1000
0000
0100
0000
0000
0000
1000
0000
0001
0000
0000
0001
,
0000
0000
0100
0000
0010
0000
1000
0000
0000
0000
0001
0000
0010
0000
0000
0010
,
0000
0000
0100
0000
1000
0000
0000
1000
0000
0000
0001
0000
0100
0000
0000
0100
,
0000
0000
0001
0000
1000
0000
0001
0000
0000
0000
0010
0000
0100
0000
0000
0010
,
0000
0000
0010
0000
0001
0000
1000
0000
0000
0000
0001
0000
0010
0000
0000
0100
,
0000
0000
0100
0000
1000
0000
0001
0000
0000
0000
1000
0000
0010
0000
0000
0100
,
0000
0000
0100
0000
0001
0000
0010
0000
0000
0000
0001
0000
0100
0000
0000
0100
,
0000
0000
0100
0000
0001
1000
0001
0000
0000
0000
0100
0000
0010
0000
0000
1000
,
0000
0000
0001
0000
0010
0000
0100
0000
0000
0000
0100
0000
0010
0000
0000
0001
,
0000
0000
1000
0000
0010
0000
0100
0000
0000
0000
0001
0000
0010
0000
0000
0001
,
0000
0000
0100
0000
0010
0000
0000
0100
0000
0000
0001
0000
1000
0000
0000
0100
,
0000
0000
1000
0000
0010
0000
0100
0000
0000
0000
0100
0000
0010
0000
0000
0010
,
0000
0000
0010
0000
0100
0000
0001
0000
0000
0000
1000
0000
0100
0000
0000
0010
,
0000
0000
0100
0000
1000
0000
0001
0000
0000
0000
0100
0000
0010
0000
0000
0001
,
0000
0000
0000
0010
0000
0000
0100
0000
0000
0001
0000
0000
1000
0000
0100
0000
1000
0000
0001
0000
0010
0000
0001
0000
,
1000
0000
0100
0000
1000
0000
0010
0000
0000
0020
0000
0000
0000
0000
0000
0030
0000
0000
2000
0000
0000
0000
0000
0000
,
0010
0001
3200
0010
,
0000
0000
1300
0001
2000
0100
0100
0000
,
0010
3001
0000
0101
,
0011
1001
0000
0010
,
0100
0000
0000
0000
0000
0000
0000
0000
0001
0000
0000
0000
0000
0000
0000
0000
0100
0000
0000
0100
0000
0000
0100
0000
1001
0000
0000
0000
0000
0000
0000
0000
,
0001
0100
0002
0000
0000
0000
0000
0000
1003
0010
2000
0000
0000
0000
0000
0000
,
3001
0010
0002
0000
0000
0000
0000
0000
1003
0100
2000
0000
0000
0000
0000
0000
,
3000
0020
0032
0203
,
0302
0000
1000
2000
0003
0010
0010
3000
,
0000
0000
0001
0020
0000
0100
0000
0031
,
0100
0200
0010
0020
0300
0001
0031
0000
,
0000
0100
0001
1000
,
0101
0000
0000
0101
0000
0000
0101
0000
0010
0000
0000
0000
0000
0000
0000
0000
1000
0000
0002
0000
1000
0000
0000
0000
0000
0000
0000
0000
0000
0000
0003
0000
,
0001
0020
0001
0000
0000
0000
0030
0000
1000
0002
1000
0000
0000
0000
0003
0000
,
0001
0200
0001
0000
0000
0000
0300
0000
0000
0000
0100
0000
0010
0000
0000
0000
,
0100
0001
0001
1000
0100
0001
0001
0100
,
0010
0001
0001
0000
0000
1000
0010
1000
,
0001
0100
0100
1000
0100
0010
0010
0001
,
0010
0100
0100
0000
0000
1000
0010
0100
,
0001
0000
1000
0000
0001
0100
0001
0000
0000
0000
1000
0000
0000
0001
0000
0000
,
0100
0000
0010
0000
1000
0010
1000
0000
0000
0000
0100
0000
0010
0000
0000
0010
,
0000
0000
0010
0000
0100
0010
0100
0000
0000
0000
1000
0000
0001
0000
0000
0010
,
0000
0000
1000
0000
0010
0100
0010
0000
0000
0000
1000
0000
0000
0010
0000
0000
,
1000
0000
0000
0000
0001
0000
0000
0010
0000
0000
0001
0000
0000
0100
0000
0000
,
0010
0000
0000
0100
0000
0000
1000
0000
0010
0000
0001
0000
0010
0000
1000
0000
,
0100
0100
0010
0100
0001
0100
1000
0100
,
0001
0000
0000
0000
0000
0000
0000
0000
0000
0001
0000
0000
0000
0000
0000
0000
0000
0000
0100
0000
0000
0000
0000
0000
1000
0000
0000
0000
0010
0000
0000
0000
1000
0000
0000
0000
0001
0000
0000
0000
0100
0000
0000
0000
0001
0000
0000
0000
,
1000
0010
1000
0100
0000
0000
0010
0001
0010
0001
1000
0001
,
0100
0001
0100
0010
0000
0000
1000
0100
0010
0001
0100
0001
,
0010
0000
0100
0000
1000
0000
0010
0000
0000
1000
0000
0000
1001
0000
0000
0001
0000
0000
0010
0000
0000
0001
0000
0000
,
0100
0000
0000
0000
1000
0000
0000
0000
0100
0000
0000
0000
0001
0000
0000
0000
0000
0000
0000
0000
0000
0000
0000
0000
1001
0000
0000
0000
0000
0000
0000
0000
0000
0001
0000
0000
0000
0000
0000
0000
0000
0000
1000
0000
0000
0000
0000
0000
,
0001
0000
0100
0000
0001
0000
0000
0000
0010
0000
0000
0100
0000
0000
0010
0000
,
0001
0100
1000
0000
0001
0100
1000
0000
,
0010
0000
0000
1000
0000
0001
0000
0000
1000
0000
0000
0010
0100
0000
0010
0000
,
1000
0000
0100
0000
0001
0000
0000
0000
1000
0000
0000
0001
1000
0000
0100
0000
,
0010
0000
0001
0000
0100
0000
0000
0000
0010
0000
0000
1000
0000
0000
0010
0100
,
0010
0000
1000
0000
0100
0000
0000
0000
1000
0000
0000
0001
0000
0001
0000
0000
,
1000
0000
0000
0001
0000
0001
0000
0000
1000
0000
0000
0100
0000
0000
1000
0000
,
0001
0100
1000
0000
0001
0010
0100
0010
,
2000
0000
0000
0000
3100
0000
0000
0000
0010
0000
0000
1001
0000
0000
0001
0000
,
0200
0000
0000
0000
1300
0000
0000
0000
0010
0000
0000
1000
0000
0000
0100
0000
,
0002
0000
0000
0000
0103
0000
0000
0000
1000
0000
0000
0110
0000
0000
0001
0000
,
2000
0000
3001
0000
1000
0100
0001
0100
,
0020
0000
0000
0000
0031
0000
0000
0000
1000
0000
0000
1001
0000
0000
0001
0000
,
0020
0000
0130
0010
0100
1000
0010
1000
,
0002
1003
0000
0000
,
0000
0000
0000
0000
,
0000
0000
0000
0000
,
0000
0000
0000
0000
,
0000
0000
0000
0002
,
0010
1000
0203
0010
,
0000
0000
0301
1000
0002
0100
0100
0000
,
0010
1003
0000
1100
,
1010
1001
0000
0010
,
0100
0000
0000
0000
0000
0000
0000
0000
1000
0000
0000
0000
0000
0000
0000
0000
0100
0000
0000
0100
0000
0000
0100
0000
1001
0000
0000
0000
0000
0000
0000
0000
,
1000
0100
2000
0000
0000
0000
0000
0000
3001
0010
0002
0000
0000
0000
0000
0000
,
1003
0010
2000
0000
0000
0000
0000
0000
3001
0100
0002
0000
0000
0000
0000
0000
,
0003
0020
2030
3200
,
2300
0000
0001
0002
3000
0010
0010
0003
,
0000
0000
1000
0020
0000
0001
0000
1030
,
0100
0200
0010
0020
0300
0001
0031
0000
,
0000
0100
1000
0001
,
1100
0000
0000
1100
0000
0000
1100
0000
0010
0000
0000
0000
0000
0000
0000
0000
0001
0000
2000
0000
0001
0000
0000
0000
0000
0000
0000
0000
0000
0000
3000
0000
,
1000
0020
1000
0000
0000
0000
0030
0000
0001
2000
0001
0000
0000
0000
0000
3000
,
1000
0200
1000
0000
0000
0000
0300
0000
0000
0000
0000
0000
0000
0000
0000
0000
;
