#TITLE:K.O.D.;
#SUBTITLE:;
#ARTIST:Tech N9ne;
#TITLETRANSLIT:;
#SUBTITLETRANSLIT:;
#ARTISTTRANSLIT:;
#GENRE:;
#CREDIT:;
#BANNER:KOD.bn.png;
#BACKGROUND:KOD.bg.png;
#LYRICSPATH:;
#CDTITLE:;
#MUSIC:KOD.ogg;
#OFFSET:1.140;
#SAMPLESTART:57.800;
#SAMPLELENGTH:27.800;
#SELECTABLE:YES;
#BPMS:0.000=73.560,17.750=103.560,17.938=88.720,18.250=73.520,26.000=73.800,34.000=148.000,98.000=74.000,106.000=148.000,170.000=74.000,178.000=148.000,242.000=74.000,250.000=148.000,314.000=74.000,322.000=148.000,386.000=74.000,394.000=148.000,458.000=74.000,466.000=148.000,530.000=74.000,538.000=148.000,602.000=74.000;
#STOPS:;
#BGCHANGES:;
#KEYSOUNDS:;

//---------------dance-single - nvwls300----------------
#NOTES:
     dance-single:
     nvwls300:
     Challenge:
     11:
     0.564,0.887,0.437,0.186,0.335:
0000
0000
0000
0000
,
0000
0000
0000
0000
,
0000
0000
0000
0000
,
0000
0000
0000
0000
,
0000
0000
0000
0000
,
0000
0000
0000
0000
,
0000
0000
0000
0000
,
0000
0000
0000
0000
,
0000
0000
0000
0000
0000
0000
0000
0000
1001
0000
0000
0000
0000
0000
0001
0100
,
0001
1000
0010
0000
1000
0000
1000
0000
0001
0000
0010
0000
0001
0000
0100
0000
,
1010
0000
0000
0000
0101
0000
0000
0000
0010
0000
0010
0100
0000
0100
1000
0001
,
1000
0000
1000
0100
0010
0001
0010
0100
1000
0001
1000
0000
1000
0000
1000
0000
,
0011
0000
0000
0000
1100
0000
0000
0000
0001
0100
0010
1000
0001
1000
0100
0000
,
0011
0000
0000
0000
0101
0000
0000
0000
1000
0000
1000
0001
1000
0010
0100
0000
,
1010
0000
0000
0000
1100
0000
0000
0100
0001
0010
0001
1000
0010
1000
0001
0010
,
0100
1000
0100
0010
0001
0010
0100
1000
0001
0100
0001
1000
0100
1000
0001
0000
,
0101
0000
0000
0000
1100
0000
0000
0000
0000
0000
0001
0100
0010
0000
0010
0000
,
0100
0000
0001
0000
0001
0000
0100
0010
1000
0000
1000
0000
0100
0000
0010
0000
,
0001
0001
1000
0001
1010
0000
1100
0100
,
0010
0001
0100
0010
0011
0000
0101
0000
,
1000
0000
0100
0000
0001
0000
0100
0000
0110
0000
0000
0000
1001
0000
1000
0100
,
0010
0100
1000
0100
0011
0000
1100
0000
,
1000
0000
0100
0010
0100
0000
0001
0000
1000
0000
0010
0000
0100
0000
0001
0000
,
0010
0000
0100
0000
0001
0000
0100
0000
1000
0000
0000
0000
0001
0000
1000
0100
,
0010
0000
0100
0000
0001
0000
0000
0000
0100
0000
0000
0000
1000
0000
0000
0000
1001
0000
0000
0000
0110
0000
0000
0000
0000
0000
0100
0010
0100
0000
0010
0000
,
0001
0000
1000
0000
0100
0000
1000
0000
1010
0000
0000
0000
1100
0000
0000
0000
0000
0000
1000
0100
0010
0000
0100
0000
1000
0000
0100
0000
0010
0000
0100
0000
,
1001
0000
0000
0000
0110
0000
1000
0000
0010
0000
1000
0001
0010
0000
0001
0000
0101
0000
0000
0000
0000
0000
0000
0000
0010
0000
0000
0000
0001
0000
0100
0000
,
0001
0100
1000
0100
0110
0000
0000
1000
,
0100
0000
0001
0000
0100
0010
0100
0000
0011
0000
0000
0000
0001
0000
0100
0010
,
1000
0000
0010
0000
0001
0000
0010
0000
1010
0000
0000
0000
0000
0000
0001
1000
,
0001
0000
0010
0000
1000
0000
0100
0000
0110
0000
0000
0000
0001
0000
1000
0100
,
0010
0000
0001
0000
0010
0000
0100
0000
1001
0000
0000
0000
0000
0000
0010
0100
,
0010
0000
0001
0000
1000
0000
0010
0000
0110
0000
0010
1000
0010
0000
1000
0000
,
0001
0000
0100
0000
0001
0000
0100
0000
1010
0000
0000
0000
0000
0000
1000
0001
,
0010
0001
1000
0001
1100
0100
1100
0000
,
0001
0000
0010
0100
0010
0000
0001
0000
0101
0000
0100
0000
0101
0000
0000
0000
,
1000
0010
0100
0010
1000
0000
0001
0000
0011
0000
0010
0000
0011
0000
0000
0000
,
1000
0001
0100
0010
0100
0001
1000
0000
1010
0000
0010
0000
1010
0000
0000
0000
,
0100
0000
0100
0010
0100
0000
0010
0000
1MM1
0000
0000
0000
M11M
0000
0000
0000
,
0000
0000
0001
0010
0100
0000
1000
0000
01MM
0000
0001
0000
1MM0
0000
0010
0000
,
0011
0000
0000
0000
1100
0000
1000
0001
1MM0
0000
0001
0000
1MM0
0000
1000
0000
,
01MM
0000
0010
0001
0MM0
0000
0010
0000
11MM
0000
0000
0000
MM11
0000
0000
0000
,
M10M
0000
0100
0001
M1M0
0000
0001
0000
0110
0000
1001
0000
0000
1000
0100
0010
,
0001
0000
0001
0010
0000
0010
0001
0000
1001
0000
0000
0000
1001
0000
1000
0100
0010
0001
1000
0001
0010
0000
0100
0000
1100
0000
0001
0000
0010
0000
0100
0000
,
1000
0011
1000
0100
0110
0000
0110
0000
0002
0000
0000
0000
0100
0000
0000
0000
,
0000
1010
2003
0100
,
0000
0011
3002
0100
,
0000
1010
2003
0100
,
0000
0011
3002
0023
,
0000
0000
0000
0030
2000
0000
3200
0000
,
0000
0000
0000
0300
0002
0000
0010
0000
,
0203
1000
0320
0001
,
2030
0000
3002
M000
1000
M000
2003
00M0
,
0MMM
00M0
0011
0000
3002
0000
0010
00M0
,
0MM0
00M0
1010
0000
2003
0000
0010
00M0
,
0MMM
00M0
0011
0000
3002
0000
0010
00M0
,
0MM0
00M0
1010
0000
2MM3
0MMM
32MM
M0MM
,
M0MM
M0MM
M0MM
M3MM
MMM2
MMM0
MM23
MM0M
,
MM0M
MM0M
MM0M
MM3M
2MMM
0MMM
0M1M
0MMM
,
32MM
M0MM
M0M1
M0MM
M32M
MM0M
1M0M
MM0M
,
MM32
MMM0
2MM3
0MMM
3002
2000
0000
0000
,
3003
0000
0000
0000
,
0000
0000
0000
0001
,
0010
0000
0000
0000
1000
0000
0000
0000
0010
0000
0000
0000
1000
0000
0000
1000
,
0100
0000
0000
0100
0011
0000
0001
0000
0000
0000
0000
0000
1000
0000
0000
0000
,
1010
0010
0000
0000
1000
0000
0000
0000
1010
0010
0000
0000
1000
0100
1000
0000
,
0010
0100
0010
0100
0000
0000
0001
0000
,
0010
1000
0000
0000
0001
0000
0000
0000
0100
1000
0000
0000
1000
0000
0000
0000
,
0001
0000
0000
0001
0000
0000
0000
0000
0000
0000
0000
0000
1000
0000
0000
0000
0000
0000
0010
0000
0000
0000
0000
0000
0000
0000
0000
0000
0000
0000
0000
0000
0000
0000
0000
0000
0100
0000
0000
0000
0001
0000
0000
0000
0100
0000
0000
0000
,
0010
0000
1000
0100
0010
0100
0101
0000
,
0100
0001
0000
0000
1000
0000
1000
0000
0000
0000
0001
0100
0010
0000
0100
0000
,
0010
0001
1000
0100
0101
0000
1100
0000
,
0001
0000
0010
0100
0010
0000
0001
0000
1001
0000
0000
0000
0011
0000
0000
0010
,
0100
1000
0001
0000
1000
0000
0100
0000
0011
0000
0000
0000
1010
0000
0000
0010
,
0001
0000
0001
0010
0100
1000
0100
0000
0110
0000
0000
0000
1100
0000
0000
0000
,
0000
1000
0001
0000
0010
0000
0001
0000
1000
0100
1000
0000
0001
0000
0100
0000
,
1010
0000
1100
0010
0001
0100
0010
1000
,
0001
0010
0100
1000
0011
0000
0101
0100
,
0010
0000
0100
0000
1000
0000
0100
0000
0101
0000
1100
0000
0000
1000
0100
0001
,
1000
0000
0100
0000
0001
0000
0100
0000
0110
0000
0000
0000
0010
0000
0001
0000
1000
0000
0001
0010
0000
0000
0001
0000
0100
0000
0010
0000
1000
0000
0100
0000
,
0110
0000
1001
0000
0000
0000
1111
0000
0000
0000
0000
0001
0100
0000
0001
0000
,
0100
0000
0001
0000
0100
0000
0001
0000
0011
0000
0000
0000
0000
0000
0100
1000
,
0100
0000
1000
0000
1010
0000
0000
0000
0000
0000
0000
0100
0001
0000
0001
0100
,
0001
0000
0100
0000
0001
0000
0100
0000
1010
0000
0000
0000
0100
0000
0000
0100
,
1000
0100
0011
0000
0000
0000
0001
0100
,
0000
0000
1010
0000
0000
0000
0100
0000
0100
0000
0000
0000
0100
0000
0000
0010
,
0100
0010
1100
0000
0000
0011
0001
0100
,
0010
0000
1010
0000
1000
0000
0100
0000
0010
0000
0001
1000
0001
0000
0010
0000
,
1000
0000
0010
0000
0110
0000
0000
0000
0000
0000
0001
0100
0010
0000
0010
0000
,
0100
0001
1000
0001
0000
0010
0001
0100
,
0010
1000
0100
0010
0001
0100
0010
1000
,
0001
0010
0100
1000
0010
0100
0001
1000
,
0100
0010
0001
1000
M0M1
0010
M1M0
1000
,
0010
0100
0001
0010
M1M0
1000
MM01
0100
,
0010
1000
0001
0010
MMM0
0010
0MM1
0100
,
MM10
1000
M0M1
0010
M1M0
1000
MM01
0100
,
MM10
0000
0000
0000
1000
0000
0000
0000
M1M0
0000
0000
0000
0010
0000
0000
0000
0001
0000
0100
0000
0010
0000
1000
0000
0001
0000
1000
0000
0010
0000
0000
0100
,
0000
0000
0010
0000
1000
0000
0100
0000
0001
0000
0000
0001
0100
0000
1000
0000
0001
0000
1000
0000
0000
0000
0001
0100
0001
0000
1000
0000
0010
0000
1000
0000
,
0100
0010
0001
0100
0010
1000
1001
0001
2000
0000
0000
0000
0100
0000
0000
0000
,
0000
0011
3002
0100
,
0000
1010
2003
0100
,
0000
0011
3002
0100
,
0000
1010
2003
3020
,
0000
0000
0000
0030
0002
0000
0203
0000
,
0000
0000
0000
0300
2000
0000
0010
0000
,
3200
0001
0320
1000
,
0032
0000
2003
000M
0001
000M
3002
00M0
,
0MM0
00M0
1010
0000
2003
0000
0010
00M0
,
0MMM
00M0
0011
0000
3002
0000
0010
00M0
,
0MM0
00M0
1010
0000
2003
0000
0010
00M0
,
0MMM
00M0
0011
0000
3MM2
MMM0
M2M3
M0MM
,
M0MM
M0MM
M0MM
M3MM
2MMM
0MMM
3M2M
MM0M
,
MM0M
MM0M
MM0M
MM3M
MMM2
MMM0
MM10
MMM0
,
M2M3
M0MM
10MM
M0MM
M32M
MM0M
MM01
MM0M
,
2M3M
0MMM
3MM2
MMM0
2003
0002
0000
0000
,
3003
0000
0000
0000
,
0000
0000
0000
0000
0000
0000
0000
0000
0000
0000
1000
0001
0010
0000
0001
0000
,
0100
0100
0010
1000
0001
1000
0010
0000
,
0001
0000
1000
0000
0010
0000
0000
0000
0000
0000
0001
0100
0010
0000
0010
0000
,
1000
0000
0100
0000
0011
0000
0001
0000
1000
0000
0001
1000
0001
0000
0001
0000
,
1000
0100
0010
0000
0000
0100
1000
0100
,
0010
0010
0001
0100
0010
0010
1000
0100
,
0001
0000
0100
0000
1000
0000
0000
0000
0000
0000
0001
0100
0001
0000
1000
0000
,
0001
0000
0100
0010
0100
0000
0001
0000
0010
0000
0100
1000
0001
0000
0100
0001
,
1000
0000
0100
0000
1001
0000
0000
0000
0000
0000
0100
0010
0001
0000
0001
0000
,
0100
0010
1000
1000
0001
0010
0100
1000
,
1010
0100
0001
0001
0000
0001
0010
0001
,
0100
0010
1010
0000
0100
1000
0100
0001
,
0110
0000
1000
0000
0001
0000
1000
0000
0000
0000
0010
0100
0010
0000
1000
0000
,
0001
0000
0010
0000
0110
0000
0000
0000
0000
0010
0001
1000
0001
0000
1000
0000
,
0100
0000
0010
0000
0011
0000
0000
0000
0000
0000
1000
0100
1000
0000
0100
0000
,
0010
0000
0001
0000
0100
0000
1000
0001
1000
0000
0100
0000
0001
0000
0010
0000
,
0100
0000
1000
0000
1001
0000
0000
0000
0000
0100
0010
0100
1000
0001
1000
0001
,
0000
0000
1000
0100
0010
0000
0010
0000
0100
0000
1000
0000
0001
0000
1000
0000
0000
0000
0100
0010
0100
0000
0010
0100
0010
0000
0010
0000
0100
0010
0000
0100
,
1000
0000
0001
0000
1000
0000
0001
0000
1000
0100
0000
0000
0011
0000
0011
0000
0000
0000
0000
0000
0000
0000
0000
0000
1000
0000
0000
0000
0010
0000
0000
0000
,
0100
0000
0100
0000
0010
0000
0000
0000
0000
0010
1000
0000
0001
0000
0010
0000
,
0100
0000
0100
0000
0010
0000
0000
0000
0000
0001
1000
0000
0010
0000
0010
0000
,
1000
0000
0001
0100
0001
0000
1000
0000
1100
0000
0000
0000
0101
0000
0001
0000
,
1100
1000
1010
0000
0000
0001
0010
0100
,
0001
0000
0100
0000
0011
0000
0000
0000
0000
0000
1000
0000
0100
0010
0100
0000
,
0001
0100
1010
0000
0000
0011
0001
1001
,
0001
0000
0100
0001
0100
0000
0001
0000
1000
0000
0100
0000
0001
0000
0100
0000
,
1000
0000
0100
0000
0011
0000
0000
0000
0000
0000
1000
0100
0010
0001
0010
0000
,
0100
0000
1000
0000
1010
0000
0000
0000
0000
0000
0100
0001
0010
0000
0010
0000
,
0100
0000
1000
0000
1010
0000
0000
0000
0000
0000
0011
0000
1000
0001
1000
0000
,
0100
0000
0001
1000
0001
0000
0010
0000
0100
0000
1000
0001
1000
0000
0100
0000
,
0010
0100
1001
0000
MM00
0100
M11M
0000
,
0000
0000
0001
0000
0010
0000
0100
0000
10MM
0000
0100
0000
M01M
0000
0001
1000
,
0001
0000
0100
0000
0110
0000
0000
0000
MM00
0000
1000
0100
10MM
0001
1000
0100
,
M01M
0100
10MM
1000
0MM1
0100
1MM0
0100
,
MM11
0000
0010
0000
1M1M
0000
0000
0000
0000
0010
0100
1000
0011
0000
0001
0000
,
0000
0000
1000
0001
1000
0000
0001
0000
0010
0000
0001
0000
0010
0000
0000
0000
0000
0000
0001
0100
0001
0000
0001
0000
1000
0000
1000
0100
0010
0000
0010
0000
,
0100
1000
0001
0000
0001
1000
0100
1000
0100
0000
0001
0000
0011
0000
0000
0000
0000
0000
0000
0000
0000
0000
0000
0000
0000
0000
0000
0000
0000
0000
0000
0000
,
0000
0000
0000
0000
,
0000
0000
0000
0000
,
0000
0000
0000
0000
,
0000
0000
0000
0000
0000
0000
00M0
0M00
,
00M0
0M00
00M0
0M00
0000
0000
0000
0000
;

//---------------dance-single - ----------------
#NOTES:
     dance-single:
     :
     Hard:
     9:
     0.452,0.429,0.169,0.186,0.101:
0000
0000
0000
0000
,
0000
0000
0000
0000
,
0000
0000
0000
0000
,
0000
0000
0000
0000
,
0000
0000
0000
0000
,
0000
0000
0000
0000
,
0000
0000
0000
0000
,
0000
0000
0000
0000
,
0000
0000
0000
0000
0000
0000
0000
0000
1001
0000
0000
0000
0000
0000
1000
0100
,
1000
0010
1000
0100
0010
0001
0010
0001
,
0100
0000
0000
0000
1010
0000
0000
0000
0001
0000
0001
0100
0000
0100
0001
0000
,
1000
0100
1000
0001
1000
0010
0100
0001
,
0010
0000
0000
0000
0101
0000
0000
0000
1000
0100
1000
0000
0001
0000
0010
0000
,
0100
0000
0011
0000
0001
0100
0010
1000
,
0100
0000
0000
0000
1010
0000
0000
0000
0001
0000
0000
0010
0000
0000
0001
0000
,
0100
0000
0000
0010
0000
0000
0001
0000
1000
0000
0000
0010
0000
0000
0001
0000
,
0010
0000
0000
0000
1100
0000
0000
0000
0000
0000
0001
0100
0001
0000
1000
0000
,
0100
0010
0001
0100
0100
0001
0010
0010
,
0100
1000
0100
0010
0001
0000
0011
0001
,
0100
0010
1000
0010
1000
0000
1001
0000
,
0010
0100
1000
0100
0010
0000
0110
0100
,
1000
1000
0001
0010
0100
0000
0011
0000
,
1000
0010
0010
0100
0001
0010
0010
0100
,
1000
0000
0100
0000
0001
0000
0100
0000
1000
0000
0000
0000
0001
0000
1000
0100
,
1000
0001
0100
0010
0110
0100
0000
0001
,
0100
0010
1000
1000
0000
0001
0010
0100
,
1000
0000
1000
0000
0000
0000
0010
0100
0001
0000
0000
0000
0001
0000
1000
0100
,
1000
0100
0010
0001
0100
0000
0000
0001
,
0010
0000
0100
0000
1000
0000
1000
0000
0010
0000
0000
0000
0010
0000
1000
0100
,
1000
0000
0001
0000
0010
0000
0100
0000
1000
0000
0000
0000
0000
0000
0001
0100
,
0001
0100
0010
1000
0100
0000
0001
0100
,
0100
0000
0010
0000
1000
0000
0001
0000
1000
0000
0000
0000
0000
0000
0001
0100
,
0001
1000
0100
0010
0001
0010
0010
0100
,
1000
0100
0010
0001
0100
0000
0000
0001
,
0010
0001
1000
0001
0100
0100
0100
0000
,
0001
0010
0010
0001
0100
1000
0100
0000
,
0001
0001
1000
0001
0100
0100
0100
0000
,
0001
0010
1000
0010
0001
0100
0001
0000
,
0010
0001
0001
0100
0010
0000
0110
0000
,
0000
0000
0010
0100
0001
0000
1000
0000
0100
0000
1000
0000
0001
0000
0100
0000
,
0010
0000
0010
1000
1000
0100
1000
1000
,
0001
0000
0100
0010
0000
0000
0010
0000
0100
0000
0000
0000
0110
0000
0000
0000
,
1000
0100
0010
0100
0001
0101
0000
1000
,
0001
0000
0101
0101
0000
1000
0010
0100
,
0001
1000
1010
1010
0002
0000
0100
0000
,
0003
1010
2000
0100
,
3000
0011
0002
0100
,
0003
1010
2000
0100
,
3000
0011
0002
0023
,
0000
0000
0000
0030
2000
0000
3200
0000
,
0000
0000
0000
0300
0002
0000
0010
0000
,
0203
1000
0320
0001
,
2030
3002
1000
2003
,
0000
3011
0002
0100
,
0003
1010
2000
0100
,
3000
0011
0002
0100
,
0003
1010
200M
320M
,
0000
0000
0000
0300
M002
0000
M023
0000
,
0000
0000
0000
0030
200M
0000
001M
0000
,
32M0
00M1
032M
100M
,
0M32
0000
2M03
0000
3002
2000
0000
0000
,
3003
0000
0000
0000
,
0000
0000
0000
0001
,
0010
0000
0000
0000
1000
0000
0000
0000
0010
0000
0000
0000
1000
0000
0000
1000
,
0100
0000
0000
0100
0010
0000
0010
0000
0000
0000
0000
0000
1000
0000
0000
0000
,
1000
0010
0000
0000
1000
0000
0000
0000
0010
1000
0000
0000
1000
0100
1000
0000
,
0010
0100
0010
0100
0000
0000
0001
0000
,
0010
1000
0000
0000
0001
0000
0000
0000
0100
1000
0000
0000
0001
0000
0000
0000
,
0010
0000
0000
0100
0000
0000
0000
0000
0000
0000
0000
0000
1000
0000
0000
0000
0000
0000
0010
0000
0000
0000
0000
0000
0000
0000
0000
0000
0000
0000
0000
0000
0000
0000
0000
0000
0100
0000
0000
0000
0001
0000
0000
0000
0100
0000
0000
0000
,
0010
0000
1000
0100
0010
0100
1000
0000
,
0001
0100
0000
0000
0010
0000
0010
0000
0000
0000
0001
0000
0001
0000
0100
0000
,
0001
0100
0010
1000
0010
0000
1100
0000
,
0001
0000
0010
0100
0010
0000
0001
0000
1000
0000
0000
0000
1001
0000
0000
0010
,
0100
0000
0001
0000
0100
0000
1000
0000
0100
0000
0000
0000
0110
0000
0000
1000
,
0001
0010
0100
0100
1000
0000
0110
0000
,
0000
1000
0001
0000
0010
0000
0001
0000
1000
0100
1000
0000
0001
0000
0100
0000
,
0010
0000
1010
1000
0001
0100
0010
1000
,
0001
0010
0100
1000
0010
0000
1010
1000
,
0001
0100
0001
1000
0100
1100
0000
0001
,
0100
0010
0110
0000
1000
0000
0001
0010
,
0110
0000
0000
0000
0000
0000
1001
0000
0000
0000
0000
0001
0100
0000
0001
0000
,
0100
0000
0001
0000
0100
0000
0001
0000
0010
0000
0000
0000
0000
0000
0100
1000
,
0100
0000
1000
0000
0010
0000
0000
0000
0000
0000
0000
0100
0001
0000
0100
0000
,
0100
0000
0001
0000
0100
0000
0010
0000
1000
0000
0000
0000
0100
0000
0000
0100
,
1000
0100
0010
0000
0000
0000
0001
0100
,
0000
0000
1010
0000
0000
0000
0100
0000
0100
0000
0000
0000
0100
0000
0000
1000
,
0100
1000
0100
0000
0000
0011
0001
0100
,
0001
0010
1000
0100
1000
0001
0001
0100
,
0010
0000
0100
0000
0010
0000
0000
0000
0000
0000
1000
0001
1000
0000
0010
0000
,
0100
0001
1000
0001
0000
0010
0001
0100
,
0010
1000
0100
0010
0001
0100
0010
1000
,
0001
0010
0100
1000
0010
0100
0001
1000
,
0100
0010
0001
1000
0001
0010
0100
1000
,
0010
0100
0001
0010
0100
1000
0001
0100
,
0010
1000
0001
0010
0000
0010
0001
0100
,
0010
1000
0001
0010
0100
1000
0001
0100
,
0010
0000
1000
0000
0100
0000
0010
0000
0001
0100
0010
1000
0001
1000
0010
0000
,
0000
0000
1000
0000
0001
0000
0000
1000
0000
0001
0000
0000
1000
0000
0100
0000
,
0010
0001
0100
0101
2000
0000
0100
0000
,
3000
0011
0002
0100
,
0003
1010
2000
0100
,
3000
0011
0002
0100
,
0003
1010
2000
3020
,
0000
0000
0000
0030
0002
0000
0203
0000
,
0000
0000
0000
0300
2000
0000
0010
0000
,
3200
0001
0320
1000
,
0032
2003
0001
3002
,
0000
MM10
2003
0010
,
0000
0M1M
3002
0010
,
0000
MM10
2003
0010
,
0000
0M1M
30M2
02M3
,
0000
0000
0000
0300
200M
0000
302M
0000
,
0000
0000
0000
0030
M002
0000
M010
0000
,
02M3
10M0
M320
M001
,
2M30
0000
3M02
0000
2003
0002
0000
0000
,
3003
0000
0000
0000
,
0000
0000
0000
0000
0000
0000
0000
0000
0000
0000
1000
0001
1000
0000
0001
0000
,
0010
0001
0100
0001
0010
0100
1000
0000
,
0010
0000
0100
0000
1000
0000
0000
0000
0000
0000
0001
0100
0001
0000
0100
0000
,
0010
0000
1000
0000
0001
0000
0010
0000
0100
0000
0010
0001
0010
0000
0001
0000
,
1000
0100
0010
0000
0000
0001
0100
0001
,
0010
0100
1000
0100
0010
0010
0100
1000
,
0010
0000
0010
0000
0100
0000
0000
0000
0000
0000
0001
1000
0001
0000
1000
0000
,
0001
0000
0100
0010
0100
0000
0010
0000
0100
0000
0001
0000
0001
0000
1000
0000
,
0001
0000
0001
0000
0100
0000
0000
0000
0000
0000
1000
0100
1000
0000
0001
0000
,
0100
0010
1000
0010
0100
0001
1000
0001
,
0100
0010
0100
0010
0000
1000
0010
1000
,
0100
0100
0010
0000
0100
1000
0010
0100
,
1000
0000
0100
0000
0010
0000
1000
0000
0000
0000
0001
0010
0001
0000
0010
0000
,
0100
0000
1000
0000
0010
0000
0000
0000
0000
1000
0001
1000
0001
0000
0100
0000
,
0010
0000
0100
0000
0001
0000
0000
0000
0000
0000
1000
0100
1000
0000
0100
0000
,
0010
0000
0001
0000
0100
0000
0001
1000
0001
0000
0100
0000
0001
0000
0010
0000
,
0100
1000
0001
0000
0000
0010
0100
0010
,
0000
1000
0001
1000
0000
0100
0100
0100
,
1000
1000
0001
0011
0000
0000
1000
0010
,
0100
0000
0100
0000
0010
0000
0000
0000
0000
0010
1000
0000
0001
0000
0010
0000
,
0100
0000
0100
0000
0010
0000
0000
0000
0000
0001
1000
0000
0010
0000
0010
0000
,
1000
0000
0001
0100
0001
0000
1000
0000
0100
0000
0000
0000
0011
0000
0001
0000
,
0100
0001
1000
0000
0000
0001
0010
0100
,
1000
0100
0110
0000
0000
0001
0100
0100
,
0010
1000
1100
0000
0000
0001
0100
1000
,
0100
0001
0001
1000
0100
0010
0001
1000
,
0010
0100
0110
0000
0000
0001
0010
0100
,
1000
0000
0001
0000
1000
0000
0000
0000
0000
0000
0001
0100
0001
0000
1000
0000
,
0100
1000
0001
0000
0000
0010
0100
0100
,
1000
0010
0010
0100
0001
1000
1000
0100
,
0010
0001
0010
0000
0000
0001
0101
0000
,
0000
0000
0001
0000
0010
0000
0100
0000
1000
0000
0010
0000
1000
0000
0001
0100
,
0001
0100
0010
0000
0000
0001
0010
0100
,
1000
0010
0100
0001
1000
0100
1000
0001
,
0010
0000
0100
0000
0010
0000
0000
0000
0000
0001
0100
0000
0110
0000
0000
0000
,
0000
0001
1000
0100
0000
1000
0010
0100
,
0001
0000
0001
0000
0010
0100
0110
0000
0000
0000
0000
0000
0000
0000
0000
0000
;
