#TITLE:Invader Zim Theme;
#SUBTITLE:;
#ARTIST:Kevin Manthei;
#TITLETRANSLIT:;
#SUBTITLETRANSLIT:;
#ARTISTTRANSLIT:;
#GENRE:;
#CREDIT:;
#BANNER:Invader Zim-bn.png;
#BACKGROUND:Invader Zim-bg.png;
#LYRICSPATH:;
#CDTITLE:JDAWG3.PNG;
#MUSIC:Invader Zim.ogg;
#OFFSET:0.000;
#SAMPLESTART:1.720;
#SAMPLELENGTH:11.980;
#SELECTABLE:YES;
#BPMS:0.000=120.002;
#STOPS:;
#BGCHANGES:0.000=Invader Zim.avi=1.000=0=0=1=====,
99999=-nosongbg-=1.000=0=0=0 // don't automatically add -songbackground-
;
#KEYSOUNDS:;

//---------------dance-single - supertoast----------------
#NOTES:
     dance-single:
     supertoast:
     Hard:
     9:
     0.861,0.800,0.684,0.395,0.776:
0000
0000
0000
0000
0000
0000
0000
0000
M00M
0000
0000
0000
0MM0
0000
1000
0100
,
0010
0000
0100
0000
0110
0000
0000
0000
0010
0000
0100
0000
0110
0000
1000
0100
,
0010
0000
0100
0000
0110
0000
0000
0000
1000
0000
0011
0000
0000
0000
1000
0100
,
0010
0000
0100
0000
0110
0000
0000
0000
0010
0000
0100
0000
0110
0000
1000
0100
,
0010
0000
0001
0000
1100
0000
0001
0000
0110
0000
1000
0000
0000
0000
0001
0100
,
0010
0000
0100
0000
0110
0000
0000
0000
0010
0000
0100
0000
0110
0000
0001
0100
,
0010
0000
0100
0000
0110
0000
0000
0000
0001
0000
1010
0000
0000
0000
0001
0100
,
0010
1000
1001
0001
0010
0100
1100
0001
,
0011
0010
0110
0100
1001
0000
0000
0000
,
1000
0100
0010
0001
1000
0100
0010
0001
1000
0100
0010
0001
1000
0100
0010
0001
,
2000
3200
0320
0032
1103
0110
0011
1001
,
1000
0010
0100
0001
1000
0010
0100
0001
1000
0010
0100
0001
1000
0010
0100
0001
,
2000
3020
0230
0302
1013
0110
0101
1001
,
1000
0100
0010
0001
1000
0010
0100
0001
1000
0100
0010
0001
1000
0010
0100
0001
,
2000
0000
3200
0000
0320
0000
0032
0000
1003
0010
0100
0010
1000
0001
0010
0100
,
0010
0001
0100
0010
1000
0100
0010
0001
1000
0010
0100
0001
0010
0200
0000
0000
,
0310
0001
0100
0010
1000
0001
0010
0100
1000
0000
1001
0000
0000
0000
0000
0000
,
0001
0010
0100
1000
0001
0100
0010
1000
0001
0010
0100
1000
0010
0200
0000
0000
,
0301
0010
0100
0010
0001
0100
0010
1000
0100
0010
0100
1000
0002
0000
0000
0000
,
0003
0000
0000
0000
;

//---------------dance-single - nvwls300----------------
#NOTES:
     dance-single:
     nvwls300:
     Challenge:
     10:
     0.947,0.850,1.000,0.105,0.803:
0220
0000
0000
0000
0000
0000
0000
0000
1331
0000
0000
0000
0110
0000
1000
0100
,
0010
0000
0100
0000
0110
0000
0000
0000
0010
0000
0100
0000
0110
0000
1000
0100
,
0010
0000
0100
0000
0110
0000
0000
0000
1001
0000
0011
0000
0000
0000
1000
0100
,
0010
0000
0100
0000
0110
0000
0000
0000
0010
0000
0100
0000
0110
0000
1000
0100
,
0011
0000
0100
0000
1010
0000
0001
0000
0110
0000
1MM0
0000
0MM0
0000
0001
0100
,
0010
0000
0100
0000
1001
0000
0000
0000
0001
0000
1000
0000
0110
0000
1000
0100
,
0010
0000
0100
0000
1001
0000
0000
0000
0110
0000
1010
0000
0000
0000
0001
0100
,
0010
1000
1001
0001
0010
0100
1100
0001
,
0011
0010
0110
0100
1001
0MM0
0MM0
0000
,
1000
0100
0010
0001
0100
0010
1000
0100
0010
0001
0100
0010
1000
0100
0010
0001
,
1100
1010
0110
0101
0011
0110
1100
1010
,
0001
0010
0100
1000
0001
0100
0010
1000
0001
0010
0100
1000
0001
0100
0010
1000
,
0011
1100
1010
0101
0011
1100
1010
0101
,
0100
0010
1000
0100
0010
0001
1000
0010
0100
0001
0010
0100
1000
0001
0100
0010
,
1001
0000
1100
0000
0011
0000
0110
0000
0001
0010
0100
1000
0001
1000
0100
0010
,
0101
1000
0010
0100
0001
0010
0100
1000
0011
0100
0010
1000
0001
0010
0100
1000
,
0101
1000
0010
0100
1000
0100
0010
1000
0101
0000
0011
0000
0000
0000
0000
0000
,
1010
0100
0001
0100
1000
0001
0010
0001
1100
0010
1000
0100
0010
0100
1000
0010
,
1100
0001
0100
0001
0010
0001
0100
0001
1010
0100
0010
0100
2002
0000
0000
0000
,
3003
0000
0000
0000
;

//---------------dance-single - space meat----------------
#NOTES:
     dance-single:
     space meat:
     Medium:
     7:
     0.492,0.450,0.263,0.184,0.092:
0000
0000
0000
0000
0000
0000
0000
0000
0000
0000
0000
0000
0000
0000
1000
0100
,
1000
0000
0001
0000
0100
0000
0000
0000
1000
0000
0001
0000
0100
0000
0001
0100
,
0001
0000
1000
0000
0100
0000
0000
0000
1000
0000
0001
0000
0000
0000
1000
0100
,
1000
0000
0010
0000
0100
0000
0000
0000
1000
0000
0010
0000
0100
0000
0010
1000
,
0001
0000
0010
0000
0001
0000
1000
0000
0001
0000
0100
0000
0000
0000
0001
1000
,
0001
0000
0100
0000
0100
0000
0000
0000
0001
0000
0100
0000
0100
0000
0001
1000
,
0001
0000
0100
0000
0100
0000
0000
0000
0001
0000
0010
0000
0000
0000
1000
0001
,
1000
0010
0010
0100
0001
1000
1000
0100
,
0010
0001
0010
0100
0001
0000
0000
0000
,
2000
0000
0000
0000
,
3001
0100
0010
1000
0001
0100
0010
1000
,
0002
0000
0000
0000
,
1003
0100
0010
0001
1000
0100
0010
0001
,
0200
0000
0000
0000
,
0310
1000
0100
0010
2002
0000
0MM0
0000
,
3113
0010
0001
0100
0110
1000
0100
0010
,
0110
0100
1000
0001
1001
0010
0000
0000
,
1001
0100
1000
0001
0110
0100
1000
0010
,
1001
0100
0001
1000
0110
0001
2002
0000
,
3003
0000
0000
0000
;

//---------------dance-single - snack plan----------------
#NOTES:
     dance-single:
     snack plan:
     Easy:
     5:
     0.399,0.400,0.447,0.211,0.000:
0000
0000
0000
0000
,
1000
0110
0001
0110
,
1000
0000
0101
0000
0100
0010
0000
0000
,
0100
1001
0010
1001
,
0011
1001
0101
0000
,
0001
0110
1000
0110
,
0001
0000
1100
0000
0100
0010
0000
0000
,
0001
0110
1000
0101
,
0011
0110
1100
0000
,
0002
0000
0000
0000
,
1003
1000
0100
0100
0010
0010
0001
0001
,
2000
0000
0000
0000
,
3001
0001
0100
0100
0010
0010
1000
1000
,
0200
0000
0000
0000
,
1300
1000
0001
0001
0220
0000
M33M
0000
,
1000
0100
0010
0001
1000
0010
0200
0000
,
0301
0010
0100
1000
0100
0010
0000
0000
,
1000
0010
0100
0001
1000
0100
0020
0000
,
0130
1000
0010
1000
0100
0010
2000
0000
,
3000
0000
0000
0000
;

//---------------dance-single - government pig----------------
#NOTES:
     dance-single:
     government pig:
     Beginner:
     3:
     0.173,0.197,0.237,0.079,0.000:
0000
0000
0000
0000
,
0000
1000
0000
1000
,
0000
0000
1000
0000
0000
0010
0000
0000
,
0000
0001
0000
0001
,
0010
0001
0100
0000
,
0000
1000
0000
1000
,
0000
0000
1000
0000
0000
0010
0000
0000
,
0000
0001
0000
1000
,
0100
0100
0110
0000
,
0002
0000
0000
0000
,
1003
0000
0000
0000
,
2000
0000
0000
0000
,
3001
0000
0000
0000
,
0200
0000
0000
0000
,
0310
0000
0100
0000
,
1001
0000
0011
0000
,
1001
0000
1010
0000
,
1001
0000
0110
0000
,
1001
0000
1100
0001
;
