#TITLE:Half Horse Half Man;
#SUBTITLE:;
#ARTIST:On Company Time;
#TITLETRANSLIT:;
#SUBTITLETRANSLIT:;
#ARTISTTRANSLIT:;
#GENRE:;
#CREDIT:;
#BANNER:Half Horse Half Man-bn.png;
#BACKGROUND:Half Horse Half Man-bg.png;
#LYRICSPATH:;
#CDTITLE:;
#MUSIC:Half Horse Half Man.ogg;
#OFFSET:-0.830;
#SAMPLESTART:36.781;
#SAMPLELENGTH:12.000;
#SELECTABLE:YES;
#BPMS:0.000=110.000,227.000=220.000,228.000=110.000;
#STOPS:227.000=0.068
,227.250=0.068
,227.500=0.068
,227.750=0.068
,262.958=0.273
,262.979=0.273
;
#BGCHANGES:3.750=Half Horse Half Man.avi.avi=1.000=1=0=1===CrossFade==,
339.000=Half Horse Half Man-bg.png=1.000=1=0=1===CrossFade==,
99999=-nosongbg-=1.000=0=0=0 // don't automatically add -songbackground-
;
#KEYSOUNDS:;

//---------------dance-single - Geriatric Patrick----------------
#NOTES:
     dance-single:
     Geriatric Patrick:
     Hard:
     9:
     0.450,0.412,0.209,0.310,0.458:
0000
0000
0000
0000
,
0101
0000
0001
0000
1000
0010
0000
1000
0000
0001
0000
0010
0000
0000
0010
0000
,
0100
0000
0001
0000
1000
0000
0010
0100
0000
0001
0000
0001
0000
0100
0000
0010
,
0000
0000
0001
0000
1000
0000
0100
0010
0000
0010
0000
1000
0000
0000
0001
0100
,
0000
0000
0000
0000
0110
0000
0000
0000
0001
0000
1M1M
0000
0000
0000
0001
0010
,
0100
0000
1000
0010
0000
0010
0000
0100
0000
0001
0000
0010
0000
0000
0001
1000
,
0000
0000
0100
0000
1000
0000
0001
0100
0000
0010
0000
0010
0000
0001
0000
0010
,
0000
0000
1000
0000
0001
0000
0010
0000
1000
0000
1000
0000
0010
0000
0100
1000
,
0000
1001
0020
0230
,
2300
0000
0001
0000
3001
0000
0001
0000
0010
0000
0001
0000
0100
0000
0100
0010
,
0000
0101
2000
3020
,
0230
0000
1000
0000
1300
0000
0100
0000
0010
0000
0100
0000
0001
0000
0001
1000
,
0000
0000
0010
0000
0001
0000
0010
0100
0000
0000
1000
0000
0001
0000
0001
0100
,
0000
0000
1000
0000
0100
0000
0010
0002
0000
0000
1000
0000
1003
0000
0010
0200
,
0000
0000
1000
0000
1300
0000
0001
0020
0000
0000
0001
0000
0031
0000
0100
2000
,
0000
0000
0000
0000
3000
0000
0000
0001
0010
0000
0010
0000
0100
0000
0100
1000
,
0000
0001
0100
0001
1000
0100
0010
0000
,
0012
2000
0000
0000
0000
0000
0010
0010
,
0000
0000
0003
0000
0000
0000
3000
0000
000M
00M0
0M00
M000
0000
0000
0000
0000
,
0000
0000
1000
0000
0001
0000
1000
0000
0010
0000
0010
0100
0000
1000
0000
0001
,
0000
0000
0000
0000
0000
0000
0000
0000
0011
0000
0001
1000
0000
0100
0000
0000
,
1020
0000
0200
0030
0002
0000
1000
0010
,
0000
0303
0000
0000
0011
0001
1000
0000
,
0120
0000
0002
0030
0200
0000
0010
1000
,
0303
0000
0000
0001
1001
1000
0100
0000
,
0000
0000
0001
0010
0000
0010
0000
0001
0000
1000
0000
0010
0000
0000
0010
0100
,
0000
0000
1000
0000
0100
0000
0010
1000
0000
1000
0000
0001
0000
1000
0000
0001
,
0000
0000
0100
0000
0010
0000
0010
0001
0000
0100
0000
0010
0000
0000
0100
1000
,
0000
0000
0000
0000
0010
0000
0000
0000
M000
0M00
00M0
000M
0010
0000
1000
0001
,
0100
0000
0001
0010
0000
0010
0000
0100
0000
1000
0000
0010
0000
1000
0000
0001
,
0000
0000
0100
0000
0001
0000
0001
1000
0000
0001
0000
0010
0000
0001
0000
1000
,
0000
0000
0000
0000
0010
0100
0000
0010
0000
0000
0001
0000
1000
0000
0001
0100
,
0000
1010
0002
0023
,
0230
0000
1000
0000
1300
0000
0100
0000
0010
0000
1000
0000
0010
0000
0100
1000
,
0000
0011
2000
3020
,
0230
0000
1000
0000
1300
0000
0100
0000
0010
0000
0100
0000
1000
0000
0100
0001
,
0000
0000
0010
0000
0001
0000
0010
0100
0000
0000
0100
0000
1000
0000
0001
0100
,
0000
0000
0001
0000
1000
0000
0100
0020
0000
0000
0100
0000
0031
0000
1000
0020
,
0000
0000
0100
0000
1030
0000
1000
0200
0000
0000
0010
0000
1300
0000
0001
0200
,
0000
0000
0000
0000
0300
0000
0000
0010
1000
0000
0010
0000
0100
0000
1000
0001
,
0000
0100
0001
0100
0010
1000
0001
0000
,
0021
0200
0000
0000
0000
0000
0001
0001
,
0330
0000
0000
0000
0000
0000
0000
0000
000M
00M0
0M00
M000
0000
0000
0000
0000
,
0010
1000
0000
0001
0000
0001
0000
0010
0000
0100
0000
0010
0000
1000
0000
0000
,
1001
0000
0000
0000
0000
0000
0000
0000
0011
0000
0001
0100
0000
0001
0000
0000
,
2010
0000
3002
0000
0200
0000
1010
1010
,
0000
0003
0000
13M1
0000
0000
0000
0000
,
0100
0010
0000
0100
0000
0001
0000
0001
0000
1000
0000
0001
0000
0010
0000
0000
,
1100
0001
0120
0032
,
0003
0000
1000
0000
0010
0000
1000
0000
0010
0000
0100
1000
0000
0100
0000
1000
,
0000
0000
0001
0000
0010
0000
0010
0100
0000
0001
0000
1000
0000
0001
0000
0010
,
0000
0000
0100
0000
1000
0000
1000
0010
0000
0000
0001
0000
0010
0000
0100
1000
,
0000
0000
0000
0000
0001
0000
0000
0000
1010
0000
1000
0001
0000
0100
0000
0000
,
0120
0000
2000
0030
0200
0000
0001
0010
,
3300
0000
0000
0000
0000
0000
0000
0000
0010
0001
0000
0100
0000
0000
0001
0000
,
0012
0000
2000
0003
0200
0000
0010
0001
,
3300
0000
0000
1000
0001
0010
0400
0000
,
1300
0000
0010
0000
0010
0000
1000
0001
0000
0001
0000
0000
0010
0100
0010
0001
,
0000
0000
1000
0000
0100
0010
0000
0010
0000
0100
0001
0000
0100
0000
0010
0000
,
0011
0000
1000
0000
0010
0000
0100
1000
0000
1000
0000
0000
0001
0010
0001
1000
,
0000
0000
0100
0000
1000
0001
0000
1000
0000
0010
0000
0000
0011
0000
0001
0100
,
0000
0000
1000
0000
0100
0000
0001
0010
0000
0010
0000
0001
1000
0010
1000
0100
,
0000
0000
0001
0000
0100
0001
0000
1000
0000
0100
0000
0000
0110
0000
0100
0000
,
2000
0000
0000
3010
M200
M000
M000
M301
,
MM20
0000
MM00
0000
MM00
0000
MM00
0000
MM31
0000
1000
0000
0010
0000
1000
0002
,
0000
0000
0000
0000
0000
0000
0000
0000
0000
0000
0000
0000
0000
0000
0000
0000
0000
0000
0000
0000
0000
0000
0000
0000
0000
0000
0000
0000
0000
0000
0000
0000
0000
0000
0000
0000
0000
0000
0000
0000
0000
0000
0000
0000
0000
0000
0000
0000
0020
0000
0000
0000
0000
0000
0000
0000
0000
0000
0000
0000
0000
0000
0000
0000
0000
0000
0000
0000
0000
0000
0000
0000
0003
0000
0000
0000
0000
0000
0000
0000
0000
0000
0000
0000
0000
0000
0000
0000
0000
0000
0000
0000
0000
0000
0000
0000
0200
0000
0000
0000
0000
0000
0000
0000
0000
0000
0000
0000
0000
0000
0000
0000
0000
0000
0000
0000
0000
0000
0000
0000
0000
0000
0000
0000
0000
0000
0000
0000
0000
0000
0000
0000
0000
0000
0000
0000
0000
0000
0000
0000
0000
0000
0030
0300
1001
0000
0000
0000
0000
0000
0000
0000
0000
0000
0000
0000
0000
0000
0000
0000
0000
0000
0000
0000
0000
0000
0000
0000
0000
0000
0000
0000
0000
0000
0000
0000
0000
0000
0000
0000
0000
0000
0000
0000
0000
0000
0000
0000
0000
0000
0000
0000
,
0010
0000
0000
0000
000M
00M0
0M00
M000
0010
0000
0000
0000
0000
0000
0001
0000
,
0010
0000
0001
0000
0100
0000
0001
1000
0000
0010
0000
0100
0000
0000
0000
0000
,
0000
0000
1000
0000
1010
0000
0100
0001
0000
0100
0000
0000
0021
0000
0000
0000
,
0200
0030
2000
0000
0011
0011
0000
3300
,
0000
0000
M11M
0000
0000
0000
0000
0000
0000
0000
0000
0000
0001
0100
0000
0100
,
0000
0010
0000
1010
0000
0000
0001
0000
0010
0000
0100
1000
0000
0000
0000
0000
,
0011
0000
2000
0000
3020
0000
1030
0001
,
0100
0000
0001
0010
0000
0100
0000
1000
0000
1000
0000
0010
0000
0000
1000
0000
,
0001
0000
0001
0010
0000
0001
0000
1000
0000
0100
0000
0010
0000
0000
1000
0000
,
0001
0000
0100
0010
0000
0000
0001
0000
0001
0000
1000
0100
0000
0000
0000
0000
,
1100
0000
0000
0001
0010
0000
0010
0100
0000
1000
0000
0000
2010
0000
0000
0000
,
0002
3000
0200
0000
1000
0010
0000
0303
,
0000
0001
0010
0001
1000
0010
0120
0000
,
2000
0030
0200
0000
0010
0001
0000
3300
,
0000
0000
0010
0000
1000
0000
0100
0000
0001
0000
0000
0000
M000
0M00
00M0
000M
;

//---------------dance-single - Geriatric Patrick----------------
#NOTES:
     dance-single:
     Geriatric Patrick:
     Challenge:
     9:
     0.538,0.520,0.230,0.203,0.573:
0000
0000
0000
0000
,
1000
0000
0001
0100
0010
0000
0100
0001
0100
0000
0001
1000
0010
0000
1000
0001
,
1000
0000
0001
0010
0100
0000
0010
0001
0010
0000
0001
1000
0100
0000
1000
0001
,
1000
0000
0001
0100
0010
0000
1000
0001
1000
0000
0100
0010
0001
0000
0100
0010
,
0100
0000
0001
1000
0100
0000
0010
0001
0010
0000
0100
1000
0001
0000
0100
0010
,
0100
0000
0001
0010
0100
0000
1000
0100
1000
0000
0001
0100
0010
0000
0100
0001
,
0100
0000
0010
1000
0100
0000
1000
0001
1000
0000
0001
0010
0100
0000
0010
0001
,
0010
0000
0001
1000
0100
0000
1000
0010
1000
0000
0010
0100
0001
0000
0010
0100
,
0010
0000
0100
1000
0001
0000
1000
0100
1000
0000
0100
0010
0001
0000
0010
0100
,
0010
0000
0100
1000
0001
0000
1000
0100
1000
0000
0100
1000
0010
0000
0100
0001
,
0100
0000
0001
0100
0010
0000
0100
0001
0100
0000
0001
1000
0010
0000
1000
0001
,
1000
0000
0001
0010
0100
0000
0010
0001
0010
0000
0100
1000
0010
0000
1000
0001
,
1000
0000
0001
0100
0010
0000
0100
0001
0100
0000
0010
1000
0100
0000
1000
0001
,
1000
0000
0001
0010
0100
0000
1000
0010
1000
0000
0100
0010
0100
0000
1000
0010
,
0100
0000
0010
1000
0010
0000
1000
0001
0010
0000
0001
1000
0001
0000
0010
0100
,
0000
0000
0010
0100
0000
0000
0010
0100
0000
0000
0010
0100
0000
0000
0010
0100
,
0000
0001
0100
0001
0011
0100
0001
0000
,
1020
0200
0000
0000
0000
0000
M001
M001
,
0000
0000
0030
0000
0000
0000
0300
0000
000M
00M0
0M00
M000
0000
0000
0000
0000
,
0000
0000
1000
0000
0001
0000
1000
0000
1010
0000
0010
0100
0000
1000
0000
0001
,
0000
0000
0000
0000
0000
0000
0000
0000
0011
0000
0001
1000
0000
0100
0000
0000
,
1020
0000
0200
0030
0002
0000
10M0
M010
,
0303
0000
0000
0000
0011
0001
1000
0000
,
0120
0000
0002
0030
0200
0000
M010
10M0
,
0303
0000
0000
0001
1001
1000
0100
0000
,
0000
0000
0001
0010
0000
0000
0001
0010
0000
0000
0001
1000
0000
0000
0001
1000
,
0000
0000
0010
1000
0000
0000
0010
0100
0000
0000
0010
1000
0000
0000
0001
0100
,
0001
0000
0100
0010
1000
0000
0001
0010
0001
0000
0010
0100
1000
0000
0001
0100
,
0001
0000
1000
0100
0010
0000
0001
1000
0001
0000
0100
0010
1000
0000
0010
0100
,
0010
0000
0100
0001
0010
0000
0001
1000
0001
0000
0010
0100
1000
0000
0100
0010
,
0100
0000
0010
0001
1000
0000
0001
0100
0001
0000
1000
0100
0010
0000
0100
1000
,
0100
0000
0010
0001
0100
0000
0010
1000
0010
0000
0100
0001
0010
0000
0001
1000
,
0001
0000
0010
0100
1000
0000
0001
0100
0001
0000
0100
0010
1000
0000
0010
0100
,
0010
0000
0100
0001
1000
0000
0001
0100
0001
0000
1000
0100
0010
0000
0100
1000
,
0100
0000
1000
0001
0010
0000
0001
1000
0001
0000
1000
0010
0100
0000
0010
1000
,
0010
0000
0100
0001
0010
0000
0001
0100
0001
0000
0100
0010
1000
0000
0010
0100
,
0010
0000
1000
0001
0010
0000
0001
1000
0001
0000
1000
0100
0010
0000
0100
1000
,
0100
0000
1000
0001
0100
0000
0001
1000
0001
0000
1000
0010
0100
0000
0010
1000
,
0010
0000
0100
0001
1000
0000
0010
0100
0010
0000
0100
0001
0010
0000
0100
1000
,
0000
0000
0100
0010
0000
0000
0001
1000
0000
0000
0001
0010
0000
0000
0100
1000
,
0000
0100
0001
0100
1100
0001
0010
0000
,
1020
0200
0000
0000
0000
0000
M001
M001
,
0330
0000
0000
0000
0000
0000
0000
0000
000M
00M0
0M00
M000
0000
0000
0000
0000
,
0010
1000
0000
0001
0000
0001
0000
0010
0000
0100
0000
0010
0000
1000
0000
0000
,
1001
0000
0000
0000
0000
0000
0000
0000
0011
0000
0001
0100
0000
0001
0000
0000
,
2010
0000
3002
0000
0200
0000
1010
1010
,
0000
0003
0000
13M1
0000
0000
0000
0000
,
0100
0010
0000
0100
0000
0001
0000
0001
0000
1000
0000
0001
0000
0010
0000
0000
,
1100
0001
0120
0032
,
0003
0000
1000
0000
0010
0000
1000
0000
0010
0000
0100
1000
0000
0100
0000
1000
,
0000
0000
0001
0000
0010
0000
0010
0100
0000
0001
0000
1000
0000
0001
0000
0010
,
0000
0000
0100
0000
1000
0000
1000
0010
0000
0000
0001
0000
0010
0000
0100
1000
,
0000
0000
0000
0000
0001
0000
0000
0000
1010
0000
1000
0001
0000
0100
0000
0000
,
0120
0000
2000
0030
0200
0000
00M1
001M
,
3300
0000
0000
0000
0000
0000
0000
0000
0010
0001
0000
0100
0000
0000
0001
0000
,
0012
0000
2000
0003
0200
0000
001M
00M1
,
3300
0000
0000
0000
0000
0000
1000
0000
0011
0000
0010
0000
0100
1000
0100
1000
,
0001
0000
0001
0000
0100
0000
0001
1000
0000
1000
0000
0000
0010
0100
0010
0001
,
0000
0000
1000
0000
0100
0010
0000
0010
0000
0100
0001
0000
0100
0000
0010
0000
,
0011
0000
1000
0000
0010
0000
0100
1000
0000
1000
0000
0000
0001
0010
0001
1000
,
0000
0000
0100
0000
1000
0001
0000
1000
0000
0010
0000
0000
0011
0000
0001
0100
,
0000
0000
1000
0000
0100
0000
0001
0010
0000
0010
0000
0001
1000
0010
1000
0100
,
0000
0000
0001
0000
0100
0001
0000
1000
0000
0100
0000
0000
0110
0000
0100
0000
,
2000
0000
0000
3001
M200
M000
M000
M310
,
MM02
0000
MM00
0000
MM00
0000
MM00
0000
0013
0000
1000
0000
1001
0000
1000
0002
,
0000
0000
0000
0000
0000
0000
0000
0000
0000
0000
0000
0000
0000
0000
0000
0000
0000
0000
0000
0000
0000
0000
0000
0000
0000
0000
0000
0000
0000
0000
0000
0000
0000
0000
0000
0000
0000
0000
0000
0000
0000
0000
0000
0000
0000
0000
0000
0000
0020
0000
0000
0000
0000
0000
0000
0000
0000
0000
0000
0000
0000
0000
0000
0000
0000
0000
0000
0000
0000
0000
0000
0000
0000
0000
0000
0000
0000
0000
0000
0000
0000
0000
0000
0000
0000
0000
0000
0000
0000
0000
0000
0000
0000
0000
0000
0000
0200
0000
0000
0000
0000
0000
0000
0000
0000
0000
0000
0000
0000
0000
0000
0000
0000
0000
0000
0000
0000
0000
0000
0000
0000
0000
0000
0000
0000
0000
0000
0000
0000
0000
0000
0000
0000
0000
0000
0000
0000
0000
0000
0000
0000
0000
0003
0330
1001
0000
0000
0000
0000
0000
0000
0000
0000
0000
0000
0000
0000
0000
0000
0000
0000
0000
0000
0000
0000
0000
0000
0000
0000
0000
0000
0000
0000
0000
0000
0000
0000
0000
0000
0000
0000
0000
0000
0000
0000
0000
0000
0000
0000
0000
0000
0000
,
0010
0000
0000
0000
000M
00M0
0M00
M000
0010
0000
0000
0000
0000
0000
0001
0000
,
0011
0000
0001
0000
0100
0000
0001
1000
0000
0010
0000
0110
0000
0000
0000
0000
,
0000
0000
1000
0000
1010
0000
0100
0001
0000
0100
0000
0000
0021
0000
0000
0000
,
0200
0030
2000
0000
0011
0011
0000
3300
,
0000
0000
M11M
0000
0000
0000
0000
0000
0000
0000
0000
0000
0001
0100
0000
0100
,
0000
0010
0000
1010
0000
0000
0001
0000
0010
0000
0100
1000
0000
0000
0000
0000
,
0011
0000
2000
0000
3020
0000
1030
0001
,
0100
0000
0001
0010
0000
0100
0000
1000
0000
0010
0000
0110
0000
0000
1000
0000
,
0001
0000
0001
0010
0000
0001
0000
1000
0000
0100
0000
0110
0000
0000
1000
0000
,
0001
0000
0100
0010
0000
0000
0001
0000
0001
0000
1000
0100
0000
0000
0000
0000
,
1100
0000
0000
0001
0010
0000
0010
0100
0000
1000
0000
0000
2010
0000
0000
0000
,
0002
3000
0200
0000
10M0
M010
0000
0303
,
0000
0001
0110
0001
0100
1000
0120
0000
,
2000
0030
0200
0000
001M
00M1
0000
3300
,
0000
0000
1000
0000
1001
0000
0010
0000
0100
0000
0000
0000
M000
0M00
00M0
000M
;

//---------------dance-single - Geriatric Patrick----------------
#NOTES:
     dance-single:
     Geriatric Patrick:
     Medium:
     5:
     0.337,0.303,0.434,0.252,0.019:
0000
0000
0000
0000
,
0100
0011
1000
1010
,
0100
1001
0010
0101
,
1000
1100
0001
0011
,
1000
0110
1000
0101
,
0010
1001
0100
1010
,
0001
0110
1000
0011
,
0100
1100
0001
0110
,
1000
1001
0020
0230
,
1300
0011
0100
1001
,
0010
0110
2000
3020
,
0130
1010
0001
0110
,
1000
0101
0010
1001
,
0100
1010
0001
0011
,
1000
1100
0001
0110
,
0000
0000
0000
0000
0000
0000
0000
0000
1000
0000
0010
0000
1000
0000
0000
0001
,
0000
0000
0010
0100
1000
0100
0010
0000
,
0002
2000
0000
0000
0000
0003
0010
0010
,
0000
0000
0000
0000
0000
0000
3000
0000
000M
00M0
0M00
M000
0000
0000
0000
0000
,
0001
1010
0001
0110
,
1000
0011
0100
0011
,
2000
0000
3002
0000
0203
0000
0010
0010
,
0000
0300
0000
0000
0010
1000
0100
0000
,
0020
0000
0002
0030
0203
0000
0010
0010
,
0300
0000
0000
0001
1000
0001
0100
0000
,
0001
0000
0001
0000
,
0010
0000
0010
0000
,
0100
0011
0100
1001
,
0010
0101
M010
0101
,
1000
1100
0001
0101
,
1000
1010
0001
1010
,
0100
0110
0001
1001
,
0010
1100
0002
0023
,
0130
0110
1000
1001
,
0100
1100
0020
0032
,
0103
0110
0001
1010
,
0001
0101
1000
1010
,
0100
1001
0100
1010
,
0001
0000
0000
0000
0011
0000
0000
0000
1000
0000
0000
0000
1100
0000
0000
0002
,
0000
0000
0000
0000
0003
0000
0000
0000
0010
0000
0001
0000
0010
0000
0000
0100
,
0000
0000
0100
1000
0100
0010
0001
0000
,
1000
0020
0000
0000
0000
0000
0100
0100
,
0030
0000
0000
0000
0000
0000
0000
0000
000M
00M0
0M00
M000
0000
0000
0000
0000
,
0001
0101
0010
0011
,
0100
0000
1000
0000
0010
0001
0100
0000
,
2000
0000
3002
0000
0203
0000
0010
0010
,
0000
0000
0000
03M1
0000
0000
0000
0000
,
1000
1100
0001
0110
,
1000
0101
0020
0230
,
0301
0101
1000
0101
,
0010
1001
0100
0110
,
0001
0011
1000
1010
,
0100
0000
0101
0000
1000
0010
0100
0000
,
0020
0000
2000
0030
3200
0000
0010
0010
,
0300
0000
0000
0000
1000
0010
0100
0000
,
0002
0000
0023
0000
0230
0000
1000
1000
,
0300
0000
0000
0001
0010
0001
0200
0000
,
0301
0010
1000
0010
,
0100
0001
1000
1000
,
0001
0010
1000
0100
,
0001
0100
0010
0010
,
0001
0010
0100
1000
,
0010
0000
0010
0000
0100
0000
0001
1000
,
0200
0000
0320
0000
,
0032
0000
0000
0000
0013
0001
0010
0000
,
0012
0000
0000
0000
0000
0000
0000
0000
0000
0000
0000
0000
0000
0000
0000
0000
0000
0000
0000
0000
0000
0000
0000
0000
0000
0000
0000
0000
0000
0000
0000
0000
0000
0000
0000
0000
0000
0000
0000
0000
0000
0000
0000
0000
0000
0000
0000
0000
2003
0000
0000
0000
0000
0000
0000
0000
0000
0000
0000
0000
0000
0000
0000
0000
0000
0000
0000
0000
0000
0000
0000
0000
0000
0000
0000
0000
0000
0000
0000
0000
0000
0000
0000
0000
0000
0000
0000
0000
0000
0000
0000
0000
0000
0000
0000
0000
3200
0000
0000
0000
0000
0000
0000
0000
0000
0000
0000
0000
0000
0000
0000
0000
0000
0000
0000
0000
0000
0000
0000
0000
0000
0000
0000
0000
0000
0000
0000
0000
0000
0000
0000
0000
0000
0000
0000
0000
0000
0000
0000
0000
0000
0000
0300
0000
0001
0000
0000
0000
0000
0000
0000
0000
0000
0000
0000
0000
0000
0000
0000
0000
0000
0000
0000
0000
0000
0000
0000
0000
0000
0000
0000
0000
0000
0000
0000
0000
0000
0000
0000
0000
0000
0000
0000
0000
0000
0000
0000
0000
0000
0000
0000
0000
,
0101
1000
0101
0010
,
0110
0001
0011
1000
,
1010
0000
0100
0001
0010
0000
0002
0000
,
0203
0000
0320
0000
1000
1000
0000
0030
,
0000
M110
0000
0000
0000
0000
0001
0000
,
1100
0001
0110
1000
,
1010
0002
0023
0130
,
1100
0001
0101
1000
,
0110
1000
1001
0100
,
1010
0001
0011
0100
,
1100
0000
0001
0010
0001
0000
0002
0000
,
0023
0000
0230
0000
0001
0001
0000
0300
,
0000
1000
0010
0100
0010
0000
0020
0000
,
2030
0000
3200
0000
0010
0010
0000
0300
,
0000
1000
0001
0010
0100
0000
00M0
0000
;

//---------------dance-single - nvwls300----------------
#NOTES:
     dance-single:
     nvwls300:
     Easy:
     2:
     0.139,0.159,0.005,0.139,0.000:
0000
0000
0000
0000
,
0001
0000
1000
0000
,
0100
0000
0010
0000
,
1000
0000
0001
0000
,
1000
0000
0100
0000
,
0010
0000
0100
0000
,
0001
0000
1000
0000
,
0100
0000
0001
0000
,
1000
0000
0020
0230
,
0301
0000
1000
0000
,
0100
0000
0020
0032
,
0103
0000
1000
0000
,
0100
0000
0010
0000
,
0100
0000
0001
0000
,
1000
0000
0001
0000
,
0010
0000
0100
0100
,
1000
0000
0001
0001
,
0200
0000
0000
0000
0000
0000
0000
0310
,
0000
0000
0000
0000
,
0001
0000
0010
0000
,
0100
0000
0001
0000
,
2000
0000
0000
0000
0000
0000
0000
3010
,
0000
0000
0001
0000
,
0020
0000
0000
0000
0000
0000
0000
0130
,
0000
0000
1000
0000
,
0001
0000
0001
0000
,
0010
0000
0010
0000
,
0100
0000
1000
0000
,
0000
0001
1000
0000
,
0100
0000
0010
0000
,
0100
0000
1000
0000
,
0100
0000
0001
0000
,
0100
0000
0002
0023
,
0130
0000
1000
0000
,
0100
0000
0020
0230
,
1300
0000
0001
0000
,
0100
0000
0010
0000
,
0100
0000
1000
0000
,
0001
0000
1000
0000
,
0001
0000
0010
0000
,
0100
0000
0010
0001
,
0020
0000
0000
0000
0000
0000
0000
0130
,
0000
0000
0000
0000
,
0001
0000
0010
0000
,
0001
0000
1000
0000
,
0020
0000
0000
0000
0000
0000
0000
0130
,
0000
0000
0000
0000
,
0001
0000
0010
0000
,
0100
0000
0020
0230
,
1300
0000
1000
0000
,
0010
0000
0010
0000
,
0100
0000
0001
0000
,
0100
0000
1000
0000
,
0002
0000
0000
0000
0000
0000
0000
1003
,
0000
0000
0010
0000
,
0200
0000
0000
0000
0000
0000
0000
0301
,
0000
0000
0010
0000
,
0100
0000
1000
0000
,
0010
0000
0100
0000
,
0001
0000
0010
0000
,
0100
0000
1000
0000
,
0010
0000
0100
0000
,
0001
0000
0010
0000
,
0200
0000
0320
0000
,
0032
0000
0013
0010
,
0020
0000
0000
0000
0000
0000
0000
0000
0000
0000
0000
0000
0000
0000
0000
0000
0000
0000
0000
0000
0000
0000
0000
0000
0000
0000
0000
0000
0000
0000
0000
0000
0000
0000
0000
0000
0000
0000
0000
0000
0000
0000
0000
0000
0000
0000
0000
0000
0000
0000
0000
0000
0000
0000
0000
0000
0000
0000
0000
0000
0000
0000
0000
0000
0000
0000
0000
0000
0000
0000
0000
0000
0000
0000
0000
0000
0000
0000
0000
0000
0000
0000
0000
0000
0000
0000
0000
0000
0000
0000
0000
0000
0000
0000
0000
0000
0000
0000
0000
0000
0000
0000
0000
0000
0000
0000
0000
0000
0000
0000
0000
0000
0000
0000
0000
0000
0000
0000
0000
0000
0000
0000
0000
0000
0000
0000
0000
0000
0000
0000
0000
0000
0000
0000
0000
0000
0000
0000
0000
0000
0000
0000
0030
0000
0100
0000
0000
0000
0000
0000
0000
0000
0000
0000
0000
0000
0000
0000
0000
0000
0000
0000
0000
0000
0000
0000
0000
0000
0000
0000
0000
0000
0000
0000
0000
0000
0000
0000
0000
0000
0000
0000
0000
0000
0000
0000
0000
0000
0000
0000
0000
0000
,
0000
1000
0000
0010
,
0000
0010
0000
0100
,
0000
0010
0000
0002
,
0000
0000
0000
0000
0000
0103
0000
0000
,
0000
0000
0000
1000
,
0000
0010
0000
0100
,
0000
0002
0023
0130
,
0000
1000
0000
0001
,
0000
1000
0000
0010
,
0000
0100
0000
0010
,
0000
0001
0000
0002
,
0000
0000
0000
0000
0000
0013
0000
0000
,
0000
1000
0000
2000
,
0000
0000
0000
0000
0000
3100
0000
0000
,
0000
1001
0000
0000
,
0000
0000
0000
0000
,
0000
0000
0000
0000
,
0000
0000
0000
0000
,
0000
0000
0000
0000
,
M00M
0000
0000
0000
;
