#TITLE:God Wants You to Wear a Hat;
#SUBTITLE:;
#ARTIST:The Whitest Kids You Know;
#TITLETRANSLIT:;
#SUBTITLETRANSLIT:;
#ARTISTTRANSLIT:;
#GENRE:;
#CREDIT:;
#BANNER:God Wants You to Wear a Hat-bn.png;
#BACKGROUND:God Wants You to Wear a Hat-bg.png;
#LYRICSPATH:;
#CDTITLE:;
#MUSIC:God Wants You to Wear a Hat.mp3;
#OFFSET:0.836;
#SAMPLESTART:0.401;
#SAMPLELENGTH:12.000;
#SELECTABLE:YES;
#BPMS:0.000=110.000;
#STOPS:;
#SCROLLS:0.000=1.000;
#TIMESIGNATURES:0.000=4=4;
#BGCHANGES:0.000=God Wants You to Wear a Hat-bg.png=1.000=0=0=0=StretchNoLoop====,
1.875=God Wants You to Wear a Hat.avi=1.000=0=0=1=====,
99999=-nosongbg-=1.000=0=0=0 // don't automatically add -songbackground-
;
#KEYSOUNDS:;

//---------------dance-single - Geriatric Patrick----------------
#NOTES:
     dance-single:
     Geriatric Patrick:
     Hard:
     8:
     0.595,0.671,0.255,0.091,0.651:
0000
0000
0000
0000
,
0000
0001
0100
0001
0100
0001
0000
1000
0001
1000
0001
1000
0000
0010
0100
0010
,
0100
0010
0000
1000
0010
1000
0010
1000
0000
0001
0100
0001
2000
0000
0000
0000
,
3000
0001
0100
0001
0100
0001
0000
0010
0100
0010
0100
0010
0000
0001
0100
0001
,
0100
0001
0000
1000
0100
1000
0100
1000
0000
0001
0100
0001
0020
0000
0000
0000
,
0030
1000
0100
1000
0100
1000
0000
0001
1000
0001
1000
0001
0000
0010
0100
0010
,
0100
0010
0000
0001
0010
0001
0010
0001
0000
1000
0100
1000
0002
0000
0000
0000
,
0003
1000
0100
1000
0100
1000
0000
0010
0100
0010
0100
0010
0000
1000
0100
1000
,
0100
1000
0000
0001
0100
0001
0100
0001
0000
1000
0100
1000
0020
0000
0000
0000
,
0030
0001
0100
0000
1000
0010
0000
0001
,
0010
0000
0100
0000
1000
0000
1000
0002
0000
0000
0000
0000
0000
0000
0000
0003
,
0000
1000
0010
0000
0001
0010
0000
1000
,
0010
0000
0100
0000
0010
0000
0001
2000
0000
0000
0000
0000
0000
0000
0000
3000
,
0000
0001
0100
0000
0001
0010
0000
1000
,
0100
0000
1000
0000
0010
0000
0100
0002
0000
0000
0000
0000
0000
0000
0000
0003
,
0000
1000
0100
0000
0001
0010
0000
0001
,
0100
0000
0001
0000
1000
0000
0100
0020
0000
0000
0000
0000
0000
0000
0000
0030
,
0110
0110
1100
1100
1001
1001
0101
0000
,
1010
1010
0110
0110
1001
1001
0101
0000
,
0011
0011
0101
0101
1010
1010
0110
0100
,
0001
0000
0001
0000
1000
0000
0100
0000
0010
0000
0100
1000
0000
1000
0100
0000
,
0000
0001
0100
0001
0100
0001
0000
1000
0001
1000
0001
1000
0000
0001
0010
0001
,
0010
0001
0000
1000
0100
1000
0100
1000
0000
0001
0100
0001
0020
0000
0000
0000
,
0030
0001
0100
0001
0100
0001
0000
0010
0100
0010
0100
0010
0000
0001
1000
0001
,
1000
0001
0000
0010
0100
0010
0100
0010
0000
0001
0100
0001
2000
0000
0001
0000
,
3001
0000
0100
0000
0001
0000
1000
0000
0001
0000
0100
0001
0000
0001
0100
0000
,
0001
0000
1000
0000
1000
0000
0001
0000
1000
0000
1000
0001
0000
0000
0010
0000
,
0001
0000
1000
0000
0100
0000
0100
0000
1000
0000
1000
0001
0000
0001
0100
0000
,
0001
0000
1000
0000
0001
0000
1000
0010
0000
0010
0100
0010
0000
0000
0010
0000
,
1000
0000
0100
0000
0001
0000
0100
0000
1000
0000
0001
0100
0000
0000
0001
1000
,
0000
1000
0100
0000
1000
0000
0001
0000
0100
0000
0000
0100
0000
0000
0100
0010
,
0000
0100
0001
0000
1000
0000
0100
0000
0100
0000
0000
1000
0000
0000
0100
0010
,
0000
0010
0001
0000
1000
0000
1000
0000
0010
0000
1000
0000
0001
0000
0000
0001
,
0010
0000
0001
0000
0100
0000
0001
0000
1000
0000
1000
0100
0000
0000
0000
0100
,
0000
0100
1000
0000
0001
0000
1000
0000
0001
0100
0000
0001
0000
0100
0010
0000
,
1000
0000
0100
0000
1000
0000
0001
0000
0100
0000
0000
0100
0000
0010
0000
0010
,
1000
1000
0001
0001
1000
0100
1000
0000
,
0011
0001
0100
0000
1010
1000
0100
0000
,
0011
0000
0001
0000
0100
0000
0001
0010
0000
0010
0001
0000
1000
0000
0000
0000
,
1010
1000
0100
0000
0011
0001
0100
0000
,
0010
1000
0010
0100
0001
0001
0100
0000
,
1001
0000
0000
0000
0000
M000
0000
0M00
0000
0000
000M
0000
0000
0000
0000
0000
1001
0000
0000
0000
0000
000M
0000
00M0
0000
0000
M000
0000
0001
0000
0000
0000
,
0010
0000
0100
0000
0010
0000
0100
0000
1000
0000
1000
0001
0000
0001
0100
0000
,
0000
0000
0001
0010
0000
0001
0100
0000
0001
0010
0000
0001
0100
0000
0000
0000
,
0000
0000
1000
0010
0000
1000
0100
0000
1000
0010
0000
1000
0100
0000
0000
0000
,
0000
0000
0001
0010
0000
0001
0100
0000
0001
0010
0000
0001
0100
0000
0010
0000
,
1000
0000
1000
0000
0001
0000
0010
0000
0100
0000
1000
0010
0000
0000
1000
0000
,
0001
0010
0100
0001
0100
0010
0001
0000
,
0001
0010
1000
0001
1000
0010
0001
0000
,
1000
0000
0010
0000
0001
0000
0100
0000
0001
0000
0010
0000
1000
0000
0001
0100
,
0001
0000
1000
0000
0010
0000
0010
0000
1000
0000
0001
0010
0000
0010
0100
0000
;

//---------------dance-single - Geriatric Patrick----------------
#NOTES:
     dance-single:
     Geriatric Patrick:
     Challenge:
     9:
     0.725,0.694,0.291,0.091,1.000:
0000
0000
0000
0000
,
0000
1000
0100
1000
0100
1000
0000
0001
1000
0001
0010
0001
0000
0010
0100
0010
,
0100
0010
0000
0001
1000
0001
1000
0001
0000
0100
0001
0100
0020
0000
0000
0000
,
0030
0100
0001
0100
0001
0100
0000
1000
0001
1000
0010
1000
0000
0100
0010
0100
,
0010
0100
0000
1000
0001
1000
0001
1000
0000
0100
1000
0100
0020
0000
0000
0000
,
0030
1000
0100
1000
0001
0100
0000
0001
0100
0001
0010
0100
0000
0001
0100
0001
,
1000
0100
0000
1000
0001
1000
0100
0010
0000
0100
0001
0100
2000
0000
0000
0000
,
3000
0001
0100
0001
1000
0100
0000
1000
0100
1000
0010
0100
0000
1000
0100
1000
,
0001
0100
0000
0001
1000
0001
0100
0010
0000
0100
0001
0100
2000
0000
0000
0000
,
3000
0000
0001
0100
0001
1000
0000
1000
0100
1000
0001
0010
0000
0001
1000
0001
,
0010
0100
1000
0100
0010
0000
1000
0002
0000
0000
0000
0000
0000
0000
0000
0003
,
0000
0000
0100
1000
0001
1000
0000
0010
0100
0010
1000
0010
0000
0000
0001
0100
,
0001
1000
0001
0100
0010
0000
0001
2000
0000
0000
0000
0000
0000
0000
0000
3000
,
0000
0010
1000
0010
0100
0001
0000
0000
0010
0100
0010
0001
0000
0000
0100
0001
,
1000
0001
0100
0010
1000
0000
0010
0002
0000
0000
0000
0000
0000
0000
0000
0003
,
0000
0100
0010
0100
0001
1000
0000
0100
0010
0100
1000
0001
0000
1000
0010
1000
,
0001
0100
0001
1000
0100
0000
0001
0020
0000
0000
0000
0000
0000
0000
0000
0030
,
0110
0110
1100
1100
1001
1001
0101
MMMM
,
1010
0101
0011
0101
1001
1001
1100
MMMM
,
0011
0000
1010
0000
0101
0000
0110
0000
1001
0000
0011
0000
1100
0000
0001
0100
,
0001
0000
1000
0010
0100
0000
1000
0000
1001
0000
0001
0010
0000
0010
0100
0000
,
0000
1000
0100
1000
0001
0100
0000
0001
0100
0001
0010
0100
0000
0010
0001
0010
,
0100
1000
0000
0100
1000
0100
0010
1000
0000
0010
0100
0010
0002
0000
0000
0000
,
0003
0001
0100
0001
1000
0100
0000
1000
0100
1000
0010
0100
0000
0010
1000
0010
,
0100
0001
0000
0100
1000
0100
0010
1000
0000
0010
0100
0010
0002
0000
0010
0013
,
0001
1000
0001
0000
1000
0100
1000
0000
0001
0100
0001
1000
0000
1000
0100
1000
,
0001
0000
0001
1000
0100
1000
0100
1000
0001
0000
1000
0100
0000
0000
0010
0000
,
1001
0000
0001
0000
0100
0000
0100
0000
0001
1000
0001
0100
0000
0100
1000
0001
,
0100
0001
1000
0000
0001
0000
0100
0010
0000
0010
0100
0010
0000
0000
0001
0000
,
0010
0100
1000
0100
1000
0001
1000
0001
0100
0000
0100
1000
0000
0000
0001
0100
,
0000
0100
1000
0001
0100
0001
1000
0001
0100
0001
0100
1000
0000
0000
0100
0010
,
0000
0100
1000
0100
0001
0000
1000
0100
0001
0100
1000
0001
0000
0000
1000
0010
,
0000
0010
0100
0000
0010
0000
1000
0000
0010
0000
0010
0000
0010
0000
0000
0001
,
1000
0000
0001
0100
0001
0000
0100
0001
1000
0001
1000
0100
0000
1000
0001
1000
,
0000
0100
0100
0001
1000
0001
0100
0001
1000
0100
0000
0100
0000
0001
0010
0000
,
0100
1000
0100
1000
0001
1000
0100
0100
0001
1000
0001
1000
0000
0010
0000
0010
,
0100
0001
0100
0001
0010
0001
0010
0001
1000
0000
0001
1000
0100
0000
0000
0000
,
0011
0000
0001
0100
0001
0000
0000
0000
1010
0000
1000
0100
1000
0000
0000
0000
,
0011
0000
0001
0100
0001
0000
0100
0010
0000
0001
0010
0001
1000
0000
0000
0000
,
0110
0000
0001
1000
0001
0000
0000
0000
0110
0000
1000
0001
1000
0000
0000
0001
,
0010
0001
1000
0001
0010
0001
1000
0100
0010
0000
1000
0001
0100
0000
0000
0000
,
1001
0000
0000
0000
0000
M000
0000
0M00
0000
0000
000M
0000
0000
0000
0000
0000
1001
0000
0000
0000
0000
000M
0000
00M0
0000
0000
M000
0000
0001
0000
0000
0000
,
0010
0000
0100
0000
0010
0000
0010
0000
1000
0000
1000
0001
0000
0001
0100
0000
,
0000
0000
0001
0010
0000
0001
0100
0000
0001
0010
0000
0001
0100
0000
0000
0000
,
0000
0000
1000
0010
0000
1000
0100
0000
0010
0001
0000
1000
0100
0000
0000
0000
,
0000
0000
0001
0100
0000
0001
0010
0000
0001
0100
0000
0010
1000
0000
0001
0010
,
0001
0000
1000
0100
0010
0000
1000
0000
1001
0000
0001
0100
0000
0100
0010
0000
,
MMM1
MM1M
M1MM
MMM1
M1MM
MM1M
MMM1
0000
,
MMM1
MM1M
1MMM
MMM1
1MMM
MM1M
MMM1
0000
,
1MMM
0000
MM1M
0000
MMM1
0000
M1MM
0000
MMM1
0000
MM1M
0000
1MMM
0000
0001
0100
,
0001
0000
1000
0100
0010
0000
1000
0000
1001
0000
0001
0010
0000
0010
0100
0000
;

//---------------dance-single - Geriatric Patrick----------------
#NOTES:
     dance-single:
     Geriatric Patrick:
     Medium:
     7:
     0.391,0.347,0.064,0.091,0.136:
0000
0000
0000
0000
,
0000
0001
0100
0000
1000
0010
0000
0001
,
0100
0000
1000
0100
0000
1000
0002
0000
,
0003
1000
0100
0000
0001
0010
0000
1000
,
0100
0000
0001
0100
0000
0001
2000
0000
,
3000
0001
0100
0000
1000
0010
0000
0001
,
0100
0000
1000
0100
0000
1000
0002
0000
,
0003
1000
0100
0000
0001
0010
0000
1000
,
0100
0000
0001
0100
0000
1000
0002
0000
,
0003
0001
0100
0000
1000
0010
0000
0001
,
0010
0000
0100
0000
1000
0000
0000
0002
0000
0000
0000
0000
0000
0000
0000
0003
,
0000
1000
0010
0000
0001
0010
0000
1000
,
0010
0000
0100
0000
0010
0000
0000
2000
0000
0000
0000
0000
0000
0000
0000
3000
,
0000
0001
0100
0000
0001
0010
0000
1000
,
0100
0000
1000
0000
0010
0000
0000
0002
0000
0000
0000
0000
0000
0000
0000
0003
,
0000
1000
0100
0000
0001
0010
0000
0001
,
0100
0000
0001
0000
1000
0000
0000
0020
0000
0000
0000
0000
0000
0000
0000
0030
,
MMM1
0001
0010
0010
0100
0100
1000
0000
,
MM1M
0010
1000
1000
0001
0001
0100
0000
,
MMM1
0001
0010
0010
0100
0100
1000
1000
,
0001
0000
0100
0000
0001
0000
0100
0000
0010
0000
0000
1000
0000
0000
1000
0000
,
0000
0001
0100
0000
1000
0010
0000
0001
,
0100
0000
1000
0100
0000
1000
0002
0000
,
0003
1000
0100
0000
0001
0010
0000
1000
,
0100
0000
0001
0100
0000
0001
2000
0000
,
3001
0000
0100
0000
0001
0000
1000
0000
0001
0000
0000
0001
0000
0000
0100
0000
,
0001
0000
1000
0000
1000
0000
0001
0000
1000
0000
0000
1000
0000
0000
0010
0000
,
1000
0000
0100
0000
1000
0000
0001
0000
0100
0000
0000
0100
0000
0000
0001
0000
,
1000
0000
0001
0000
0100
0000
0000
0010
0000
0000
0000
0010
0000
0000
0010
0000
,
1000
0000
0100
0000
1000
0000
1000
0000
0001
0000
0000
0001
0000
0000
0000
0100
,
0000
0000
0001
0000
1000
0000
0001
0000
0100
0000
0000
0100
0000
0000
0000
0010
,
0000
0000
1000
0000
0100
0000
1000
0000
1000
0000
0000
0100
0000
0000
0000
0010
,
0000
0010
0001
0001
0010
0100
0010
0000
,
1000
0000
0001
0000
0100
0000
0001
0000
1000
0000
0000
1000
0000
0000
0000
0100
,
0000
0000
1000
0000
0001
0000
0100
0000
0001
0000
0000
0100
0000
0000
0010
0000
,
1000
0000
0100
0000
1000
0000
0001
0000
0100
0000
0000
0100
0000
0000
0000
0000
,
1000
1000
0001
0001
1000
0100
1000
0000
,
0011
0100
0011
0100
,
0011
0000
0000
0000
0100
0000
0000
0010
0000
0000
0010
0000
0100
0000
0000
0000
,
1001
0100
1001
0100
,
1000
0010
1000
0001
0100
0001
0100
0000
,
1010
0000
0100
0000
1010
0000
0100
0001
,
0010
0000
0100
0000
0010
0000
0100
0000
1000
0000
0000
0001
0000
0000
0001
0000
,
0000
0000
0010
0000
0000
0010
0000
0000
0010
0000
0000
0010
0000
0000
0000
0000
,
0000
0000
0010
0000
0000
0010
0000
0000
0010
0000
0000
0010
0000
0000
0000
0000
,
0000
0000
0010
0000
0000
0010
0000
0000
0010
0000
0000
0010
0000
0000
0100
0000
,
1000
0000
1000
0000
0001
0000
0010
0000
0100
0000
0000
0010
0000
0000
0010
0000
,
0100
0100
0100
0100
0100
0100
M1MM
0000
,
0100
0100
0100
0100
0100
0100
M1MM
0000
,
0010
0010
0010
0010
0010
0010
0010
0001
,
1000
0000
1000
0000
0001
0000
0001
0000
0100
0000
0000
0010
0000
0000
0010
0000
;

//---------------dance-single - Geriatric Patrick----------------
#NOTES:
     dance-single:
     Geriatric Patrick:
     Easy:
     4:
     0.260,0.185,0.000,0.000,0.000:
0000
0000
0000
0000
,
0100
1000
0010
0100
,
0010
0100
1000
0001
,
1000
0100
1000
0010
,
1000
0010
0100
1000
,
0100
1000
0001
0010
,
1000
0100
1000
0010
,
0001
1000
0001
0100
,
1000
0100
0001
0100
,
1000
0010
1000
0010
,
0100
0010
0100
0010
,
1000
0010
0100
1000
,
0010
0001
1000
0010
,
1000
0100
1000
0001
,
0010
0100
1000
0010
,
0001
1000
0010
0100
,
1000
0010
0001
1000
,
0100
1000
0010
1000
,
0010
0100
1000
0100
,
1000
0010
0001
1000
,
0100
0001
1000
0010
,
0100
1000
0100
1000
,
0010
0100
1000
0010
,
1000
0100
1000
0100
,
0001
1000
0010
0001
,
0100
1000
0010
0100
,
1000
0010
1000
0010
,
0001
1000
0010
1000
,
0100
1000
0010
0100
,
0001
1000
0010
1000
,
0010
0001
1000
0010
,
1000
0010
1000
0100
,
1000
0001
0010
1000
,
0100
1000
0010
0100
,
0010
0001
1000
0100
,
1000
0100
1000
0001
,
1000
0010
0001
0100
,
1000
0010
0100
1000
,
0100
0010
0001
0100
,
1000
0100
1000
0001
,
1000
0100
1000
0100
,
1000
0100
0010
0100
,
0001
0100
1000
0010
,
1000
0010
0100
0001
,
0100
0010
1000
0100
,
0001
1000
0100
1000
,
0010
1000
0100
1000
,
0010
0001
0100
1000
,
0100
0010
1000
0010
,
0100
0010
0100
1000
,
0100
1000
0100
0010
;

//---------------dance-single - Geriatric Patrick----------------
#NOTES:
     dance-single:
     Geriatric Patrick:
     Beginner:
     2:
     0.131,0.092,0.000,0.000,0.000:
0000
0000
0000
0000
,
1000
0001
0000
0001
,
0000
0001
0000
0001
,
0000
0010
0000
0010
,
0000
0010
0000
0010
,
0000
1000
0000
1000
,
0000
1000
0000
1000
,
0000
0010
0000
0010
,
0000
0010
0000
0010
,
0000
0100
0000
0100
,
0000
1000
0000
1000
,
0000
0010
0000
0010
,
0000
0100
0000
0100
,
0000
1000
0000
1000
,
0000
0100
0000
0100
,
0000
0010
0000
0010
,
0000
1000
0000
1000
,
0000
0001
0000
0001
,
0000
0100
0000
0100
,
0000
0001
0000
0001
,
0000
1000
0000
1000
,
0000
0010
0000
0010
,
0000
0001
0000
0001
,
0000
0100
0000
0100
,
0000
1000
0000
1000
,
0000
0010
0000
0010
,
0000
0001
0000
0001
,
0000
0100
0000
0100
,
0000
1000
0000
1000
,
0000
0010
0000
0010
,
0000
0100
0000
0100
,
0000
1000
0000
1000
,
0000
0010
0000
0010
,
0000
0001
0000
0001
,
0000
1000
0000
1000
,
0000
0001
0000
0001
,
0000
1000
0000
1000
,
0000
0100
0000
0100
,
0000
1000
0000
1000
,
0000
0010
0000
0010
,
0000
1000
0000
1000
,
0000
0010
0000
0010
,
0000
0001
0000
0001
,
0000
1000
0000
1000
,
0000
0100
0000
0100
,
0000
1000
0000
1000
,
0000
0001
0000
0001
,
0000
1000
0000
1000
,
0000
0001
0000
0001
,
0000
0100
0000
0100
,
0000
1000
0000
1000
;
