#TITLE:Fortress;
#SUBTITLE:(short version);
#ARTIST:Pinback;
#TITLETRANSLIT:;
#SUBTITLETRANSLIT:;
#ARTISTTRANSLIT:;
#GENRE:;
#CREDIT:;
#BANNER:Fortress-bn.png;
#BACKGROUND:Fortress-alt-bg.png;
#LYRICSPATH:;
#CDTITLE:cdtitle.png;
#MUSIC:Fortress.ogg;
#OFFSET:-1.030;
#SAMPLESTART:25.360;
#SAMPLELENGTH:18.360;
#SELECTABLE:YES;
#BPMS:0.000=118.250;
#STOPS:;
#BGCHANGES:16.000=Fortress-bg.png=1.000=1=0=1===CrossFade==,
207.000=Fortress-alt-bg.png=1.000=1=0=1===CrossFade==,
99999=-nosongbg-=1.000=0=0=0 // don't automatically add -songbackground-
;
#KEYSOUNDS:;

//---------------dance-single - nvwls300----------------
#NOTES:
     dance-single:
     nvwls300:
     Hard:
     7:
     0.429,0.390,0.327,0.000,0.027:
0000
0000
0000
0000
,
0000
0000
0000
0000
,
0100
0000
1001
0000
0000
0001
1001
0000
,
0100
0000
0000
0000
1001
0000
0000
0000
0000
0001
1000
0000
0001
0000
0000
0000
,
0100
0000
0011
0000
0000
1000
0010
0000
,
0100
0000
0000
0000
1010
0000
0000
0000
0000
0010
0100
0000
0010
0000
0000
0000
,
0001
0000
1010
0000
0000
0100
0010
0000
,
0100
0000
0000
0000
1001
0000
0000
0000
0000
0001
0100
0000
0010
0000
0000
0000
,
0001
0000
1010
0000
0000
0001
0010
0000
,
0100
0000
0000
0000
0011
0000
0000
0000
0000
0010
0100
0000
0010
0000
0000
0000
,
1000
0000
0011
0000
0000
0100
0010
0000
,
0100
0000
0000
0000
1001
0000
0000
0000
0000
1000
0100
0000
0010
0000
0000
0000
,
1000
0000
0001
0010
0100
0000
0110
0000
,
0001
0000
1000
0001
0100
0000
0101
0000
,
1000
0000
0100
0010
0001
0000
1001
0000
,
0010
0000
0100
1000
0001
0000
0101
0000
,
1000
0000
1000
0010
0100
0000
1001
0000
,
0010
0000
0010
1000
0100
0000
0011
0000
,
1000
0000
1000
0100
0010
0000
1010
0000
,
0001
0000
0001
0010
0100
0000
0101
0000
,
1000
0001
1000
0001
0100
0001
1000
0001
,
0100
0010
0100
0010
1000
0010
0100
0001
,
1000
0010
1000
0010
0100
0010
1000
0010
,
0100
0001
0100
0001
0010
0001
1000
0100
,
0010
0001
0010
0100
0010
1000
0010
0100
,
1000
0001
1000
0010
1000
0001
0100
1000
,
0100
0010
1000
0010
0001
0010
1000
0010
,
0100
0001
0100
0001
1000
0010
1000
0001
,
0100
0000
0001
1000
0001
0000
0011
0000
,
0100
0000
0010
0100
0001
0000
0101
0000
,
1000
0000
0100
0010
0001
0000
1001
0000
,
0010
0000
0100
1000
0100
0000
1100
0000
,
0001
0000
0100
0010
0001
0000
0011
0000
,
1000
0000
0010
0100
0010
0000
0110
0000
,
0001
0000
0010
0100
1000
0000
0101
0000
,
0010
0000
1000
0001
1000
0000
1001
0000
,
0000
0000
0110
0000
0000
0001
1000
0010
,
0000
1000
0100
1000
0001
0000
0010
1000
,
0000
0100
1000
0100
0010
0100
1000
0010
,
0000
0001
0100
0001
0010
0001
1000
0100
,
0000
0000
0110
0000
0000
1000
0010
0100
,
0000
1000
0100
1000
0100
0000
0001
0010
,
0000
0100
1000
0100
1000
0100
0010
1000
,
0000
0001
0010
0001
0010
0100
0001
0100
,
0000
0000
0011
0000
0000
1000
0100
0010
,
0000
1000
0001
0100
0001
0000
0011
0001
,
0000
1000
0100
0010
1000
0010
0100
1000
,
0000
0001
0100
1000
0100
0001
1000
1000
,
0000
0000
0011
0000
0000
1000
0010
0001
,
0000
0100
0001
0100
0001
0000
1010
1000
,
0000
0001
0010
0100
1000
0100
0010
1000
,
0000
0001
0010
0100
0001
0100
1000
1000
,
0100
0000
1010
0000
0000
0001
0011
0010
,
0100
0000
0000
0000
0110
0000
0000
0000
0000
0001
1000
0000
0001
0000
0000
0000
;

//---------------dance-single - nvwls300----------------
#NOTES:
     dance-single:
     nvwls300:
     Challenge:
     8:
     0.489,0.513,0.445,0.145,0.036:
0000
0000
0000
0000
,
0000
0000
0000
0000
,
1000
0100
0110
0010
0001
0100
0110
0010
,
1000
0000
0001
0000
0011
0000
0010
0000
0100
1000
0100
0000
0110
0000
0000
0000
,
1000
0001
0011
0001
0100
0010
1010
1000
,
0001
0000
0010
0000
0110
0000
0010
0000
0001
0010
0001
0000
1001
0000
0000
0001
,
0100
0001
0011
0010
0100
1000
1010
1000
,
0001
0000
0010
0000
0110
0000
0100
0000
1000
0001
0100
0000
0101
0000
0000
0000
,
1000
0100
0110
0100
1000
0001
0101
0001
,
0010
0000
0100
0000
0101
0000
0100
0000
1000
0100
1000
0000
0011
0000
0000
0010
,
0100
1000
1010
0010
0100
0001
1001
0001
,
0010
0000
0100
0000
1100
0000
1000
0000
0001
0010
0100
0000
0110
0000
0000
0000
,
1000
0000
0001
0010
0100
0M00
0110
0000
,
0001
0000
1000
0001
0100
0M00
0101
0000
,
1000
0000
0100
0010
0001
000M
1001
0000
,
0010
0000
0100
1000
0001
000M
0101
0000
,
1000
M000
1000
0010
0100
0000
1MM1
0000
,
0010
00M0
0010
1000
0100
0000
MM11
0000
,
1000
M000
1000
0100
0010
0000
1M1M
0000
,
0001
000M
0001
0010
0100
0000
M1M1
0000
,
1000
0001
1000
0001
0100
0001
1000
0001
,
0100
0010
0100
0010
0M01
0010
0100
0001
,
1000
0010
1000
0010
0100
0010
1000
0010
,
0100
0001
0100
0001
0010
0100
00M1
0100
,
0010
0001
0010
0100
0010
1000
0010
0100
,
1000
0001
1000
0010
0100
10M0
0M01
0010
,
0100
0010
1000
0010
0001
0010
1000
0010
,
0100
0001
1000
0100
M001
1M00
0001
0100
,
2000
0000
0000
0000
,
3020
0000
0000
0000
0000
0000
0230
2000
,
0000
0000
0000
0000
0000
0300
3200
0002
,
0000
0000
2000
3303
,
0202
0000
0000
0000
0000
0300
2003
0200
,
0000
0000
0000
0020
,
0032
0000
0000
0000
0003
0000
0302
0020
,
0200
0000
0000
3033
,
0300
0000
0110
0000
0000
0001
1000
1010
,
0000
1000
0100
1000
0001
0000
0011
0001
,
0000
0100
1000
0100
0010
0100
1000
0010
,
0000
0001
0100
0001
0010
0001
1001
1000
,
0000
0000
0110
0000
0000
1000
0010
0110
,
0000
1000
0100
1000
0100
0000
0011
0010
,
0000
0100
1000
0100
1000
0100
0010
1000
,
0000
0001
0010
0001
0010
0100
0101
0100
,
0000
0000
0011
0000
0000
1000
0100
0110
,
0000
1000
0001
0100
0001
0000
0011
0001
,
0000
1000
0100
0010
1000
0010
0100
1000
,
0000
0001
0100
1000
0100
0001
1100
1000
,
0000
0000
0011
0000
0000
1000
0010
0011
,
0000
0100
0001
0100
0001
0000
1010
1000
,
0000
0001
0010
0100
1000
0100
0010
1000
,
0000
0001
0010
0100
0001
0100
1100
1000
,
0100
0000
1010
0010
0100
0001
0010
0011
,
0100
0000
1000
0000
0110
0000
0100
0000
1000
0001
1000
0000
0011
0000
0000
0000
;
