#TITLE:Excitebike;
#SUBTITLE:;
#ARTIST:Nintendo;
#TITLETRANSLIT:;
#SUBTITLETRANSLIT:;
#ARTISTTRANSLIT:;
#GENRE:;
#CREDIT:;
#BANNER:Excite Bike-bn.png;
#BACKGROUND:Excite Bike-bg.png;
#LYRICSPATH:;
#CDTITLE:;
#MUSIC:Excite Bike.ogg;
#OFFSET:1.106;
#SAMPLESTART:0.401;
#SAMPLELENGTH:12.000;
#SELECTABLE:YES;
#BPMS:0.000=128.300;
#STOPS:;
#SCROLLS:0.000=1.000;
#TIMESIGNATURES:0.000=4=4;
#BGCHANGES:;
#KEYSOUNDS:;

//---------------dance-single - Geriatric Patrick----------------
#NOTES:
     dance-single:
     Geriatric Patrick:
     Hard:
     7:
     0.849,0.699,0.945,0.135,1.000:
0000
0000
0000
0000
0000
0000
0000
0000
0000
0000
0000
0000
0000
0100
1000
0000
,
1010
0000
0000
1001
0000
0100
0001
0000
0011
0000
0000
1001
0000
0001
0100
0000
,
0010
0000
0010
0000
0100
0001
0000
1001
0000
0000
0000
0000
0000
0000
0010
0000
,
1100
0000
1000
0001
1000
0010
1000
0001
0101
0000
0001
0010
0100
0010
0001
0010
,
0200
1000
0000
0010
0000
0001
0300
1000
0001
0000
0000
0000
0000
0000
0000
0000
;

//---------------dance-single - Geriatric Patrick----------------
#NOTES:
     dance-single:
     Geriatric Patrick:
     Challenge:
     9:
     1.000,0.820,1.000,0.000,1.000:
0000
0000
0000
0000
0000
0000
0000
0000
0000
0000
0000
0000
0000
1000
0001
0000
,
0011
0000
0010
0101
0000
0001
1000
0000
1010
0000
0001
1010
0000
0100
0001
0000
,
1001
0000
1100
0000
0101
0010
0000
1001
0000
0000
0001
0000
0000
0000
0001
0000
,
0101
0000
1000
0100
0010
0001
0100
0010
1001
0000
0100
1000
0010
0100
0001
0010
,
0101
1010
0000
1001
0000
0110
0000
0011
1100
0000
0000
0000
0000
0000
0000
0000
;

//---------------dance-single - Geriatric Patrick----------------
#NOTES:
     dance-single:
     Geriatric Patrick:
     Medium:
     5:
     0.424,0.304,0.000,0.000,0.270:
0000
0000
0000
0000
,
0001
1000
0000
1000
0001
1000
0000
1000
,
0010
0100
0010
1000
0010
0100
0010
1000
,
0100
0000
0010
0000
,
0001
1000
0000
0100
0000
0100
0000
1000
0001
0000
0000
0000
0000
0000
0000
0000
;

//---------------dance-single - Geriatric Patrick----------------
#NOTES:
     dance-single:
     Geriatric Patrick:
     Easy:
     2:
     0.309,0.243,0.810,0.000,0.000:
0000
0000
0000
0000
,
1001
0000
1001
0000
,
1000
0100
0010
0001
,
1001
0000
1001
0000
,
0110
0000
1001
0000
;

//---------------dance-single - Geriatric Patrick----------------
#NOTES:
     dance-single:
     Geriatric Patrick:
     Beginner:
     1:
     0.116,0.091,0.000,0.000,0.000:
0000
0000
0000
0000
,
0001
0000
0000
0000
,
0100
0000
0000
0000
,
1000
0000
0010
0000
,
1000
0000
0001
0000
;
