#TITLE:Dragostea Din Tei;
#SUBTITLE:;
#ARTIST:o-Zone;
#TITLETRANSLIT:;
#SUBTITLETRANSLIT:;
#ARTISTTRANSLIT:;
#GENRE:;
#CREDIT:;
#BANNER:Dragostea din tei.png;
#BACKGROUND:Dragostea din tei-bg.png;
#LYRICSPATH:;
#CDTITLE:darklinkTitle.png;
#MUSIC:Dragostea din tei.ogg;
#OFFSET:0.525;
#SAMPLESTART:53.754;
#SAMPLELENGTH:15.200;
#SELECTABLE:YES;
#BPMS:0.000=130.000,66.000=65.000,67.000=130.000;
#STOPS:66.000=0.923
,101.500=0.231
,102.000=0.231
;
#SCROLLS:0.000=1.000;
#TIMESIGNATURES:0.000=4=4;
#BGCHANGES:1.500=Numa Numa.avi=1.000=1=0=0=StretchNoLoop==CrossFade==,
176.000=Dragostea din tei-bg.png=1.000=1=0=1===CrossFade==,
234.250=Dragostea din tei-bg.png=1.000=0=0=1=====,
99999=-nosongbg-=1.000=0=0=0 // don't automatically add -songbackground-
;
#KEYSOUNDS:;

//---------------dance-single - Geriatric Patrick----------------
#NOTES:
     dance-single:
     Geriatric Patrick:
     Challenge:
     8:
     0.521,0.479,0.241,0.012,0.054:
0000
0000
0000
0000
,
0000
0000
0000
0000
,
0000
0000
0000
0000
,
1001
0010
0100
0000
,
1001
0010
0000
0010
,
1001
0001
0100
0001
0010
0001
0100
0001
,
1000
0010
0100
0010
0001
0010
0100
0010
,
1000
0001
0010
0100
0010
0001
1000
0010
,
1000
0001
0010
0100
0001
0100
0010
0001
,
1000
0010
0100
0010
1000
0001
0100
0001
,
0010
0100
0001
0100
1000
0010
0001
0010
,
1000
0100
0010
0000
1000
0000
0110
0000
,
1000
0000
0001
0010
0100
0000
0010
0001
0010
0001
0010
0000
0100
0000
0000
0000
,
1001
0001
0100
0000
1010
1000
0001
0000
,
1000
0000
0010
0000
1000
0100
0010
0001
0010
0000
0000
0000
0011
0000
0000
0000
,
1000
0010
0100
0001
0010
0100
1000
0100
,
0010
0000
0000
0000
0001
0000
0000
0000
0100
0000
0000
0000
1000
0000
0000
0000
0000
0000
0001
0000
0010
0001
0010
0001
0010
0000
0000
0000
0100
0000
0000
0000
,
1000
0020
0100
0000
0130
0000
0100
0001
,
0100
1000
0100
0010
0100
1000
0100
0000
,
0100
0010
1000
0010
0100
0000
0000
0001
,
0010
0001
1000
0010
0100
0010
1000
0000
,
0100
0010
0100
1000
0010
0100
0001
0010
,
0100
0010
0001
1000
0010
0100
0001
0010
,
0100
0001
0100
1000
0100
0001
0100
0010
,
0001
1000
1000
0010
0010
0100
0100
0001
,
0001
0100
0000
0010
0010
0001
0010
0001
,
0100
0000
1010
0000
0001
0010
0100
0010
,
0001
0000
1001
0000
0010
0000
0100
0010
,
1000
0110
0000
0110
,
1000
0000
1001
0000
0001
0010
0100
1000
,
0100
0000
1100
0000
1000
0010
1000
0001
,
0100
0000
0101
0000
0001
0010
0100
1000
,
0010
1000
0100
0000
1010
0000
0001
0010
,
0100
0000
0101
0000
0100
0010
0100
1000
,
0001
0000
1100
0000
1000
0001
0010
0100
,
1000
0000
0010
0100
1000
0000
0001
0010
,
0100
0110
1000
0110
,
1000
0010
0100
0001
0010
0100
0001
0100
,
1000
0001
0100
0001
0010
1000
0010
0100
,
1000
0001
0100
0001
0010
1000
0010
0100
,
0001
0100
1000
0000
0011
0000
1000
0010
,
1000
0001
0010
0100
1000
0100
0001
0100
,
1000
0100
0010
0001
0100
0001
0010
0100
,
0001
0000
0010
0100
1000
0000
0001
0010
,
0100
0001
0000
0000
0000
0000
0000
0000
;

//---------------dance-single - Geriatric Patrick----------------
#NOTES:
     dance-single:
     Geriatric Patrick:
     Hard:
     7:
     0.328,0.373,0.133,0.072,0.000:
0000
0000
0000
0000
,
0000
0000
0000
0000
,
0000
0000
0000
0000
,
0000
0000
0000
0000
,
1001
0000
0000
0000
0001
0100
0001
0020
,
0000
0000
0030
0000
0001
0100
0001
2000
,
0000
0000
3000
0000
0100
0010
0100
2000
,
0000
0000
3000
0000
0100
0010
0100
0001
,
0000
0001
0000
0000
1000
0100
1000
0020
,
0000
0000
0030
0000
1000
0100
1000
0002
,
0000
0000
0003
0000
0010
0100
0010
0002
,
0000
0000
0003
0000
0010
0100
0010
1000
,
0000
1000
0000
0000
0000
0000
0000
0000
,
0001
0010
0100
0000
0110
0000
1000
0010
,
0000
0000
0000
0000
0000
0000
1000
0001
,
0000
0000
0000
0000
0000
0000
0100
0010
,
0000
0100
0000
0001
0000
0000
0000
1000
,
0100
0010
0000
0010
0000
0010
0000
0001
,
0000
1000
0000
0010
0000
0100
0000
0000
,
0001
0010
0000
0001
0000
0000
0000
1000
,
0010
0100
0000
0100
0000
0000
0000
0000
,
1000
0001
0000
0000
0000
0000
0000
0010
,
0001
0100
0000
0000
0000
0000
0000
0000
,
0010
1000
0000
0001
0000
0000
0000
0001
,
0100
0001
0000
0010
0000
0010
0000
0100
,
0000
1000
0000
0000
0000
0001
0100
0001
,
1000
0000
0000
0000
0100
0100
0000
0010
,
0000
0000
0100
0000
0010
0000
0100
1000
,
0000
0000
1001
0000
0010
0000
0100
0010
,
0000
0000
0001
0000
0010
0001
0100
0001
,
1000
0000
1000
0000
0010
0100
0010
1000
,
0001
0000
0001
0000
1000
0010
1000
0001
,
0010
0100
1000
0000
0010
0000
0100
0010
,
0000
0000
1000
0000
0001
0010
0100
1000
,
0100
0000
1000
0000
0001
0000
1000
0010
,
0000
0000
0001
0010
0000
0000
0100
1000
,
0100
0110
0000
0110
,
0001
0000
0011
0000
1000
0010
0100
0010
,
1000
0000
1010
0000
1000
0001
0010
0100
,
1000
0000
1100
0000
0100
0010
0100
1000
,
0001
0010
0100
0000
0001
0000
1100
0000
,
0001
0000
1010
0000
0001
1000
0010
1000
,
0100
0000
1100
0000
0001
0000
0010
0100
,
0000
0000
0100
0010
0000
0000
1000
0010
,
0100
0001
0000
0000
0000
0000
0000
0000
;

//---------------dance-single - Geriatric Patrick----------------
#NOTES:
     dance-single:
     Geriatric Patrick:
     Medium:
     4:
     0.243,0.212,0.024,0.000,0.000:
0000
0000
0000
0000
,
0000
0000
0000
0000
,
0000
0000
0000
0000
,
0000
0000
0000
0000
,
1001
0000
0001
0001
,
0010
0100
1000
0010
,
0100
0001
0010
0001
,
1000
0100
0010
0001
,
1000
0010
0100
0010
,
1000
0100
0010
0001
,
0100
0010
1000
0100
,
1000
0010
0000
0010
,
0000
0100
0000
0100
,
0001
0010
0000
0010
,
0100
1000
0000
1000
,
0001
0100
0001
0100
,
0010
1000
0000
1000
,
0001
1000
0100
0010
,
0100
1000
0001
0010
,
0001
1000
0001
0000
,
0000
0010
0001
0100
,
0001
0010
0100
1000
,
0100
0010
0001
0100
,
0010
1000
0010
0100
,
0001
0010
0010
0100
,
0100
1000
0000
0000
,
1000
0100
0010
0001
,
0100
0000
0000
0000
,
1001
0000
0001
1000
,
0001
0100
0010
0010
,
1000
0000
0001
0001
,
0010
0000
0100
0100
,
0100
1000
0001
0100
,
0001
1000
0100
0010
,
0001
0000
1000
0010
,
1000
0100
1000
0010
,
1000
0001
0000
0001
,
1000
0100
0010
0010
,
0001
1000
0010
0010
,
0100
0001
0010
0010
,
0010
0001
1000
0010
,
1000
0001
0010
0100
,
1000
0000
1000
0010
,
0000
0010
0000
0010
,
0100
0000
0000
0000
;

//---------------dance-single - Geriatric Patrick----------------
#NOTES:
     dance-single:
     Geriatric Patrick:
     Easy:
     1:
     0.074,0.080,0.024,0.000,0.000:
0000
0000
0000
0000
,
0000
0000
0000
0000
,
0000
0000
0000
0000
,
0000
0000
0000
0000
,
1001
0000
0000
0000
,
0010
0000
0000
0000
,
0100
0000
0000
0000
,
0100
0000
0000
0000
,
0001
0000
0000
0000
,
0010
0000
0000
0000
,
0100
0000
0000
0000
,
0100
0000
0000
0000
,
1000
0000
0000
0000
,
0001
0000
0000
0000
,
0010
0000
0000
0000
,
0001
0000
0000
0000
,
1000
0000
0000
0000
,
0000
0010
0000
0000
,
0000
0100
0000
0000
,
0000
0001
0000
0000
,
0000
0001
0000
0000
,
0000
0010
0000
0000
,
0000
0100
0000
0000
,
0000
1000
0000
0000
,
0000
0001
0000
0000
,
0000
1000
0000
0000
,
0100
0000
0000
0000
,
0010
0000
0000
0000
,
0110
0000
0000
0000
,
0001
0000
0000
0000
,
0100
0000
0000
0000
,
0010
0000
0000
0000
,
0100
0000
0000
0000
,
1000
0000
0000
0000
,
0100
0000
0000
0000
,
0010
0000
0000
0000
,
0010
0000
0000
0000
,
1000
0000
0000
0000
,
0100
0000
0000
0000
,
0001
0000
0000
0000
,
0100
0000
0000
0000
,
1000
0000
0000
0000
,
0001
0000
0000
0000
,
0010
0000
0000
0000
,
0100
0000
0000
0000
;
