#TITLE:Daylight;
#SUBTITLE:;
#ARTIST:Matt and Kim;
#TITLETRANSLIT:;
#SUBTITLETRANSLIT:;
#ARTISTTRANSLIT:;
#GENRE:;
#CREDIT:;
#BANNER:Daylight-bn.png;
#BACKGROUND:daylight-bg.png;
#LYRICSPATH:;
#CDTITLE:;
#MUSIC:Daylight.ogg;
#OFFSET:1.710;
#SAMPLESTART:74.880;
#SAMPLELENGTH:12.000;
#SELECTABLE:YES;
#BPMS:0.000=103.330;
#STOPS:;
#SCROLLS:0.000=1.000;
#TIMESIGNATURES:0.000=4=4;
#BGCHANGES:3.333=Daylight.avi=1.000=0=0=0=StretchNoLoop====,
99999=-nosongbg-=1.000=0=0=0 // don't automatically add -songbackground-
;
#KEYSOUNDS:;

//---------------dance-single - Geriatric Patrick----------------
#NOTES:
     dance-single:
     Geriatric Patrick:
     Challenge:
     10:
     0.755,0.674,0.644,0.000,0.867:
0000
0000
0000
0000
,
0000
0000
0000
0000
,
0000
0000
0000
0000
,
0000
0000
0000
0000
,
0000
0000
0000
0000
,
0000
0000
0010
0000
1000
0100
0000
0010
0000
0100
0000
1000
0010
0000
0010
0000
,
0000
0000
1000
0000
0001
0100
0000
0010
0000
0100
0000
0001
0010
0000
0100
0000
,
0000
0000
0001
0000
1000
0100
0000
0010
0000
0001
0000
0010
0100
0000
1000
0000
,
0000
0000
0001
0000
0100
0010
0000
1000
0000
0010
0000
0100
0010
0000
0100
0000
,
0101
0000
0000
0100
0000
0010
1000
0000
0010
0100
0000
0010
1000
0000
0000
0100
0000
1000
0010
0000
1000
0001
0000
1000
,
0010
0000
0000
0100
0000
0001
1000
0000
0001
0010
0000
0001
1000
0000
0001
0100
0000
0001
1000
0000
0001
0010
0000
0010
,
0100
0000
0000
1000
0000
0001
0010
0000
0001
0100
0000
0001
0010
0000
0000
0100
0000
1000
0010
0000
1000
0100
0000
1000
,
0001
0000
0000
0100
0000
0001
1000
0000
0000
0100
0000
1000
0001
0000
0000
0100
0000
0001
0010
0000
0000
0000
0000
0000
,
0110
0000
0000
0001
0000
1000
0010
0000
1000
0001
0000
1000
0010
0000
0000
0100
0000
0001
0010
0000
0100
1000
0000
0100
,
0010
0000
0000
0100
0000
1000
0010
0000
1000
0010
0000
0100
0010
0000
0100
0010
0000
1000
0001
0000
1000
0001
0000
0001
,
0100
0000
0000
1000
0000
0010
0100
0000
0010
1000
0000
0010
0100
0000
0000
0001
0000
1000
0100
0000
0010
0001
0000
0010
,
0100
0000
0000
1000
0000
0100
0010
0000
0000
0001
0000
0010
0100
0000
0000
1000
0000
0100
0010
0000
0000
0000
0000
0000
,
1100
0000
0000
0001
0000
0100
0010
0000
0100
0001
0000
1000
0010
0000
0000
1000
0000
0100
0010
0000
0100
1000
0000
0001
,
0010
0000
0000
0100
0000
1000
0010
0000
1000
0100
0000
1000
0001
0000
1000
0001
0000
0100
0010
0000
0100
0010
0000
0010
,
0100
0000
0000
0001
0000
1000
0010
0000
1000
0100
0000
1000
0001
0000
0000
0100
0000
0010
1000
0000
0010
0100
0000
0010
,
1000
0000
0000
0100
0000
0010
0001
0000
0000
0100
0000
0010
1000
0000
0000
0100
0000
0010
0001
0000
0000
0000
0000
0000
,
1001
0000
0000
0010
0000
0100
1000
0000
0100
0010
0000
0001
0100
0000
0000
1000
0000
0010
0100
0000
0010
1000
0000
0100
,
0010
0000
0000
1000
0000
0001
0100
0000
0010
1000
0000
0100
0010
0000
0001
0100
0000
0001
1000
0000
0001
1000
0000
1000
,
0001
0000
0000
0100
0000
0001
1000
0000
0001
0010
0000
0001
1000
0000
0000
0100
0000
0010
0001
0000
1000
0100
0000
0010
,
0001
0000
0000
1000
0000
0010
0100
0000
0000
1000
0000
0001
0100
0000
0000
1000
0000
0010
0100
0000
0000
0000
0000
0000
,
0110
0000
0000
0001
0000
0001
1000
0000
1000
0010
0000
0010
0100
0000
0000
0001
0000
0001
0010
0000
0010
0100
0000
0100
,
1000
0000
0000
0001
0000
0001
0100
0000
0100
0010
0000
0010
1000
0000
1000
0100
0000
0100
0010
0000
0010
0001
0000
0010
,
0100
0000
0000
0010
0000
0010
0001
0000
0001
1000
0000
1000
0010
0000
0000
1000
0000
1000
0001
0000
0001
0100
0000
0100
,
0001
0000
0000
1000
0000
1000
0001
0000
0000
0010
0000
0010
0001
0000
0000
1000
0000
1000
0010
0000
0000
0000
0000
0000
,
1100
0000
0000
0010
0000
0010
0001
0000
0001
0010
0000
0010
0100
0000
0000
0001
0000
0001
1000
0000
1000
0010
0000
0010
,
0100
0000
0000
1000
0000
1000
0001
0000
0001
1000
0000
1000
0100
0000
0100
1000
0000
1000
0010
0000
0010
0100
0000
0010
,
1000
0000
0000
0001
0000
0001
0010
0000
0010
0001
0000
0001
0100
0000
0000
1000
0000
1000
0010
0000
0010
0100
0000
0100
,
0001
0000
0000
1000
0000
1000
0100
0000
0000
0001
0000
0001
0100
0000
0000
1000
0000
1000
0010
0000
0000
0000
0000
0000
,
1001
0000
0000
0010
0000
0100
0001
0000
0100
0010
0000
0100
0001
0000
0000
1000
0000
0010
0100
0000
0010
1000
0000
0001
,
0010
0000
0000
0100
0000
1000
0010
0000
1000
0100
0000
0010
1000
0000
0010
0100
0000
1000
0010
0000
0100
0001
0000
0001
,
0100
0000
0000
0010
0000
1000
0001
0000
1000
0001
0000
0010
1000
0000
0000
0010
0000
0001
1000
0000
0001
1000
0000
0100
,
0010
0000
0000
0100
0000
0100
0001
0000
0000
0100
0000
0100
1000
0000
0000
0100
0000
0010
1000
0000
0000
0000
0000
0000
,
1010
0000
0000
0100
0000
1000
0010
0000
1000
0100
0000
0010
0001
0000
0000
1000
0000
0010
0001
0000
0010
0100
0000
0010
,
0001
0000
0000
0100
0000
0001
0010
0000
0001
0010
0000
0100
0001
0000
0100
1000
0000
0100
0010
0000
0100
0010
0000
0010
,
0001
0000
0000
1000
0000
0010
0001
0000
0010
1000
0000
0010
0100
0000
0000
0001
0000
0100
0010
0000
0100
1000
0000
0100
,
0010
0000
0000
1000
0000
0010
0001
0000
0000
1000
0000
0100
0001
0000
0000
1000
0000
0010
0001
0000
0000
0000
0000
0000
,
1001
0000
0010
0000
0100
0001
0000
0010
0000
0001
0000
0100
0010
0000
0010
0000
,
0000
0000
1000
0000
0001
0100
0000
0010
0000
0100
0000
0001
0010
0000
0100
0000
,
0000
0000
0001
0000
1000
0100
0000
0001
0000
0100
0000
1000
0001
0000
1000
0000
,
0000
0000
0010
0000
0100
1000
0000
0001
0000
1000
0000
0100
0010
0000
0100
0000
,
0000
0000
1000
0000
0001
0100
0000
0010
0000
0100
0000
0001
1000
0000
1000
0000
,
0000
0000
0001
0000
0010
0100
0000
1000
0000
0100
0000
0000
0001
0000
1000
0000
,
0000
0000
0001
0000
0100
1000
0000
0010
0000
1000
0000
0100
0010
0000
0100
0000
,
0000
0000
1000
0000
0100
0001
0000
0010
0000
0001
0000
0100
0010
0000
0100
0000
,
0110
0000
0000
1000
0000
1000
0010
0000
0010
0100
0000
0100
0001
0000
0000
0100
0000
0100
1000
0000
1000
0100
0000
0100
,
0001
0000
0000
1000
0000
1000
0010
0000
0010
1000
0000
1000
0100
0000
0100
0010
0000
0010
1000
0000
1000
0010
0000
0100
,
1000
0000
0000
0001
0000
0001
0100
0000
0100
0010
0000
0010
0001
0000
0000
0010
0000
0010
1000
0000
1000
0001
0000
0001
,
0100
0000
0000
0001
0000
0001
0010
0000
0000
0100
0000
0100
0001
0000
0000
0100
0000
0100
0010
0000
0000
0000
0000
0000
,
1100
0000
0000
0100
0000
0100
0001
0000
0001
0100
0000
0100
0010
0000
0000
1000
0000
1000
0010
0000
0010
0100
0000
0100
,
1000
0000
0000
0001
0000
0001
0010
0000
0010
0100
0000
0100
0001
0000
0001
1000
0000
1000
0001
0000
0001
0100
0000
0010
,
0001
0000
0000
1000
0000
1000
0010
0000
0010
0001
0000
0001
0010
0000
0000
0100
0000
0100
1000
0000
1000
0100
0000
0100
,
0001
0000
0000
0100
0000
0010
0001
0000
0000
0010
0000
0100
1000
0000
0000
0001
0000
0010
0100
0000
0000
0000
0000
0000
,
1010
0000
1010
0000
0011
0000
0011
0000
1010
0000
1010
0000
0011
0000
0010
0001
,
1010
0000
1010
0000
0010
0000
1010
0000
0010
1000
0010
1000
0011
0000
0011
0000
,
1010
0000
1010
0000
0011
0000
0011
0000
1010
0000
1010
0000
0011
0000
0010
0001
,
1010
0000
1010
0000
0010
0000
1010
0000
0010
1000
0010
1000
0011
0000
0011
0000
,
1010
0000
1010
0000
0011
0000
0011
0000
1010
0000
1010
0000
0011
0000
0010
0001
,
1010
0000
1010
0000
0010
0000
1010
0000
0010
1000
0010
1000
0011
0000
0011
0000
,
1010
0000
1010
0000
0011
0000
0011
0000
1010
0000
1010
0000
0011
0000
0010
0001
,
1010
0000
1010
0000
0010
0000
1010
0000
0010
1000
0M10
1000
0M11
0000
0M11
0000
,
1M10
0000
1010
0000
0M11
0000
0011
0000
1M10
0000
1M10
0000
0M11
0000
0M10
0001
,
1010
0000
1M10
0000
0010
0000
1M10
0000
0010
1000
0M10
1000
0M11
0000
0M11
0000
,
1M10
0000
1010
0000
0M11
0000
0011
0000
1M10
0000
1M10
0000
0M11
0000
0M10
0001
,
1010
0000
1M10
0000
0010
0000
1M10
0000
0010
1000
0M10
1000
0M11
0000
0M11
0000
,
1M10
0000
1010
0000
0M11
0000
0011
0000
1M10
0000
1M10
0000
0M11
0000
0M10
0001
,
1010
0000
1M10
0000
0010
0000
1M10
0000
0010
1000
0M10
1000
0M11
0000
0M11
0000
,
1M10
0000
1010
0000
0M11
0000
0011
0000
1M10
0000
1M10
0000
0M11
0000
0M10
0001
,
1010
0000
1M10
0000
0010
0000
1M10
0000
0010
1000
0010
1000
0011
0000
0011
0000
,
1001
0000
0000
0000
;

//---------------dance-single - Geriatric Patrick----------------
#NOTES:
     dance-single:
     Geriatric Patrick:
     Hard:
     9:
     0.452,0.413,0.405,0.018,0.408:
0000
0000
0000
0000
,
0000
0000
0000
0000
,
0000
0000
0000
0000
,
0000
0000
0000
0000
,
0000
0000
0000
0000
,
0000
0000
0010
0000
1000
0100
0000
0010
0000
0100
0000
1000
0010
0000
0010
0000
,
0000
0000
1000
0000
0001
0100
0000
0010
0000
0100
0000
0001
0010
0000
0100
0000
,
0000
0000
0001
0000
1000
0100
0000
0010
0000
0001
0000
0010
0100
0000
1000
0000
,
0000
0000
0001
0000
0100
0010
0000
1000
0000
0010
0000
0100
0010
0000
0100
0000
,
0101
0000
0010
0000
1000
0100
0000
0010
0000
0100
0000
0000
0001
0000
0001
0000
,
0000
0000
1000
0000
0010
0100
0000
0010
0000
0100
0000
0000
1001
0000
1001
0000
,
0000
0000
0001
0000
0100
0001
0000
0010
0000
0001
0000
0100
0001
0000
0100
0000
,
0101
1100
0101
MM1M
,
0001
0000
0100
0000
0001
1000
0000
0100
0000
0100
0000
1000
0001
0000
1000
0000
,
0000
0000
0001
0000
0100
0010
0000
1000
0000
1000
0000
0000
0001
0000
0010
0000
,
0000
0000
1000
0000
0010
0100
0000
1000
0000
0100
0000
0100
0010
0000
0100
0000
,
0000
0000
0001
0000
0010
0100
0000
0001
0000
0001
0000
0100
0010
0000
0100
0000
,
0000
0000
1000
0000
0001
1000
0000
0100
0000
0100
0000
0010
0001
0000
0001
0000
,
0000
0000
1000
0000
0010
1000
0000
0001
0000
0001
0000
0100
0010
0000
0100
0000
,
0000
0000
0001
0000
1000
0001
0000
0010
0000
0100
0000
0100
1000
0000
0100
0000
,
11MM
M1M1
11MM
0010
,
0100
0000
0001
0000
1000
0100
0000
0010
0000
0100
0000
0000
0001
0000
0001
0000
,
0000
0000
0100
0000
0001
1000
0000
0100
0000
0100
0000
1000
0010
0000
0100
0000
,
0000
0000
1000
0000
0100
0010
0000
0001
0000
0001
0000
0010
0100
0000
1000
0000
,
0000
0000
0001
0000
0100
0010
0000
1000
0000
0010
0000
0100
0001
0000
0100
0000
,
M11M
0000
M11M
0000
1000
0100
0010
MM11
,
0000
1MM1
0000
MM11
0000
0001
0100
0001
,
1MM1
0000
1MM1
0000
1000
0100
1000
1M1M
,
0000
M11M
0000
1M1M
0000
0001
0010
0100
,
11MM
0000
M11M
0000
0010
0100
1000
1M1M
,
0000
M1M1
0000
M11M
0000
0001
0100
0010
,
1M1M
0000
M1M1
0000
1000
0010
0100
1MM1
,
0000
0000
M1M1
0000
0000
0000
1MM1
0000
0000
0000
0000
0100
0010
0000
0000
0000
,
1010
0000
0001
0000
0100
0001
0000
0010
0000
0100
0000
0000
0010
0000
0010
0000
,
0000
0000
1000
0000
0010
0100
0000
1000
0000
0100
0000
0100
0010
0000
0100
0000
,
0000
0000
0001
0000
1000
0100
0000
0010
0000
0100
0000
1000
0001
0000
1000
0000
,
11MM
M11M
M1M1
MM1M
,
1001
0000
0010
0000
0100
0001
0000
0010
0000
0010
0000
0001
1000
0000
1000
0000
,
0000
0000
0010
0000
0100
0001
0000
1000
0000
0001
0000
0100
0010
0000
0100
0000
,
0000
0000
1000
0000
0100
1000
0000
0010
0000
0100
0000
0100
0001
0000
0100
0000
,
0000
0000
0010
0000
1000
0001
0000
0010
0000
0010
0000
0001
1000
0000
0001
0000
,
1001
M00M
0000
0020
,
0032
00M0
0000
0000
,
0103
0000
0010
0000
0100
0001
0000
0001
0000
0100
0000
0100
0010
0000
0100
0000
,
0000
0000
0001
0000
1000
0100
0000
0010
0000
0100
0000
1000
0001
0000
1000
0000
,
0010
0000
00M0
0000
0000
0010
00M0
0010
,
0200
00M0
0000
0000
0000
0000
0000
0000
,
0301
0000
1000
0000
0001
0100
0000
0010
0000
0100
0000
0100
0001
0000
0100
0000
,
0000
0000
0001
0000
1000
0100
0000
0010
0000
0100
0000
0100
1000
0000
0100
0000
,
M11M
0000
M11M
0000
0001
0100
0010
1M1M
,
0000
M1MM
0000
1M1M
0000
0001
0100
0001
,
1MM1
0000
1MM1
0000
0001
0100
0001
MM11
,
0000
MM1M
0000
MM11
0000
1000
0010
0100
,
M1M1
0000
M11M
0000
0010
0100
0001
MM11
,
0000
1MMM
0000
M11M
0000
1000
0100
0010
,
MM11
0000
11MM
0000
0001
0010
0100
1MM1
,
0000
0000
0000
1MMM
0000
0000
0000
0000
0000
1MM1
0000
0000
0000
0000
0000
0000
0000
0100
0010
0000
0000
0000
0000
0000
,
1000
0000
1000
0000
0001
0000
0001
0000
1000
0000
1000
0000
0001
0000
0000
0001
,
1000
0000
1000
0000
0000
0000
1000
0000
0000
1000
0000
1000
0001
0000
0001
0000
,
0100
0000
0100
0000
0001
0000
0001
0000
0100
0000
0100
0000
0001
0000
0000
0001
,
0100
0000
0100
0000
0000
0000
0100
0000
0000
0100
0000
0100
0001
0000
0001
0000
,
0100
0000
0100
0000
0010
0000
0010
0000
0100
0000
0100
0000
0010
0000
0000
0010
,
0100
0000
0100
0000
0000
0000
0100
0000
0000
0100
0000
0100
0010
0000
0010
0000
,
1000
0000
1000
0000
0010
0000
0010
0000
1000
0000
1000
0000
0010
0000
0000
0010
,
1000
0000
1000
0000
0000
0000
1000
0000
0000
1000
0000
1000
0010
0000
0010
0000
,
0110
0000
0110
0000
0001
0000
0001
0000
0110
0000
0110
0000
0001
0000
00M0
0001
,
1000
0000
1M00
0000
0000
0000
10M0
0000
0000
1000
0000
1000
0001
0000
0001
0000
,
1100
0000
1100
0000
0001
0000
0001
0000
1100
0000
1100
0000
0001
0000
00M0
0001
,
0100
0000
M100
0000
0000
0000
01M0
0000
0000
0100
0000
0100
0001
0000
0001
0000
,
011M
0000
0110
0000
100M
0000
1000
0000
011M
0000
0110
0000
1000
0000
0M00
1000
,
0001
0000
00M1
0000
0000
0000
0M01
0000
0000
0001
0000
0001
1000
0000
1000
0000
,
01M1
0000
0101
0000
10M0
0000
1000
0000
01M1
0000
0101
0000
1000
0000
00M0
1000
,
0100
0000
010M
0000
0000
0000
01M0
0000
0000
0100
0000
0100
1000
0000
1000
0000
,
0110
0000
0000
0000
;

//---------------dance-single - Geriatric Patrick----------------
#NOTES:
     dance-single:
     Geriatric Patrick:
     Medium:
     8:
     0.387,0.370,0.256,0.048,0.283:
0000
0000
0000
0000
,
0000
0000
0000
0000
,
0000
0000
0000
0000
,
0000
0000
0000
0000
,
0000
0000
0000
0000
,
0000
0000
0000
0020
,
0230
0000
0000
0000
,
0300
0000
0000
0002
,
2003
0000
0000
0000
,
3000
0000
0001
0000
1000
0100
0000
0010
0000
0100
0000
0000
0001
0000
0001
0000
,
0000
0000
1000
0000
0010
0100
0000
0010
0000
0100
0000
0000
1000
0000
1000
0000
,
0000
0000
0001
0000
0100
0001
0000
0010
0000
0001
0000
0100
0001
0000
0100
0000
,
0001
0001
0001
0110
,
0001
0000
0100
0000
0001
1000
0000
0100
0000
0100
0000
1000
0001
0000
1000
0000
,
0000
0000
0001
0000
0100
0010
0000
1000
0000
1000
0000
0000
0001
0000
0010
0000
,
0000
0000
1000
0000
0010
0100
0000
0001
0000
0100
0000
0100
0010
0000
0100
0000
,
0001
0001
0001
1010
,
0100
0000
1000
0000
0001
1000
0000
0100
0000
0100
0000
0010
0001
0000
0001
0000
,
0000
0000
1000
0000
0010
1000
0000
0001
0000
0001
0000
0100
0010
0000
0100
0000
,
0000
0000
0001
0000
1000
0001
0000
0010
0000
0100
0000
0100
1000
0000
0100
0000
,
1000
1000
1000
0011
,
0100
0000
0001
0000
1000
0100
0000
0010
0000
0100
0000
0000
0001
0000
0001
0000
,
0000
0000
0100
0000
0001
1000
0000
0100
0000
0100
0000
1000
0010
0000
0100
0000
,
0000
0000
1000
0000
0100
0010
0000
0001
0000
1000
0000
1000
0001
0000
0100
0000
,
0001
0000
1001
0000
0001
0100
0010
0100
,
0001
0000
0110
0000
1000
0100
0010
0001
,
0000
1001
0000
1001
0000
0001
0100
0001
,
1000
0000
1001
0000
1000
0100
1000
0010
,
0000
0110
0000
0110
0000
0001
0010
0100
,
1000
0000
1100
0000
0010
0100
1000
0010
,
0000
0110
0000
1010
0000
0001
0100
0010
,
1000
0000
0110
0000
1000
0001
0010
0100
,
0000
0011
0000
1100
0000
0000
0010
0000
,
1000
0000
0001
0000
0100
0001
0000
0010
0000
0100
0000
0000
0010
0000
0010
0000
,
0000
0000
1000
0000
0010
0100
0000
0001
0000
0100
0000
0100
0010
0000
0100
0000
,
0000
0000
0001
0000
1000
0100
0000
0010
0000
0100
0000
1000
0001
0000
1000
0000
,
0100
0110
1100
0010
,
1001
0000
0010
0000
0100
0001
0000
0010
0000
0010
0000
0001
1000
0000
1000
0000
,
0000
0000
0010
0000
0100
0001
0000
1000
0000
0001
0000
0100
0010
0000
0100
0000
,
0000
0000
1000
0000
0100
1000
0000
0010
0000
0100
0000
0100
0001
0000
0100
0000
,
0000
0000
0010
0000
1000
0001
0000
0010
0000
0010
0000
0001
1000
0000
0001
0000
,
1001
0000
0000
0010
,
0002
0000
0000
0000
,
1003
0000
0000
0010
,
0102
0100
0100
0100
,
0013
0000
0000
0000
0000
0010
0000
0010
,
0200
0000
0000
0000
,
1300
0000
0000
0001
,
0120
0000
0100
0000
0130
0010
0100
0001
,
0010
0000
0110
0000
0001
0100
0010
1000
,
0000
1010
0000
1010
0000
0001
0100
0001
,
1000
0000
1001
0000
0001
0100
0001
0010
,
0000
0011
0000
0011
0000
1000
0010
0100
,
0001
0000
0110
0000
0010
0100
0001
0010
,
0000
0110
0000
0011
0000
1000
0100
0010
,
0001
0000
1100
0000
0001
0010
0100
1000
,
0000
1001
0000
1001
0000
0000
0010
0000
,
1000
0000
1000
0000
0001
0000
0001
0000
1000
0000
1000
0000
0001
0000
0000
0001
,
1000
0000
1000
0000
0000
0000
1000
0000
0000
1000
0000
1000
0001
0000
0001
0000
,
0100
0000
0100
0000
0001
0000
0001
0000
0100
0000
0100
0000
0001
0000
0000
0001
,
0100
0000
0100
0000
0000
0000
0100
0000
0000
0100
0000
0100
0001
0000
0001
0000
,
0100
0000
0100
0000
0010
0000
0010
0000
0100
0000
0100
0000
0010
0000
0000
0010
,
0100
0000
0100
0000
0000
0000
0100
0000
0000
0100
0000
0100
0010
0000
0010
0000
,
1000
0000
1000
0000
0010
0000
0010
0000
1000
0000
1000
0000
0010
0000
0000
0010
,
1000
0000
1000
0000
0000
0000
1000
0000
0000
1000
0000
1000
0010
0000
0010
0000
,
0110
0000
0110
0000
0001
0000
0001
0000
0100
0000
0100
0000
0001
0000
0000
0001
,
1000
0000
1000
0000
0000
0000
1000
0000
0000
1000
0000
1000
0001
0000
0001
0000
,
1100
0000
1100
0000
0001
0000
0001
0000
1000
0000
1000
0000
0001
0000
0000
0001
,
0100
0000
0100
0000
0000
0000
0100
0000
0000
0100
0000
0100
0001
0000
0001
0000
,
0110
0000
0110
0000
1000
0000
1000
0000
0010
0000
0010
0000
1000
0000
0000
1000
,
0001
0000
0001
0000
0000
0000
0001
0000
0000
0001
0000
0001
1000
0000
1000
0000
,
0101
0000
0101
0000
1000
0000
1000
0000
0001
0000
0001
0000
1000
0000
0000
1000
,
0100
0000
0100
0000
0000
0000
0100
0000
0000
0100
0000
0100
1000
0000
1000
0000
,
1010
0000
0000
0000
;

//---------------dance-single - Geriatric Patrick----------------
#NOTES:
     dance-single:
     Geriatric Patrick:
     Easy:
     6:
     0.279,0.305,0.256,0.119,0.021:
0000
0000
0000
0000
,
0000
0000
0000
0000
,
0000
0000
0000
0000
,
0000
0000
0000
0000
,
0000
0000
0000
0000
,
0000
0000
0000
0020
,
0230
0000
0000
0000
,
0300
0000
0000
0002
,
2003
0000
0000
0000
,
3100
0011
0000
0011
,
2000
0010
0000
0000
,
3001
0110
0000
0011
,
0200
0010
0010
1000
,
0310
1001
0000
1001
,
0200
0001
0000
0000
,
1300
1010
0000
1010
,
0002
0100
0100
0010
,
0103
0011
0000
0011
,
2000
0010
0000
0000
,
3100
1001
0000
1001
,
0200
1000
1000
0001
,
1300
0110
0000
0110
,
2000
0001
0000
0000
,
3100
1010
0000
1010
,
0200
0001
0001
1000
,
0301
0000
0001
0000
1000
0100
0010
0001
,
0000
1000
0000
1000
0000
0001
0100
0001
,
1000
0000
1000
0000
0001
0100
0001
0010
,
0000
0010
0000
0010
0000
0001
0010
0100
,
1000
0000
1000
0000
0001
0100
0001
0010
,
0000
0010
0000
0010
0000
1000
0100
0010
,
0001
0000
0001
0000
0010
0100
1000
0001
,
0000
0001
0000
0001
0000
0000
0010
0000
,
0100
0110
0000
1001
,
0200
0010
0000
0000
,
1300
1100
0000
0011
,
2000
0001
0001
0010
,
3001
1001
0000
0110
,
0002
0010
0000
0000
,
1003
1010
0000
0011
,
0200
0010
0010
0001
,
0310
0000
0000
0010
,
0200
0000
0000
0000
,
1300
0000
0000
0001
,
2000
0100
0100
0100
,
3010
0000
0000
0010
,
0002
0000
0000
0000
,
0103
0000
0000
1000
,
0020
0100
0100
0100
,
0031
0000
0011
0000
1000
0100
0010
0001
,
0000
0011
0000
0011
0000
0001
0100
0001
,
1000
0000
1001
0000
0001
0100
0001
0010
,
0000
0110
0000
0110
0000
0001
0010
0100
,
1000
0000
1100
0000
0001
0100
0001
0010
,
0000
0011
0000
0011
0000
1000
0100
0010
,
0001
0000
0110
0000
0010
0100
1000
0001
,
0000
1001
0000
1001
0000
0000
0010
0000
,
1000
0000
0000
0000
0001
0000
0001
0000
1000
0000
0000
0000
0001
0000
0000
0001
,
1000
0000
0000
0000
0000
0000
1000
0000
0000
1000
0000
0000
0001
0000
0001
0000
,
0100
0000
0000
0000
0001
0000
0001
0000
0100
0000
0000
0000
0001
0000
0000
0001
,
0100
0000
0000
0000
0000
0000
0100
0000
0000
0100
0000
0000
0001
0000
0001
0000
,
0100
0000
0000
0000
0010
0000
0010
0000
0100
0000
0000
0000
0010
0000
0000
0010
,
0100
0000
0000
0000
0000
0000
0100
0000
0000
0100
0000
0000
0010
0000
0010
0000
,
1000
0000
0000
0000
0010
0000
0010
0000
1000
0000
0000
0000
0010
0000
0000
0010
,
1000
0000
0000
1000
0000
1000
0100
1000
,
0001
0000
0001
0000
1000
0100
1000
0010
,
0000
0010
0000
0010
0000
1000
0010
0100
,
0001
0000
0001
0000
1000
0100
0010
0001
,
0000
0001
0000
0001
0000
0100
0001
0100
,
0010
0000
0110
0000
1000
0001
1000
0010
,
0000
0110
0000
0110
0000
0001
0010
0100
,
1000
0000
1100
0000
0010
0100
0001
0010
,
0000
0011
0000
0011
0000
0000
0100
0000
,
1001
0000
0000
0000
;
