#TITLE:Change The Formality;
#SUBTITLE:;
#ARTIST:Infected Mushroom;
#TITLETRANSLIT:;
#SUBTITLETRANSLIT:;
#ARTISTTRANSLIT:;
#GENRE:;
#CREDIT:;
#BANNER:Change the Formality-bn.png;
#BACKGROUND:Change the Formality-bg.png;
#LYRICSPATH:;
#CDTITLE:cdtitle.png;
#MUSIC:Change The Formality.ogg;
#OFFSET:-0.975;
#SAMPLESTART:23.000;
#SAMPLELENGTH:18.360;
#SELECTABLE:YES;
#BPMS:0.000=145.000,52.000=72.500,54.000=145.000;
#STOPS:150.000=0.207
,153.500=0.207
,157.000=0.207
,160.500=0.207
,164.000=0.207
,167.500=0.207
,171.000=0.207
,178.500=0.207
,182.000=0.207
,185.500=0.207
,189.000=0.207
,192.500=0.207
,196.000=0.207
,199.500=0.207
;
#BGCHANGES:;
#KEYSOUNDS:;

//---------------dance-single - nvwls300----------------
#NOTES:
     dance-single:
     nvwls300:
     Hard:
     9:
     0.644,0.601,0.497,0.000,0.558:
0000
0000
0000
0000
,
0000
0000
0000
0000
,
1000
0100
0000
0000
0000
0000
0010
0000
0001
1000
0001
1000
0000
0010
0000
0100
,
0001
0100
0000
0000
0000
0000
0010
0000
1000
0100
1000
0100
0000
0010
0000
0001
,
1000
0001
0000
0000
0000
0000
0100
0000
0010
1000
0010
1000
0000
0100
0000
0010
,
0001
0010
0000
0000
0000
0000
0100
0000
1000
0000
1001
0000
0000
0000
1001
0000
,
1000
0100
0000
0000
0000
0000
0010
0000
0001
0100
0001
1000
0000
1000
0000
0100
,
0010
0100
0000
0000
0000
0000
1000
0000
0001
0100
0001
0100
0000
0010
0000
0100
,
0001
1000
0000
0000
0000
0000
0100
0000
1000
0001
1000
0010
0000
0010
0000
0100
,
0001
0100
0000
0000
0000
0000
0010
0000
0001
1000
0001
0000
1000
0000
0010
0000
,
1000
0001
0000
0000
0000
0000
0100
0000
0010
1000
0010
0100
0000
0100
0000
0010
,
1000
0001
0000
0000
0000
0000
0010
0000
0100
0000
0000
0000
0001
0000
0100
0000
,
1000
0000
0100
0000
0010
0000
0000
0110
0000
0000
1000
0000
0000
0001
0000
0000
,
1001
0000
0000
0M00
M000
00M0
0M00
000M
M100
0000
0000
0000
0110
0000
0000
0000
,
0001
0011
1000
1010
,
0001
0101
0010
1001
,
0100
1010
0001
1100
,
0010
0000
1001
1000
0010
0100
0101
0001
,
1000
0000
1100
0100
1000
0000
0011
0001
,
1000
0000
1010
0010
0100
0001
0011
0001
,
1000
0000
1010
1000
0001
0001
0010
0001
,
0001
0010
0000
0000
0110
0000
0100
1000
,
0000
0010
0100
0000
1010
0000
0001
0100
,
0000
1000
0100
0000
1001
0000
0100
0001
,
0000
0000
0001
1000
0100
0000
0000
0000
0101
0000
0000
0000
1000
0000
0010
0000
,
0000
0001
0010
0000
0110
0100
1000
0010
,
0000
0010
0100
0000
1010
0000
0001
0010
,
0000
0000
0000
0001
1000
0000
0000
0000
0101
0000
0000
0000
1000
0000
0100
0000
,
0000
0000
0010
0001
0100
0000
0000
0000
0010
1000
0000
1000
0001
0000
1000
0010
,
0000
0010
0100
0000
1000
0000
1000
0000
0100
0000
0001
0000
0010
0000
0001
1000
,
0000
1000
0100
0000
0010
0000
0000
0000
1100
0000
0000
0000
0001
0000
1000
0100
,
0000
0100
1000
0000
0010
0000
0000
0000
0101
0000
0000
0000
0010
0000
0001
1000
,
0000
1000
0100
0000
0010
0000
0000
0000
1001
0000
0000
0000
0010
0000
0100
0000
,
00M0
0000
1000
0000
0010
0000
0000
0000
1100
0000
0100
0000
0010
0000
0100
1000
,
0000
0100
1000
0000
0010
0000
0000
0000
0101
0000
0000
0000
0010
0000
1000
0001
,
0000
0001
0100
0000
0010
0000
0000
0000
1001
0000
0000
0000
0010
0000
0100
1000
,
0000
0100
1000
0000
0010
0000
0000
0000
0100
0001
0000
0010
0001
0000
0100
0001
,
0000
0010
0001
0000
1000
0010
1000
0010
0100
0000
0110
0000
0100
0001
0000
0001
,
1000
0000
0000
0000
0100
0000
1000
0000
1100
0000
1000
0001
0000
0001
1000
0000
,
0000
0000
0001
0000
0100
0000
0101
0000
1000
0100
0000
0100
0010
0000
0001
0000
,
0010
0100
0001
0100
0000
1000
0010
0100
,
1000
0000
0101
0000
0100
0010
0000
0010
1000
0000
0001
0000
0000
0000
0100
0000
,
0011
0000
0001
1000
0000
1000
0100
0000
0010
0000
0000
0000
0100
0000
1010
0000
,
1000
0001
0000
0001
0010
0000
0001
0000
0100
0000
0001
1000
0000
1000
0100
0000
,
1000
0001
0000
0001
0100
0000
0010
0000
0100
0000
0101
0000
1000
0000
0100
0010
,
0000
0100
0010
0000
0000
0000
1000
0000
1010
0000
0001
0000
0100
0010
0000
0100
,
0010
0000
0000
0000
1000
0000
1100
0000
0010
0000
0001
1000
0000
0001
1000
0000
,
0010
1000
1001
0100
0010
0000
0100
0001
,
1000
0000
1001
0000
0010
0000
0001
0100
0000
0001
1000
0000
0100
0000
0000
0000
,
1100
0000
0001
0000
1000
0010
0000
1000
0001
0000
0010
0000
0000
0000
0110
0000
,
1000
0000
0001
0010
0000
0100
1000
0000
0010
0000
1000
0000
0001
0100
0000
0001
,
1000
0000
0001
0100
0000
0001
1000
0000
0010
0000
0100
0000
1100
0000
0000
0000
;

//---------------dance-single - Hard----------------
#NOTES:
     dance-single:
     Hard:
     Challenge:
     10:
     0.763,0.772,0.542,0.000,0.696:
0000
0000
0000
0000
,
0000
0000
0000
0000
0000
0000
0001
0001
,
0100
0000
0000
0000
1001
0000
0100
0000
0010
0001
0010
0001
0000
1000
0000
0010
,
0100
0010
0000
0000
0000
0000
1000
0000
0100
0010
0001
0010
0000
0010
0000
0100
,
1000
0100
0000
0000
0000
0000
0001
0000
0100
0010
0100
0010
0000
1000
0000
0001
,
0010
0001
0000
0000
0000
0000
0100
0000
0010
0000
1010
0000
0000
0000
1010
0000
,
0001
0100
0000
0000
0000
0000
0010
0000
0001
0100
0010
1000
0000
1000
0000
0010
,
0100
0010
0000
0000
0000
0000
1000
0000
0100
0001
0100
0001
0000
1000
0000
0100
,
0010
0001
0000
0000
0000
0000
0100
0000
1000
0010
0100
0001
0000
0001
0000
1000
,
0100
1000
0000
0000
0000
0000
0010
0000
0001
1000
0100
0000
1000
0000
0010
0000
,
1000
0001
0000
0000
0000
0000
0100
0000
0010
1000
0010
0100
0000
0001
0000
0100
,
0010
0001
0000
0000
0000
0000
0010
0000
0100
0000
0000
0000
1000
0000
0100
0000
,
0010
0001
0010
0100
0001
0100
0010
0001
0010
0100
1000
0100
0010
1000
0010
0100
,
1000
0000
0000
0001
0010
001M
1000
0100
0010
0000
0100
0000
0000
0000
0001
0000
,
1000
0000
0010
0001
0100
0000
1010
0010
,
0100
0000
0101
0001
1000
0100
0110
0010
,
0001
0000
1001
1000
0100
0000
1010
0010
,
0100
0000
1010
1000
0001
0100
0101
0001
,
1000
0000
1100
0100
1000
0000
0011
0001
,
1000
0000
1010
0010
0001
1000
1001
0001
,
0100
0000
0110
0001
1000
1000
0110
0001
,
1000
0000
0110
0000
0000
0000
0000
0000
1001
0000
0000
0001
0100
0000
0010
1000
,
0000
1000
0010
0000
0001
0000
0100
0000
0101
0000
0M0M
0000
0101
0000
0001
0010
,
0000
0100
1000
0000
0001
0000
0100
0000
0110
0000
0MM0
0000
0110
0000
1000
0010
,
0000
0001
0010
0100
1000
0000
0001
0000
0011
0000
0000
0000
1010
0000
0100
0000
,
00M0
0000
0001
0000
1000
0000
0010
0000
1001
0000
0001
0000
0010
0000
0100
1000
,
0000
1000
0010
0000
0100
0000
0001
0000
0101
0000
0000
0000
1000
0000
0001
0100
,
0000
0001
0010
0000
0100
0000
1000
0000
0110
0000
0000
0000
0001
0000
1000
0100
,
0000
0100
0001
1000
0100
0000
0010
0000
01M0
1000
0100
0010
1000
0010
0100
1000
,
0100
0010
0001
0010
0100
1000
0010
1000
0100
0000
0100
0000
0110
0000
1000
0001
,
0000
0001
0100
0000
0010
0000
0100
0000
0001
0000
0000
0000
1010
0000
1000
0100
,
0000
0001
0010
0000
0001
0000
0100
0000
0001
0000
0000
0000
1010
0000
1000
0100
,
0000
0100
1000
0001
0100
0000
0010
0000
0100
0000
0000
0000
1001
0000
0100
0000
,
M00M
0000
0010
0000
1010
0000
0000
0000
1000
0000
0100
0000
0001
0000
0010
0100
,
0000
0100
1000
0000
0010
0000
0100
0000
0001
0000
0000
0000
0110
0000
0001
1000
,
0000
0001
1000
0000
0010
0000
0100
0000
0001
0000
0000
0000
1010
0000
1000
0100
,
0000
0100
1000
0001
0100
0000
0010
0000
1000
0010
0100
0010
0001
0010
0100
0010
,
1000
0001
0010
0001
0100
0001
0010
0001
1000
0000
1001
0000
0100
0010
0000
0010
,
0001
0000
1000
0000
0010
0000
0100
0000
1010
0000
0001
0010
0000
0010
0100
0000
,
1000
0000
0100
0000
0010
0000
1100
0000
0001
0100
0000
0100
0010
0000
0001
0000
,
0010
1000
1001
M100
0000
100M
0100
0001
,
1000
0000
0101
0000
0001
1000
0000
0001
0100
0000
0010
0000
1000
0000
0100
0000
,
0110
0000
0100
1000
0000
0100
0010
0000
0001
0000
0100
0000
0001
0000
1001
0000
,
0001
0100
0000
0100
0001
0000
0010
0000
0100
0000
1000
0001
0000
0001
0100
0000
,
0010
1000
0000
1000
0100
0000
0010
0000
0001
0000
0101
0000
1000
0000
0100
0010
,
0000
0001
0100
0000
0001
0000
1000
0000
1100
0000
0001
0000
0100
0010
0000
0001
,
0010
0000
0100
0000
1000
0000
1001
0000
0100
0000
0010
0001
0000
0100
0001
0000
,
1000
0100
1100
0M10
0001
0000
100M
0100
,
0010
0000
1001
0000
0010
0000
0001
0100
0000
0100
0001
0000
0010
0000
0100
0000
,
0101
0000
1000
0000
0001
0010
0000
0010
0001
0000
1000
0000
0010
0000
0011
0000
,
1000
0000
0100
0001
0000
1000
0100
0000
0010
0000
0100
0000
1000
0010
0000
0100
,
0001
0000
0010
1000
0000
0001
0100
0000
1000
0000
0010
0000
1100
0000
0000
0000
;

//---------------dance-single - Hard----------------
#NOTES:
     dance-single:
     Hard:
     Medium:
     8:
     0.524,0.458,0.321,0.099,0.232:
0000
0000
0000
0000
,
0000
0000
0000
0000
,
0001
1000
0000
0000
0000
0000
0100
0000
0010
0000
0000
0100
0000
0100
0000
1000
,
0001
1000
0000
0000
0000
0000
0010
0000
0100
0000
0000
0001
0000
0001
0000
0010
,
0100
0010
0000
0000
0000
0000
0001
0000
1000
0000
0000
0010
0000
0010
0000
0100
,
0001
0100
0000
0000
0000
0000
0010
0000
1000
0000
0001
0000
0000
0000
0001
0000
,
1000
0100
0000
0000
0000
0000
0010
0000
0001
0000
0000
1000
0000
0010
0000
1000
,
0001
1000
0000
0000
0000
0000
0100
0000
0010
0000
0000
0001
0000
1000
0000
0001
,
0100
0001
0000
0000
0000
0000
0100
0000
0010
0000
0000
1000
0000
0001
0000
1000
,
0010
1000
0000
0000
0000
0000
0001
0000
0010
0100
0000
0000
0010
0000
0001
0000
,
1000
0010
0000
0000
0000
0000
0001
0000
0100
0000
0000
0000
1000
0000
0010
0000
,
0100
0000
0000
1000
0100
0000
0001
0100
,
0010
0100
0000
0001
1000
0000
0010
0100
,
1000
0000
0100
0110
,
0001
0011
1000
1010
,
0001
0101
0010
1001
,
0100
1010
0001
1100
,
0010
0000
1001
0000
0010
0100
0001
1000
,
0100
1100
1000
0011
,
1000
0000
1010
0000
0100
0001
0010
0001
,
1000
0000
0110
0000
0001
0001
1000
0001
,
0001
1000
0000
0000
0110
0000
0100
1000
,
0000
0010
0100
0000
1010
0000
0001
0100
,
0000
1000
0100
0000
1001
0000
0100
0001
,
0000
0000
0001
1000
0100
0000
0000
0000
0101
0000
0000
0000
1000
0000
0010
0000
,
0000
0001
0010
0000
0110
0000
1000
0010
,
0000
0010
0100
0000
1010
0000
0001
0010
,
0000
0001
1000
0000
0101
0000
1000
0100
,
0000
0000
0010
0000
0100
0000
0000
0000
0001
0000
0000
0100
0000
0000
1000
0000
,
0000
0100
0000
0000
0001
0000
1000
0000
1001
0000
0000
0000
0010
0000
0100
0000
,
0001
1000
0001
0000
1000
0100
1000
0001
,
0100
0001
0000
0000
1000
1000
0100
0100
,
0010
0010
0001
1000
0020
0000
1030
0001
,
0000
0000
1000
0000
0010
0000
0100
0000
0001
0000
0000
1000
0000
0000
1001
0000
,
0000
0000
0001
0000
0010
0000
0001
0000
1000
0000
0000
0010
0000
0000
0110
0000
,
0000
0000
0010
0000
1000
0000
0010
0000
0100
0000
0000
0100
0000
0000
0001
0000
,
0020
0000
0000
0000
0000
0000
0130
0000
1000
0000
0000
0100
0000
0000
0001
0000
,
0000
0100
0000
0000
1000
0000
0100
0000
0020
0030
0100
0000
1000
0000
0000
0000
,
1000
0000
0001
0000
0000
0000
2000
3000
0100
0000
0010
0000
0000
0000
0100
0000
,
1000
0000
0000
0000
0002
0003
0100
0000
0001
0000
0000
0000
0010
0000
0100
0000
,
0000
0000
0002
0003
1000
0000
0100
0000
0000
0000
0100
0000
1000
0000
0010
0000
,
0200
0300
0100
0000
0001
0000
0000
0000
0010
0000
0001
0000
0100
0000
0020
0030
,
0010
0000
0100
0000
0000
0000
1000
0000
0100
0000
0001
0000
2000
3000
1000
0000
,
0010
0000
0000
0000
0001
0000
0010
0000
0100
0000
1000
0000
0000
0100
0000
0000
,
0001
0000
0000
0100
0000
0000
1000
0000
0100
0000
0110
0000
1000
0000
0100
0000
,
0000
0001
0100
0000
1010
0001
0100
0000
,
0001
0010
0000
1001
0100
0010
0000
0100
,
1000
0000
0011
1000
0100
0000
0001
0010
,
0100
1100
0001
0100
0000
1000
0010
0000
,
1100
0010
0100
0000
1000
0100
0000
1001
,
0100
0000
0010
0000
0000
0000
1000
0000
0010
0000
0000
0000
0001
0100
0000
0100
,
0001
0000
1000
0100
0000
0100
1000
0000
0001
0000
0010
0000
0100
0000
0000
0000
;
