#TITLE:Break The Targets!;
#SUBTITLE:;
#ARTIST:Nintendo;
#TITLETRANSLIT:;
#SUBTITLETRANSLIT:;
#ARTISTTRANSLIT:;
#GENRE:;
#CREDIT:;
#BANNER:Break The Targets!-bn.png;
#BACKGROUND:Break The Targets!-bg.png;
#LYRICSPATH:;
#CDTITLE:;
#MUSIC:Break The Targets!.mp3;
#OFFSET:-0.735;
#SAMPLESTART:10.289;
#SAMPLELENGTH:12.000;
#SELECTABLE:YES;
#BPMS:0.000=144.000;
#STOPS:;
#BGCHANGES:;
#KEYSOUNDS:;

//---------------dance-single - nvwls300----------------
#NOTES:
     dance-single:
     nvwls300:
     Challenge:
     9:
     0.738,0.800,0.381,0.028,0.663:
0000
0000
0000
0000
,
0000
0000
0000
0000
,
0000
0001
0000
0000
0010
0000
0000
0001
0000
0000
0010
0000
0000
0000
0110
0000
,
1000
0001
0000
1000
0010
0000
1000
0100
0000
1000
0010
0000
1000
0001
1000
0001
,
1000
0010
0100
0001
1000
0010
0100
0001
,
1000
0010
0001
0010
1000
0010
0001
0010
,
1000
0010
0100
1000
1000
0010
0100
1000
,
1000
0010
0001
0010
1000
0100
0001
0100
,
1000
0001
0010
0100
1000
0001
0010
0100
,
0001
1000
0010
0100
0001
1000
0010
0100
,
1000
0100
0100
0001
1000
0100
0100
0001
,
1000
0100
0001
0100
1000
0010
0001
0010
,
1000
0001
0100
0001
0000
0010
0000
0110
0000
0000
0000
0000
0000
0000
0000
0000
,
1010
0000
0010
0100
0010
0100
0001
0100
0010
1000
0100
1000
0001
1000
0100
0010
,
0002
0000
0000
0010
0000
0000
1000
0000
0000
1000
0000
0003
1001
0000
0000
0000
,
0110
0000
0100
0001
1000
0001
1000
0010
0100
0001
0010
0001
1000
0100
0010
0100
,
1000
0000
0000
0101
0000
0000
1010
0000
0000
1001
0000
0000
0110
0000
1100
0000
,
1000
0001
0000
1000
0100
0000
1000
0001
0000
1000
0100
0000
0000
0000
0011
0000
,
1000
0010
0000
0100
0010
0000
1000
0001
0000
0100
0001
0000
0011
0000
0011
0000
,
1000
0100
0000
0010
1000
0000
1000
0100
0000
0010
1000
0000
0000
0000
0110
0000
,
1000
0001
0000
0001
0010
0000
0001
0100
0000
0100
1000
0000
0100
0010
0100
0010
,
0000
0000
0000
0000
,
0000
0000
0000
0000
,
0001
1000
0001
1000
,
0001
0010
0001
0000
1000
0100
1000
0100
0000
0000
0001
0100
0010
1000
0010
1000
,
0001
0010
0100
1000
0001
0010
0100
1000
,
0001
0010
1000
0010
0001
0010
1000
0010
,
0001
0010
0100
0001
0001
0010
0100
0001
,
0001
0010
1000
0010
0001
0100
1000
0100
,
0001
1000
0010
0100
0001
1000
0010
0100
,
1000
0001
0010
0100
1000
0001
0010
0100
,
0001
0100
0100
1000
0001
0100
0100
1000
,
0001
0100
1000
0100
0001
0010
1000
0010
,
0001
1000
0100
1000
0000
0010
0000
0011
0000
0000
0000
0000
0000
0000
0000
0000
,
0011
0000
0010
0100
0010
0100
1000
0100
0010
0001
0100
0001
1000
0001
0100
0010
,
2000
0000
0000
0010
0000
0000
0001
0000
0000
0001
0000
3000
1001
0000
0000
0000
,
0110
0000
0100
1000
0001
1000
0001
0010
0100
1000
0010
1000
0001
0100
0010
0100
,
0001
0000
0000
1100
0000
0000
0011
0000
0000
1001
0000
0000
0110
0000
0101
0000
,
0001
1000
0000
0001
0100
0000
0001
1000
0000
0001
0100
0000
0000
0000
1010
0000
,
0001
0010
0000
0100
0010
0000
0001
1000
0000
0100
1000
0000
1010
0000
1010
0000
,
0001
0100
0000
0010
0001
0000
0001
0100
0000
0010
0001
0000
0000
0000
0110
0000
,
0001
1000
0000
1000
0010
0000
1000
0100
0000
0100
0001
0000
0100
0010
0100
0010
,
0001
0000
0000
0000
;

//---------------dance-single - nvwls300----------------
#NOTES:
     dance-single:
     nvwls300:
     Hard:
     8:
     0.548,0.533,0.212,0.028,0.360:
0000
0000
0000
0000
,
0000
0000
0000
0000
,
1000
1000
0001
0001
,
0100
0001
0000
0100
0001
0000
0100
0010
0000
0100
0010
0000
1000
0000
1000
0000
,
0001
0010
0100
1000
0001
0010
0100
1000
,
0001
0010
0100
0010
0001
0010
0100
0010
,
0001
1000
0100
1000
0001
1000
0100
1000
,
0001
0100
1000
0100
0001
0100
1000
0100
,
0001
0010
0100
1000
0100
0010
0100
1000
,
0001
0010
0100
0010
0001
0010
0100
1000
,
0001
1000
0100
1000
0010
1000
0100
1000
,
0001
0100
1000
0100
0010
0100
1000
0100
,
0001
0100
0001
1000
0000
0001
0000
0010
0000
0000
0000
0000
0000
0000
0000
0000
,
1010
0000
0040
0400
0000
0000
0000
0000
0000
0000
0000
0000
0000
0000
0030
0300
,
0002
0000
0000
0010
0000
0000
1000
0000
0000
1000
0000
0000
0003
0000
0000
0000
,
0110
0000
0400
4000
0000
0000
0000
0000
0000
0000
0000
0000
0000
0000
0300
3000
,
0001
0000
0000
0100
0000
0000
0011
0000
0000
0011
0000
0000
1010
0000
0010
0000
,
0000
0100
0000
0000
0001
0000
0000
0100
0000
0000
0001
0000
0000
0000
0011
0000
,
0000
1000
0000
0000
0100
0000
0000
0010
0000
0000
0100
0000
0011
0000
0001
0000
,
0000
0100
0000
0000
0010
0000
0000
0100
0000
0000
0100
0000
0000
0000
1001
0000
,
0001
0100
0000
0001
0010
0000
0100
1000
0000
0100
1000
0000
0001
0010
0001
0000
,
0000
0000
0000
0000
,
0000
0000
0000
0000
,
0001
0001
1000
1000
,
0010
1000
0000
0010
1000
0000
0010
0100
0000
0010
0100
0000
0001
0000
0001
0000
,
1000
0100
0010
0001
1000
0100
0010
0001
,
1000
0100
0010
0100
1000
0100
0010
0100
,
1000
0001
0010
0001
1000
0001
0010
0001
,
1000
0010
0001
0010
1000
0010
0001
0010
,
1000
0100
0010
0001
0010
0100
0010
0001
,
1000
0100
0010
0100
1000
0100
0010
0001
,
1000
0001
0010
0001
0100
0001
0010
0001
,
1000
0010
0001
0010
0100
0010
0001
0010
,
1000
0001
1000
0001
0000
0100
0000
0010
0000
0000
0000
0000
0000
0000
0000
0000
,
0101
0000
0400
0040
0000
0000
0000
0000
0000
0000
0000
0000
0000
0000
0300
0030
,
2000
0000
0000
0010
0000
0000
0010
0000
0000
0010
0000
0000
3000
0000
0000
0000
,
0110
0000
0400
0004
0000
0000
0000
0000
0000
0000
0000
0000
0000
0000
0300
0003
,
1000
0000
0000
0100
0000
0000
1010
0000
0000
0011
0000
0000
0100
0000
0100
0000
,
0000
0010
0000
0000
1000
0000
0000
0010
0000
0000
1000
0000
0000
0000
1100
0000
,
0000
0001
0000
0000
0010
0000
0000
0100
0000
0000
0010
0000
1100
0000
1000
0000
,
0000
0010
0000
0000
0100
0000
0000
0010
0000
0000
0010
0000
0000
0000
1001
0000
,
1000
0100
0000
1000
0010
0000
0100
0001
0000
0100
0001
0000
0010
0001
0010
0001
;
