#TITLE:Booty Swing;
#SUBTITLE:;
#ARTIST:Parov Stellar;
#TITLETRANSLIT:;
#SUBTITLETRANSLIT:;
#ARTISTTRANSLIT:;
#GENRE:;
#CREDIT:;
#BANNER:Booty Swing-bn.png;
#BACKGROUND:Booty Swing-bg.png;
#LYRICSPATH:;
#CDTITLE:;
#MUSIC:Booty Swing.ogg;
#OFFSET:-0.785;
#SAMPLESTART:4.180;
#SAMPLELENGTH:13.240;
#SELECTABLE:YES;
#BPMS:0.000=113.000,183.000=-113.000,183.375=113.000,210.000=56.500,211.000=113.000;
#STOPS:183.750=0.398
;
#SCROLLS:0.000=1.000;
#TIMESIGNATURES:0.000=4=4;
#BGCHANGES:;
#KEYSOUNDS:;

//---------------dance-single - Geriatric Patrick----------------
#NOTES:
     dance-single:
     Geriatric Patrick:
     Challenge:
     9:
     0.350,0.351,0.202,0.037,0.277:
0000
0000
0000
0000
,
0000
0000
0000
0000
,
0000
0001
000M
0001
000M
1000
M000
1000
,
M000
0001
000M
0001
000M
1000
M000
1000
,
M000
0010
00M0
0010
00M0
0100
0M00
0100
,
0M00
0001
000M
0001
000M
0100
0M00
0100
,
0010
0100
0001
0100
0010
1000
0001
1000
,
0010
0100
0001
0010
0001
0100
0010
0100
,
0001
1000
0100
1000
0010
0100
0010
1000
,
0001
0010
0100
1000
0010
1000
0100
0000
,
0010
0001
1000
0001
,
0010
0001
0100
0001
,
0010
0100
1000
0010
,
0100
0010
1000
0100
,
0010
0001
1001
0001
0010
0100
1100
0100
,
0010
0001
1010
0001
0010
0100
1002
0000
,
0103
0010
1010
0010
0100
0001
1001
0001
,
0100
0010
0011
0010
1000
0010
0101
0000
,
0010
1000
1001
1000
0010
0100
0101
0100
,
0010
1000
0110
1000
0001
0010
2100
0000
,
3001
0100
0110
0100
0001
1000
1100
1000
,
0001
0010
1010
0010
0100
1000
0011
0000
,
1000
1000
0010
0010
1000
1000
0101
0001
,
1000
0000
0100
0000
0110
0000
0100
0000
1000
0001
0100
0001
0010
0001
0100
0001
,
1000
0100
0110
0100
1000
1000
0011
0001
,
0000
0000
0000
0000
0000
0000
0000
0000
0100
0001
0100
0000
0010
1000
0001
0010
,
0001
0000
0000
0000
0000
0000
0011
0000
0000
1000
0000
1000
0010
0000
0010
0100
0000
0100
0001
0000
0100
0004
0000
0000
,
0013
0000
0000
0000
0000
0000
0000
0000
0000
0000
0000
0000
0110
0000
0000
0000
0000
0000
0001
0000
0000
0000
0001
0000
1000
0000
0000
0010
0000
0000
0100
0000
0000
0010
0000
0000
1000
0000
0000
0001
0000
0000
0100
0000
0000
0001
0000
0000
,
1000
0000
0000
0000
0000
0000
1001
0000
0000
0010
0000
0010
0100
0000
0100
1000
0000
1000
0100
0000
1000
0400
0000
0000
,
0310
0000
0000
0000
0000
0000
1100
0000
0000
0001
0000
0001
0010
0000
0010
0100
0000
0100
0001
0000
0000
0000
0000
0000
,
0011
0000
0000
0000
0000
0001
0100
0000
0001
0000
0000
0000
0100
0000
0100
0010
0000
0010
0001
0000
0001
0010
0000
0000
,
1100
0000
0000
0000
0000
0000
0000
0000
0000
0000
0000
0000
0001
0000
0000
0000
0000
0000
0010
0000
0000
0000
0010
0000
0100
0000
0000
1000
0000
0000
0100
0000
0000
0010
0000
0000
0100
0000
0000
0001
0000
0000
0100
0000
0000
0010
0000
0000
,
0001
0000
0000
0000
0000
0000
0110
0000
0000
0001
0000
0001
1000
0000
1000
0010
0000
0010
0100
0000
0010
4000
0000
0000
,
3001
0000
1000
0001
0000
0000
0100
0000
0100
0001
0000
0100
0010
0000
0000
0010
0000
0100
0001
0000
0100
0001
0000
0001
,
1000
0000
0000
0000
0000
0001
0100
0000
0001
0000
0000
0000
0100
0000
0100
0010
0000
0010
1000
0000
1000
0010
0000
0000
,
0001
0000
0000
0000
0000
1000
0100
0000
1000
0000
0000
0000
0100
0000
0100
0001
0000
0001
0010
0000
0010
0001
0000
0000
,
1000
0000
0000
0000
0000
0001
0100
0000
0001
0000
0000
0000
0100
0000
0100
0010
0000
0010
0001
0000
0001
0010
0000
0000
,
1000
0000
0000
0000
0000
0010
0100
0000
0010
0000
0000
0000
0000
0000
0000
0001
0000
0000
0000
0000
0000
0001
0000
0000
,
0011
0010
0100
1000
0010
0110
1000
0010
,
0110
0000
0100
0001
0010
0000
0010
0000
0100
0000
1100
0000
0001
0000
0010
0000
,
0110
0110
0010
0001
1000
1100
0001
0010
,
0100
0000
0100
0010
0001
0000
1001
0000
0000
0001
0100
0000
1000
0010
0000
0010
,
0100
0000
0000
0000
0000
0000
0110
0000
0000
0001
0000
1000
0100
0000
0100
1000
0000
0001
0100
0000
0100
0004
0000
0000
,
0013
0000
0000
0000
0000
0000
0000
0000
0000
0000
0000
0000
0110
0000
0000
0000
0000
0000
0010
0000
0000
0000
0001
0000
1000
0000
0000
0001
0000
0000
0100
0000
0000
0001
0000
0000
1000
0000
0000
0100
0000
0000
0010
0000
0000
0100
0000
0000
,
1000
0000
0000
0000
0000
0000
1100
0000
0000
0001
0000
0010
0100
0000
0100
0001
0000
0100
0010
0000
0010
0004
0000
0000
,
1003
0000
0000
0000
0000
0000
0110
0000
0000
1000
0000
0001
0010
0000
0010
0001
0000
1000
0100
0000
0000
0000
0000
0000
,
1001
0000
0000
0000
0000
0001
0100
0000
0001
0000
0000
0000
1000
0000
1000
0100
0000
0010
0001
0000
0001
0010
0000
0000
,
0100
0000
0000
0000
0000
0000
0000
0000
0000
0000
0000
0000
0101
0000
0000
0000
0000
0000
1000
0000
0000
0000
0010
0000
0100
0000
0000
0010
0000
0000
0001
0000
0000
0010
0000
0000
0100
0000
0000
0010
0000
0000
1000
0000
0000
0010
0000
0000
,
0100
0000
0000
0000
0000
0000
0110
0000
0000
0001
0000
0010
0100
0000
0100
1000
0000
0001
0100
0000
0100
0004
0000
0000
,
0013
0000
0001
0010
0000
0000
0100
0000
0100
1000
0000
0100
0010
0000
0000
0010
0000
0100
1000
0000
0100
1000
0000
1000
,
0001
0100
0010
0100
1000
0001
0010
0100
,
0001
0000
1000
0000
0010
0000
1000
0000
0001
0010
0100
0010
1000
0010
0100
0010
,
0001
0000
0000
0000
0000
0000
1000
0000
0000
0000
0000
0000
0010
0000
0000
0000
0000
0000
0100
0000
0000
0000
0000
0000
M000
0000
0000
00M0
0000
0M00
0000
0000
000M
0000
0000
0000
1001
0000
0000
0000
0000
0000
0001
0000
0000
0000
0000
0000
,
0010
0001
0100
0010
0001
0010
0100
0001
,
0010
0100
0001
0100
0010
0001
1000
0010
,
0100
0000
0010
0000
1000
0001
0010
0001
0100
0001
0010
0001
1000
0000
0100
0000
,
0001
0000
0100
0000
0010
0000
0001
0000
0100
0000
0001
0000
1000
0000
0100
0010
,
1000
0000
1001
0000
0010
0100
1000
0000
0001
0010
0100
1000
0100
0000
1000
0000
,
0001
0000
0100
0000
0000
0000
0010
0000
0000
0100
0000
0001
0000
0000
0100
0010
0000
0000
0001
0000
0000
1000
0000
0000
,
0001
0000
0100
0000
0000
0001
1000
0000
0100
0000
0000
1100
0000
0000
0000
0000
0000
0000
0001
0000
0000
0010
0000
0000
,
1000
0000
0000
0000
0100
0000
0000
0000
0000
0000
0000
0000
0001
0000
0000
0000
0000
0000
0100
0000
0000
0000
0010
0000
0000
0000
0000
0000
0001
0000
0010
0000
0000
0001
0000
0000
1000
0000
0000
0100
0000
0000
1000
0000
0000
0000
0000
0000
,
0001
0000
0100
0000
0000
0000
1000
0000
0000
0100
0000
0000
1010
0000
0000
0000
1000
0000
0001
0000
0000
0100
0000
0000
,
0010
0000
0001
0000
0000
0000
1000
0000
0000
0001
0000
0010
0000
0000
0001
1000
0000
0000
0010
0000
0000
0100
0000
0000
,
0010
0000
0001
0000
0000
0010
0100
0000
0001
0000
0000
0101
0000
0000
0000
0000
0000
0000
0010
0000
0000
1000
0000
0000
,
0100
0000
0000
0000
0010
0000
0000
0000
0000
0000
0000
0000
1000
0000
0000
0000
0000
0000
0010
0000
0000
0000
0100
0000
0000
0000
0000
0000
0010
0000
1000
0000
0000
0010
0000
0000
0100
0000
0000
0001
0000
0000
0100
0000
0000
0000
0000
0000
,
0010
0000
0001
0000
0000
0010
0100
0000
0001
0000
0000
0101
0000
0000
0000
0010
0000
0000
0002
0000
0000
0000
0000
0000
,
0M00
0000
2003
0000
000M
3100
0020
0000
,
0M00
2030
0M00
3002
,
M0M0
0000
0023
0000
M00M
0130
0002
0000
,
0MM0
0000
2003
0000
0M0M
3010
0011
0001
,
1000
0000
0110
0000
0001
0000
1000
0000
0100
0000
0000
0000
0011
0000
0010
0100
,
1000
1010
0001
0010
0100
0000
1001
0001
,
0100
0000
1010
0000
0001
0000
0100
0000
0010
0000
0000
0000
0001
0000
1000
0100
,
1000
0000
0011
0000
0000
0100
1000
0000
0010
0100
0000
0100
0001
0000
0000
0000
;

//---------------dance-single - Geriatric Patrick----------------
#NOTES:
     dance-single:
     Geriatric Patrick:
     Hard:
     7:
     0.248,0.216,0.059,0.029,0.046:
0000
0000
0000
0000
,
0000
0000
0000
0000
,
0000
1000
0000
1000
0000
0001
0000
0001
,
0000
1000
0000
1000
0000
0001
0000
0001
,
0000
1000
0000
1000
0000
0001
0000
0001
,
0000
1000
0000
1000
0000
0001
0000
0001
,
0010
0100
0010
0000
0100
1000
0100
0000
,
0010
0001
1000
0001
0010
0100
1000
0000
,
0001
0100
0001
0000
0010
0100
0010
0000
,
0001
1000
0010
1000
0001
0010
0100
0000
,
1000
0010
0100
0010
,
1000
0001
0010
0001
,
1000
0100
0010
0100
,
1000
0001
0100
0001
,
1000
0100
0010
0001
1000
0100
0010
0100
,
1000
0010
0100
0001
1000
0010
0100
0000
,
0001
0010
0100
1000
0001
0100
0010
0100
,
0001
1000
0100
0010
0001
1000
0010
0000
,
0100
0001
0010
0100
1000
0100
0010
0001
,
0100
0001
0010
0001
1000
0001
0010
0000
,
0100
1000
0010
0100
0001
0100
0010
1000
,
0001
0010
0100
1000
0001
0010
0100
0000
,
1000
1000
0010
0010
0100
0001
0100
0000
,
0001
0001
1000
0001
0100
0010
0010
0000
,
0001
0010
0001
1000
1000
0010
0100
0000
,
1000
0001
0010
0001
1000
0001
0100
0000
,
1010
0000
0100
0001
0010
0001
0100
0000
,
1010
0000
0001
0010
0100
0010
0001
0000
,
0110
0000
0001
1000
0010
1000
0001
0000
,
0110
0000
1000
0001
0010
0001
1000
0000
,
0011
0000
0000
0000
0000
0000
1000
0000
0100
0000
0000
0000
0001
0000
0000
0010
0000
0000
0100
0000
0000
0010
0000
0000
,
0011
0000
1000
0010
0100
0010
1000
0000
,
1001
0000
0010
0100
0010
0001
1000
0000
,
1001
0000
0000
0001
0000
0000
0100
0000
0100
0000
0000
0000
0001
0000
0000
0000
0000
0100
0000
0000
0000
0000
0000
0000
,
0010
0000
0000
0000
0000
1000
0100
0000
0000
0000
0000
0000
1000
0000
0000
0001
0000
0000
0010
0000
0000
0001
0000
0000
,
0100
0000
0000
0000
0000
0001
1000
0000
0000
0000
0000
0000
0001
0000
0000
0100
0000
0000
0010
0000
0000
0100
0000
0000
,
0001
0000
0000
0000
0000
1000
0100
0000
0000
0000
0000
0000
1000
0000
0000
0010
0000
0000
0001
0000
0000
0010
0000
0000
,
0100
0000
0000
0000
0000
0010
1000
0000
0000
0000
0000
0000
0000
0000
0000
0001
0000
0000
0000
0000
0000
0001
0000
0000
,
0010
0001
0100
0010
1000
1000
0001
0000
,
0010
0000
0100
0000
0010
0000
0001
1000
0000
0001
1000
0000
0000
0000
0010
0000
,
0010
1000
0001
0010
0100
0100
1000
0000
,
0001
0100
0010
1000
0001
0010
0100
0000
,
0011
0000
1000
0010
0100
0001
0010
0000
,
0110
0000
0001
1000
0010
0100
1000
0000
,
0101
0000
1000
0010
0100
0001
0010
0000
,
1001
0000
0010
0001
0100
0010
0001
0000
,
1000
0000
0000
0000
0000
0001
0100
0000
0000
0000
0000
0000
1000
0000
0000
0001
0000
0000
0010
0000
0000
0001
0000
0000
,
1001
0000
0010
0100
1000
0001
0100
0000
,
1010
0000
0100
0001
0010
0100
1000
0000
,
0010
0000
0000
0010
0000
0000
1000
0000
1000
0000
0000
0000
0010
0000
0000
0000
0000
1000
0000
0000
0000
0000
0000
0000
,
0001
0010
0100
1000
0010
0100
0001
0000
,
0010
0100
0010
0001
0100
0001
1000
0100
,
0000
0010
0001
0010
0000
0000
1000
0010
,
0100
0001
1000
0100
0000
0000
0010
0010
,
0001
1000
0010
0100
0010
0000
1000
0100
,
0010
0100
1000
0001
0100
0000
0010
1000
,
0010
0100
0001
0010
0001
0000
1000
0010
,
0100
0100
0010
1000
0001
0000
0010
0100
,
0100
0000
1000
0000
0000
0000
0010
0000
0000
0100
0000
0000
0001
0000
0000
0100
0000
0000
0010
0000
0000
1000
0000
0000
,
1000
0000
0001
0000
0000
0000
0100
0000
0000
0000
0000
0100
0000
0000
0000
0000
0000
0000
0001
0000
0000
0010
0000
0000
,
0010
0000
0100
0000
0000
0000
1000
0000
0000
0010
0000
0000
0100
0000
0000
0010
0000
0000
1000
0000
0000
0001
0000
0000
,
0001
0000
0010
0000
0000
0000
0100
0000
0000
0010
0000
0000
0011
0000
0000
0000
0000
0000
1000
0000
0000
0010
0000
0000
,
0010
0000
0100
0000
0000
0000
1000
0000
0000
0001
0000
0000
0010
0000
0000
0100
0000
0000
1000
0000
0000
0001
0000
0000
,
0001
0000
0100
0000
0000
0000
0010
0000
0000
0000
0000
0010
0000
0000
0000
0000
0000
0000
0001
0000
0000
1000
0000
0000
,
1000
0000
0100
0000
0000
0000
0001
0000
0000
0010
0000
0000
0100
0000
0000
1000
0000
0000
0010
0000
0000
0100
0000
0000
,
0100
0000
0001
0000
0000
0000
1000
0000
0000
0000
0000
1000
0000
0000
0000
0000
0000
0000
0020
0000
0000
0000
0000
0000
,
0000
0000
0230
0000
0000
0301
2000
0000
,
0000
3200
0000
0320
,
0000
0000
0230
0000
0000
1300
0002
0000
,
0000
0000
0203
0000
0000
0310
0100
0001
,
0010
0001
1000
1000
0010
0000
0100
0001
,
0001
0000
0100
0010
0000
0100
0010
0000
0000
0000
0001
0000
1000
0000
0010
0000
,
1000
0001
0010
0010
0100
0000
0001
0100
,
0010
0010
0001
1000
0100
0000
0011
0000
;

//---------------dance-single - Geriatric Patrick----------------
#NOTES:
     dance-single:
     Geriatric Patrick:
     Medium:
     5:
     0.145,0.135,0.062,0.029,0.000:
0000
0000
0000
0000
,
0000
0000
0000
0000
,
0000
0000
0000
0000
,
0000
0000
0000
0000
,
0000
0000
0000
0000
,
0000
0000
0000
0000
,
0010
0001
0100
1000
,
0010
0001
0100
1000
,
0010
0001
0100
1000
,
0010
0001
0100
1000
,
0010
0010
0100
0100
,
1000
1000
0001
0001
,
0010
0010
0100
0100
,
0001
0001
1000
1000
,
0010
1000
0100
1000
,
0010
0100
0001
0100
,
0010
1000
0001
0010
,
0100
0010
0001
1000
,
0001
0010
0100
1000
,
0001
0100
0010
1000
,
0001
0010
1000
0100
,
0001
0100
1000
0010
,
0001
0010
0100
0100
,
1000
0010
0100
0100
,
0001
1000
0100
0100
,
0010
0001
0010
0100
,
1001
0001
0010
0100
,
1100
1000
0001
0100
,
0110
0010
1000
0001
,
0011
0010
0100
1000
,
0110
0000
0001
1000
,
1010
0010
0100
0001
,
0011
0010
0100
1000
,
0011
0000
0000
0000
,
1000
0000
0010
0100
,
0001
0000
1000
0100
,
0010
0000
0001
1000
,
0010
0000
0000
0000
0000
1000
0000
1000
,
0001
0000
0010
0000
0000
1000
0010
0000
,
0100
0000
0010
0000
0000
0100
0010
0000
,
1000
0000
0100
0000
0000
0001
0010
0000
,
0100
0000
0010
0010
0000
0100
0010
0000
,
1001
1000
0010
0100
,
0101
0001
1000
0100
,
0110
0010
0001
1000
,
1010
0010
0100
0001
,
0110
0000
1000
0001
,
0011
0010
0100
1000
,
1010
0010
0100
0001
,
000M
0000
0000
0000
,
1001
0010
0100
1000
,
0001
0100
0010
1000
,
0001
0010
0000
1000
,
0010
0100
0001
1000
,
0100
0001
0100
1000
,
0010
0001
0010
1000
,
0001
0010
0100
1000
,
1000
0001
0001
0100
,
0010
0100
0001
1000
,
0100
1000
0001
0010
,
0100
0010
0001
1000
,
0010
0100
0100
0001
,
1000
0100
1000
0001
,
0010
0100
0010
0001
,
1000
0010
1000
0001
,
0100
0010
0100
0002
,
0000
0023
0000
0230
,
0000
2300
0000
3002
,
0000
0203
0000
0320
,
0000
2030
0000
3001
,
0010
0000
0000
0001
0010
0000
0100
0000
,
1000
0000
0000
0100
0010
0000
1000
0000
,
0001
0000
0000
1000
0001
0000
0100
0000
,
0010
1000
0000
0100
0010
0000
1100
0000
;

//---------------dance-single - Geriatric Patrick----------------
#NOTES:
     dance-single:
     Geriatric Patrick:
     Easy:
     2:
     0.071,0.068,0.015,0.015,0.000:
0000
0000
0000
0000
,
0000
0000
0000
0000
,
0000
0000
0000
0000
,
0000
0000
0000
0000
,
0000
0000
0000
0000
,
0000
0000
0000
0000
,
0001
0000
0010
0000
,
0100
0000
1000
0000
,
0001
0000
0010
0000
,
0100
0000
1000
0000
,
0001
0000
0001
0000
,
0100
0000
0010
0000
,
1000
0000
1000
0000
,
0010
0000
0100
0000
,
0001
0000
1000
0000
,
0001
0000
0100
0000
,
0001
0000
1000
0000
,
0100
0000
0010
0000
,
1000
0000
0001
0000
,
1000
0000
0100
0000
,
1000
0000
0001
0000
,
0100
0000
0010
0000
,
0100
0000
0001
0000
,
0010
0000
0100
0000
,
1000
0000
0001
0000
,
0100
0000
0010
0000
,
0110
0000
0001
0000
,
0010
0000
0100
0000
,
0010
0000
1000
0000
,
0010
0000
0100
0000
,
1000
0000
0001
0000
,
1000
0000
0010
0000
,
1000
0000
0100
0000
,
1001
0000
0000
0000
,
0010
0000
0100
0000
,
0010
0000
0100
0000
,
0010
0000
0100
0000
,
0010
0000
0000
0000
,
0001
0000
1000
0000
,
0010
0000
0100
0000
,
0001
0000
1000
0000
,
0100
0000
0010
0000
,
0110
0000
1000
0000
,
0010
0000
0100
0000
,
0010
0000
0001
0000
,
0010
0000
0100
0000
,
0001
0000
1000
0000
,
0001
0000
0010
0000
,
0001
0000
0100
0000
,
0000
0000
0000
0000
,
1000
0000
0100
0000
,
0010
0000
0001
0000
,
1000
0000
0000
0010
,
0000
0100
0000
0001
,
0000
0010
0000
0100
,
0000
1000
0000
0010
,
0000
1000
0000
0100
,
0000
0010
0000
1000
,
0000
0001
0000
1000
,
0000
0100
0000
1000
,
0000
0001
0000
0100
,
0000
0010
0000
0001
,
0000
1000
0000
0001
,
0000
0100
0000
0001
,
0000
1000
0000
0100
,
0000
0010
0000
0200
,
0000
0300
0000
2000
,
0000
3000
0000
0002
,
0000
0003
0000
0200
,
0000
0300
0000
0001
,
0000
0010
0000
0100
,
0000
1000
0000
0001
,
0000
0010
0000
0100
,
0000
1000
0000
1001
;
