#TITLE:Beer!;
#SUBTITLE:;
#ARTIST:Psychostick;
#TITLETRANSLIT:;
#SUBTITLETRANSLIT:;
#ARTISTTRANSLIT:;
#GENRE:;
#CREDIT:;
#BANNER:Beer!-bn.png;
#BACKGROUND:Beer!-bg.png;
#LYRICSPATH:;
#CDTITLE:;
#MUSIC:Beer!.ogg;
#OFFSET:0.888;
#SAMPLESTART:8.995;
#SAMPLELENGTH:11.800;
#SELECTABLE:YES;
#BPMS:0.000=121.000,24.000=123.000,32.000=124.000,36.000=123.000,40.000=120.000,44.000=121.000,48.000=124.000,50.000=248.000,57.000=251.000,62.000=254.000,68.000=252.000,72.000=126.000,74.000=252.000,82.000=254.000,90.000=256.000,94.000=256.000,98.000=253.000,102.000=122.000,110.000=121.000,118.000=122.000,126.000=124.000,134.000=123.000,149.000=253.000,161.000=252.000,171.000=126.000,173.000=248.000,181.000=252.000,189.000=256.000,201.000=251.000,210.000=253.000,218.000=255.000,226.000=257.000,234.000=256.000,242.000=255.000,250.000=254.000,258.000=253.000,266.000=126.000,274.000=256.000,290.000=258.000,306.000=260.000,338.000=258.000;
#STOPS:50.000=0.726
,53.000=0.242
,56.000=0.242
,59.000=0.478
,61.000=0.239
,64.000=0.236
,67.000=0.236
,102.000=0.484
,149.000=0.750
,152.000=0.236
,155.000=0.236
,158.000=0.472
,160.000=0.236
,163.000=0.238
,166.000=0.238
,201.000=0.698
;
#SCROLLS:0.000=1.000;
#TIMESIGNATURES:0.000=4=4;
#BGCHANGES:19.000=Beer!.avi=1.000=0=0=1=====,
246.500=Beer!-bg.png=1.000=0=0=1=====,
99999=-nosongbg-=1.000=0=0=0 // don't automatically add -songbackground-
;
#KEYSOUNDS:;

//---------------dance-single - Geriatric Patrick----------------
#NOTES:
     dance-single:
     Geriatric Patrick:
     Challenge:
     9:
     0.691,0.692,0.705,0.017,0.059:
0000
0000
0000
0000
,
0000
0000
0000
0000
,
0000
0000
0000
0000
,
0000
0000
0000
0000
,
1000
0000
0000
0001
0000
0000
1000
0000
0000
0001
0000
0000
1000
0000
0000
0001
1000
0001
0010
0000
0000
0000
0000
0000
,
0001
1000
0100
1000
0001
0100
0001
0000
,
0010
0000
0000
0100
0000
0000
1000
0000
0000
0100
0000
0000
0010
0000
0000
0001
0000
0000
0010
0000
0000
0001
1000
0001
,
1000
0010
0100
1000
0100
0001
0100
0000
,
0010
0000
0000
0001
0000
0000
0010
0000
0000
0100
0000
0000
1000
0000
0000
0001
0000
0000
1000
0000
0000
0100
0010
0100
,
0010
0001
1000
0010
1000
0001
0100
0000
,
1000
0100
1000
0001
0010
0100
0010
0000
,
0001
1000
0010
1000
0100
1000
0010
0000
,
0100
0010
0001
0010
1000
0000
0011
0000
,
0110
0011
0110
1001
,
1100
1010
1010
0110
,
1010
0000
0101
0000
1000
0100
0010
0001
,
0011
0000
1000
0010
0100
0010
1010
0000
,
1000
0001
0100
0001
0011
0000
0100
0000
,
0011
0000
0000
0000
1000
0010
0100
0010
,
1000
0001
0010
0001
1000
0100
0010
0001
,
1000
0001
0010
0100
1000
0001
0100
0001
,
0010
0100
1000
0100
0010
0001
0100
0010
,
1000
0010
0100
0001
0010
0100
0001
0100
,
0010
0001
0100
0001
0010
0100
1000
0010
,
0001
0010
1000
0100
0010
1000
0010
0100
,
0010
0001
0010
0100
0001
0000
1000
1000
,
0001
1000
0100
0100
0010
1000
0000
0001
,
0100
0000
0000
0000
0000
0000
0010
0000
0000
0010
0000
0000
0100
0000
0000
0001
1000
0001
1000
0000
0000
0010
0000
0000
,
0100
0000
0001
0100
0010
0001
0000
1000
,
0100
0000
0000
0000
0000
0000
1000
0000
0000
1000
0000
0000
0100
0000
0000
1000
0001
1000
0001
0000
0000
0100
0000
0000
,
0010
0100
0001
1000
0100
1000
0001
0010
,
0001
0000
0000
1000
0000
0000
0100
0000
0000
1000
0000
0000
0010
0000
0000
1000
0001
1000
0001
0000
0000
0010
0000
0000
,
0100
1000
0001
1000
0100
0000
0010
1000
,
0010
0000
0000
0100
0000
0000
1000
0000
0000
0100
0000
0000
0001
0000
0000
0100
0010
0100
0010
0000
0000
0001
0000
0000
,
0010
0100
0001
1000
0001
0000
1000
0100
,
0001
0100
1000
0010
0100
0000
1000
0010
,
0100
0001
1000
0001
0100
0000
1000
0100
,
0010
0001
0010
0000
0110
0000
0110
0000
,
0011
1100
0110
0011
,
1010
0101
1001
1100
,
1001
0000
1000
0100
1000
0001
0011
0000
,
0010
0001
0100
0001
1001
0000
0001
0100
,
0010
1000
1001
0000
0010
0000
0001
1000
,
0001
0010
0001
0100
0010
1000
0001
0010
,
0100
1000
0010
1000
0100
0010
0001
0100
,
0010
1000
0100
1000
0001
0100
0010
1000
,
0001
0010
0100
0010
0001
0100
0010
1000
,
0100
0010
0001
1000
0010
0100
1000
0100
,
0010
1000
0001
1000
0100
0010
1000
0010
,
0100
1000
0001
0100
1000
0100
0001
0100
,
1000
0100
0001
0000
1M1M
0000
MM1M
0000
,
M1MM
MMM1
MM11
MM1M
,
M1MM
1MMM
1MM1
MMM1
,
M1MM
MM1M
1M1M
MMM1
,
1MMM
MMM1
11MM
M1MM
,
MM1M
MMM1
1MM1
1MMM
,
MM1M
M1MM
M1M1
MMM1
,
1MMM
M1MM
M11M
MMM1
,
1MMM
MMM1
1M1M
1MMM
,
MMM1
MM1M
M11M
M1MM
,
1MMM
MMM1
M1M1
M1MM
,
MM1M
1MMM
1MM1
M1MM
,
MM1M
M1MM
1MM1
MMM1
,
MM1M
M1MM
11MM
1MMM
,
MM1M
M1MM
M1M1
MMM1
,
MM1M
M1MM
M1M1
MM1M
,
M1M1
0000
0000
0000
1000
0100
1000
0010
,
0100
0001
0100
0010
1000
0100
1000
0010
,
0100
1000
0100
0000
22M1
0000
00MM
0000
,
00M1
00MM
0011
00MM
,
00M1
00MM
00M1
00MM
,
00M1
00MM
0011
00MM
,
00M1
00MM
00M1
00MM
,
00M1
00MM
0011
00MM
,
00M1
00MM
00M1
00MM
,
00M1
00MM
3311
0000
,
0011
0000
1MM1
11MM
,
1MMM
M1MM
M11M
11MM
,
M1MM
1MMM
1MM1
M1M1
,
M1MM
MMM1
1MM1
MM1M
,
M11M
MMM1
MM11
1MM1
,
1MMM
MMM1
M1M1
1MM1
,
1MMM
M1MM
M11M
11MM
,
1MMM
M1MM
M11M
MMM1
,
MM1M
M1MM
1MM1
M1M1
,
M1MM
MM1M
1MM1
1M1M
,
MM1M
M1MM
1M1M
1MM1
,
MMM1
M1MM
1M1M
MM1M
,
M1M1
M1MM
1MM1
11MM
,
MMM1
M1MM
1M1M
M11M
,
MMM1
1MMM
11MM
M11M
,
1MM1
MM11
11MM
0000
;

//---------------dance-single - ----------------
#NOTES:
     dance-single:
     :
     Hard:
     8:
     0.583,0.615,0.605,0.210,0.008:
0000
0000
0000
0000
,
0000
0000
0000
0000
,
0000
0000
0000
0000
,
0000
0000
0000
0000
,
0001
0000
0000
0000
0000
0000
0001
0000
0000
0000
0000
0000
0001
0000
0000
1000
0001
1000
0001
0000
0000
0000
0000
0000
,
0100
0001
0010
0001
0100
0001
0010
0000
,
1000
0100
0010
0100
1000
0100
0010
0000
,
0001
1000
0010
1000
0001
1000
0100
0000
,
0010
0001
0010
0100
1000
0001
1000
0000
,
0010
1000
0001
0010
0100
1000
0100
0000
,
1000
0001
0100
0001
1000
0001
0010
0000
,
0100
0010
0001
0010
0100
0010
0001
0000
,
1000
0010
1000
0001
0100
0000
1010
0000
,
0010
0100
1010
1000
,
0001
1010
0001
0100
,
0011
0000
0011
0000
1000
0100
1000
0100
,
1000
0000
0010
0100
0010
0100
0010
0000
,
1000
0010
1000
0010
1000
0000
0001
0000
,
0010
0000
2200
0000
,
0001
0000
0000
0001
3320
0000
0000
0000
,
0001
0000
0000
0001
2230
0000
0000
0000
,
0001
0000
0000
0001
3320
0000
0000
0000
,
0001
0000
2230
0000
,
3302
0000
2203
0000
,
3320
0000
0131
0010
,
0101
0000
0010
0000
0101
0000
1000
0100
,
0010
0000
0100
1000
0010
0100
0000
0100
,
0010
0000
1000
0001
0010
0100
0100
1000
,
0010
0000
1000
0100
0010
0100
0000
0100
,
0010
0000
0001
1000
0010
0100
0100
0001
,
0100
0010
0100
0001
1000
0001
0100
0010
,
1000
0010
0100
0001
0010
0001
1000
0100
,
0010
0100
1000
0001
0010
0000
1000
0010
,
1000
0001
0010
0100
0010
0000
0001
1000
,
0010
1000
0100
0010
0100
0000
1000
0010
,
0100
0001
0010
0001
0010
0000
1000
0010
,
0100
0010
1000
0001
1000
0000
0010
1000
,
0100
0010
0100
0000
1001
0000
0001
0000
,
0010
1100
0100
0010
,
1001
0100
0010
1010
,
1010
0000
0001
0100
0001
0100
0010
0000
,
0100
0001
0100
0001
1000
0000
0100
1000
,
0100
1000
0001
0000
1000
0000
00M0
000M
,
00M0
M000
0202
0000
0000
0000
1000
0000
,
0000
1000
0323
0000
0000
0000
1000
0000
,
0000
1000
0232
0000
0000
0000
1000
0000
,
0000
1000
0323
0000
0000
0000
1000
0000
,
0000
0232
0000
2303
,
0000
3202
0000
0323
,
0000
1130
0010
1100
,
0010
1100
1010
0010
,
0100
0001
0011
0010
,
0100
1000
1001
0001
,
0100
0010
1010
0001
,
1000
0001
1100
0100
,
0010
0001
1001
1000
,
0010
0100
0101
0001
,
1000
0100
0110
0001
,
1000
0001
1010
1000
,
0001
0010
0110
0100
,
1000
0001
0101
0100
,
0010
1000
1001
0100
,
0010
0100
1001
0001
,
0010
0100
1100
1000
,
0010
0100
0101
0001
,
0010
0100
0101
0010
,
0101
0000
0000
0000
1000
0100
0010
0000
,
0100
0100
1000
0000
0001
0100
0010
0000
,
0000
0001
1000
0000
M2M1
0000
000M
0000
,
0001
000M
M01M
000M
,
0001
000M
M0M1
000M
,
0001
000M
10MM
000M
,
0001
000M
M0M1
000M
,
0001
000M
M01M
000M
,
0001
000M
M0M1
000M
,
0001
000M
13MM
0000
,
1000
0000
1MM1
1MM1
,
1000
0100
M11M
M11M
,
0100
1000
1MM1
1MM1
,
0001
0100
1M1M
0010
,
M100
0010
1M1M
1M1M
,
1000
0001
MM11
MM11
,
0001
1000
11MM
11MM
,
0100
0010
1MM1
0001
,
1000
0001
1MM1
1MM1
,
1000
0100
MM11
MM11
,
0001
0100
M11M
M11M
,
0001
1000
11MM
0100
,
M001
0100
11MM
11MM
,
0001
0100
M11M
M11M
,
0001
1000
11MM
11MM
,
M11M
M11M
1MM1
0000
;

//---------------dance-single - ----------------
#NOTES:
     dance-single:
     :
     Beginner:
     3:
     0.206,0.307,0.235,0.101,0.000:
0000
0000
0000
0000
,
0000
0000
0000
0000
,
0000
0000
0000
0000
,
0000
0000
0000
0000
,
0000
0000
0000
0000
,
0001
0001
0001
0001
,
1000
1000
1000
1000
,
0001
0001
0001
0001
,
0010
0010
0010
0010
,
1000
1000
1000
1000
,
0100
0100
0100
0100
,
0010
0010
0010
0010
,
0100
0100
0100
0001
,
0000
0000
0001
0000
,
0000
0001
0000
0000
,
0000
0000
1001
0000
,
0000
1001
0000
0000
,
1001
0000
0000
0000
,
0001
0000
0020
0000
,
0000
0000
0030
0000
,
0000
0000
0020
0000
,
0000
0000
0030
0000
,
0000
0000
0020
0000
,
0030
0000
0020
0000
,
0030
0000
0010
0000
,
0010
0000
0010
0000
,
0100
0000
0010
0000
,
0100
0000
1000
0000
,
0001
0000
0010
0000
,
0001
0000
1000
0010
,
0010
0010
0010
1000
,
1000
1000
1000
0001
,
0001
0010
0010
0001
,
0001
1000
1000
0010
,
0010
0010
0010
0100
,
0100
0100
0100
0001
,
0001
1000
1000
0001
,
0001
0010
0100
0000
,
0000
0100
0000
0000
,
0100
0000
0000
0000
,
0000
0110
0000
0000
,
0110
0000
0000
0110
,
0000
0000
0000
0000
,
0000
2002
0000
0000
,
0000
3003
0000
0000
,
0000
2002
0000
0000
,
0000
3003
0000
0000
,
0000
0002
0000
0003
,
0000
2000
0000
3000
,
0000
1001
0000
1001
,
0000
1001
1001
0000
,
0000
0000
0010
0000
,
0000
0000
0000
0000
,
0000
0000
0010
0000
,
0000
0000
0100
0000
,
0000
0000
0010
0000
,
0000
0000
0000
0000
,
0000
0000
0010
0000
,
0000
0000
0001
0000
,
0000
0000
0010
0000
,
0000
0000
0000
0000
,
0000
0000
0010
0000
,
0000
0000
1000
0000
,
0000
0000
0010
0000
,
0000
0000
0000
0000
,
0000
0000
0110
0000
,
0110
0000
0000
0001
,
0000
0010
0000
0001
,
0000
1000
2002
0000
,
0000
0000
0000
0000
,
0000
0000
0000
0000
,
0000
0000
0000
0000
,
0000
0000
0000
0000
,
0000
0000
0000
0000
,
0000
0000
0000
0000
,
0000
0000
3003
0000
,
0000
0000
1001
0000
,
0000
0000
1001
0000
,
0000
0000
1001
0000
,
0000
0000
0110
0000
,
0000
0000
1001
0000
,
0000
0000
1001
0000
,
0000
0000
1001
0000
,
0000
0000
0100
0000
,
0000
0000
0110
0000
,
0000
0000
0110
0000
,
0000
0000
0110
0000
,
0000
0000
1001
0000
,
0000
0000
0110
0000
,
0000
0000
0110
0000
,
0000
0000
0001
0000
,
1000
0000
0001
0000
;
