#TITLE:Beautiful Lies;
#SUBTITLE:15-Minute Stamina Challenge;
#ARTIST:b-complex;
#TITLETRANSLIT:;
#SUBTITLETRANSLIT:;
#ARTISTTRANSLIT:;
#GENRE:;
#CREDIT:;
#BANNER:Beautiful Lies-bn.png;
#BACKGROUND:Beautiful Lies-bg.png;
#LYRICSPATH:;
#CDTITLE:;
#MUSIC:BL15MSC.ogg;
#OFFSET:-0.665;
#SAMPLESTART:88.900;
#SAMPLELENGTH:21.700;
#SELECTABLE:YES;
#BPMS:0.000=87.000,80.000=43.500,96.000=174.000,220.000=87.000,222.000=174.000,282.000=87.000,284.000=174.000,600.000=87.000,602.000=174.000,662.000=87.000,664.000=174.000,980.000=87.000,982.000=174.000,1042.000=87.000,1044.000=174.000,1360.000=87.000,1362.000=174.000,1422.000=87.000,1424.000=174.000,1740.000=87.000,1742.000=174.000,1802.000=87.000,1804.000=174.000,2120.000=87.000,2122.000=174.000,2182.000=87.000,2184.000=174.000;
#STOPS:;
#BGCHANGES:;
#KEYSOUNDS:;

//---------------dance-single - Geriatric Patrick----------------
#NOTES:
     dance-single:
     Geriatric Patrick:
     Challenge:
     10:
     1.000,1.000,0.183,0.026,0.128:
0000
0000
0000
0000
,
0000
0000
0000
0000
,
0000
0000
0000
0000
,
0000
0000
0000
0000
,
0001
0000
0100
0010
0001
0010
0100
0001
1000
0100
0001
0000
0110
0100
1000
0010
,
0100
0000
1000
0100
0010
1000
0100
0001
0100
1000
0010
0000
0110
0100
0001
1000
,
0100
0000
0010
0100
0001
0100
0010
0001
1000
0100
0001
0000
0110
0100
1000
0010
,
0100
0000
1000
0100
0010
1000
0100
0001
0100
0010
0001
0000
0110
0100
1000
0001
,
1000
0000
0010
0100
1000
0100
0010
1000
0001
0010
1000
0000
0110
0010
0001
0100
,
0010
0000
0001
0010
0100
0001
0010
1000
0010
0001
0100
0000
0110
0010
1000
0001
,
0010
0000
0100
0010
1000
0010
0100
1000
0001
0010
1000
0000
0110
0010
0001
0100
,
0010
0000
0001
0010
0100
0001
0010
1000
0010
0100
1000
0000
0110
0010
0001
1000
,
0001
0000
0000
1000
1100
0000
0000
0001
0000
1000
0001
0000
0101
1000
0000
1000
,
1000
0000
0000
0001
0011
0000
0000
1000
0000
0001
1000
0000
1010
0001
0000
0001
,
0100
0000
0000
0001
0011
0000
0000
0100
0000
0010
0100
0000
1010
1000
0000
1000
,
0100
0000
0000
1000
1010
0000
0000
0001
0000
1000
0001
0000
0101
0010
0000
0001
,
1000
0000
0000
0001
0011
0000
0000
1000
0000
0001
1000
0000
1010
0001
0000
1000
,
1000
0000
0000
0001
1100
0000
0000
0001
0000
1000
0001
0000
0101
1000
0000
1000
,
0010
0000
0000
0001
0101
0000
0000
1000
0000
0010
1000
0000
0101
0001
0000
1000
,
0100
0000
0000
0001
0010
0000
0000
1000
0000
0001
1000
0000
0010
0001
0100
1000
,
0000
0000
0000
0000
,
0000
0000
0000
0000
,
0000
0000
0000
0000
,
0000
0000
0000
0000
,
0010
0001
1000
0010
0100
0001
0010
0100
,
1000
0010
1000
0001
0010
0001
1000
0010
,
1000
0100
0010
0001
1000
0010
0100
0001
,
0010
0100
1000
0010
0100
0001
1000
0100
,
0010
0001
0100
0010
1000
0100
0010
0001
,
1000
0010
0100
0001
0010
0100
1000
0010
,
1000
0001
0010
0100
1000
0001
0100
0010
,
1000
0100
0010
0001
0100
0010
1000
0001
,
0010
0100
1000
0010
0100
0001
0010
0100
,
1000
0010
1000
0001
0010
0100
1000
0010
,
1000
0100
0010
0001
0100
0010
1000
0001
,
0010
0100
1000
0010
0100
0001
0010
0100
,
1000
0001
0100
0010
1000
0100
0010
0001
,
1000
0010
0100
0001
0010
0001
1000
0010
,
1000
0001
0010
0100
1000
0010
0100
0001
,
1MM1
M1M1
1M1M
M1M1
,
1000
0100
0010
0001
0100
0010
1000
0100
,
0010
0001
1000
0100
0010
0001
0100
0010
,
1000
0100
0010
0001
0100
0010
1000
0100
,
0010
0001
1000
0001
0010
0001
0100
0001
,
0010
0100
1000
0010
0100
0001
1000
0010
,
0100
0001
1000
0100
0010
0001
1000
0100
,
0010
0001
0100
0010
1000
0100
0010
0001
,
1000
0010
0100
0010
1000
0001
0010
0001
,
1000
0100
0010
0001
1000
0010
0100
0001
,
1000
0010
0100
0001
0010
0100
1000
0001
,
0100
0010
1000
0001
0100
0010
1000
0100
,
0010
0001
0100
0001
1000
0010
0100
0010
,
1000
0001
0010
0100
1000
0010
0100
0001
,
0010
0100
1000
0001
0010
0100
1000
0001
,
0100
0010
1000
0001
0100
0010
1000
0100
,
0010
0001
1000
0001
1000
0001
1000
0001
0010
0000
0100
0000
1000
0000
0010
0000
,
1000
0100
0001
0100
0010
0001
0100
0010
,
1000
0001
0010
0100
0001
0100
1000
0001
,
1000
0100
0001
0100
0010
0001
1000
0100
,
0010
0001
1000
0010
0100
0001
1000
0010
,
1000
0100
0001
0100
1000
0001
0100
0010
,
1000
0001
0100
0010
0001
0010
1000
0001
,
1000
0100
0001
0100
1000
0010
0100
0001
,
1000
0100
0010
0001
1000
0010
0100
1000
,
0100
0010
1000
0001
0010
0100
1000
0010
,
0100
0001
0010
0100
0001
0100
1000
0001
,
0100
0010
0001
0010
1000
0001
0010
0100
,
1000
0010
0100
0001
1000
0100
0010
1000
,
0010
0001
1000
0001
0010
0100
1000
0001
,
0100
0010
1000
0100
0001
0100
0010
0001
,
1000
0010
0001
0010
0100
0000
0010
0000
,
0100
0001
1000
0100
0010
0001
0100
0010
,
1000
0100
1000
0001
0100
0001
1000
0100
,
1000
0010
0100
0001
1000
0100
0010
0001
,
0100
0010
1000
0100
0010
0001
1000
0010
,
0100
0001
0010
0100
1000
0010
0100
0001
,
1000
0100
0010
0001
0100
0010
1000
0100
,
1000
0001
0100
0010
1000
0001
0010
0100
,
1000
0010
0100
0001
0010
0100
1000
0001
,
0100
0010
1000
0100
0010
0001
0100
0010
,
1000
0100
1000
0001
0100
0010
1000
0100
,
1000
0010
0100
0001
0010
0100
1000
0001
,
0100
0010
1000
0100
0010
0001
0100
0010
,
1000
0001
0010
0100
1000
0010
0100
0001
,
1000
0100
0010
0001
0100
0001
1000
0100
,
1000
0001
0100
0010
1000
0100
0010
0001
,
0100
0010
1000
0001
0010
0100
1000
0001
,
0100
0010
1000
0100
0010
0001
0100
0010
,
1000
0001
0010
0100
1000
0001
0100
0010
,
1000
1000
0100
0100
0010
0010
0100
0100
,
1000
0001
0100
0010
1000
0100
0010
0001
,
1000
1000
0010
0100
0100
0001
0100
0010
,
1000
1000
0001
0010
0010
0001
1000
0010
,
0100
0001
0010
0100
1000
0001
0010
0100
,
1000
0010
0100
0001
0010
0100
1000
0001
,
0100
0010
1000
0001
0010
0100
1000
0001
,
0100
0010
1000
0100
0010
0001
1000
0010
,
0100
0100
0001
0001
0100
0100
0010
0010
,
0100
0001
0010
0100
1000
0001
0100
0010
,
1000
1000
0001
0010
0010
0100
0010
0001
,
0100
0100
0010
1000
1000
0001
1000
0010
,
0100
0001
0010
0100
1000
0001
0010
0100
,
1000
0010
0100
0001
1000
0100
0010
0001
,
1000
0010
0100
0001
0010
0100
1000
0010
,
0100
0001
1000
0010
0100
0001
0010
0100
,
1000
0010
0100
0001
0010
0100
1000
0010
,
0100
0001
1000
0001
0100
0001
0010
0001
,
0100
0010
1000
0100
0010
0001
1000
0100
,
0010
0001
1000
0010
0100
0001
1000
0010
,
0100
0001
0010
0100
1000
0010
0100
0001
,
1000
0100
0010
0100
1000
0001
0100
0001
,
1000
0010
0100
0001
1000
0100
0010
0001
,
1000
0100
0010
0001
0100
0010
1000
0001
,
0010
0100
1000
0001
0010
0100
1000
0010
,
0100
0001
0010
0001
1000
0100
0010
0100
,
1000
0001
0100
0010
1000
0100
0010
0001
,
0100
0010
1000
0001
0100
0010
1000
0001
,
0010
0100
1000
0001
0010
0100
1000
0010
,
0200
0002
1000
0013
,
0310
1000
0001
0010
0100
1000
0010
0100
,
0001
0010
0001
1000
0010
1000
0001
0010
,
0001
0100
0010
1000
0001
0010
0100
1000
,
0010
0100
0001
0010
0100
1000
0001
0100
,
0010
1000
0100
0010
0001
0100
0010
1000
,
0001
0010
0100
1000
0010
0100
0001
0010
,
0001
1000
0010
0100
0001
1000
0100
0010
,
0001
0100
0010
1000
0100
0010
0001
1000
,
0010
0100
0001
0010
0100
1000
0010
0100
,
0001
0010
0001
1000
0010
0100
0001
0010
,
0001
0100
0010
1000
0100
0010
0001
1000
,
0010
0100
0001
0010
0100
1000
0010
0100
,
0001
1000
0100
0010
0001
0100
0010
1000
,
0001
0010
0100
1000
0010
1000
0001
0010
,
0001
1000
0010
0100
0001
0010
0100
1000
,
1MM1
11MM
MM11
11MM
,
0001
0100
0010
1000
0100
0010
0001
0100
,
0010
1000
0001
0100
0010
1000
0100
0010
,
0001
0100
0010
1000
0100
0010
0001
0100
,
0010
1000
0001
1000
0010
1000
0100
1000
,
0010
0100
0001
0010
0100
1000
0001
0010
,
0100
1000
0001
0100
0010
1000
0001
0100
,
0010
1000
0100
0010
0001
0100
0010
1000
,
0001
0010
0100
0010
0001
1000
0010
1000
,
0001
0100
0010
1000
0001
0010
0100
1000
,
0001
0010
0100
1000
0010
0100
0001
1000
,
0100
0010
0001
1000
0100
0010
0001
0100
,
0010
1000
0100
1000
0001
0010
0100
0010
,
0001
1000
0010
0100
0001
0010
0100
1000
,
0010
0100
0001
1000
0010
0100
0001
1000
,
0100
0010
0001
1000
0100
0010
0001
0100
,
0010
1000
0001
1000
0001
1000
0001
1000
0010
0000
0100
0000
0001
0000
0010
0000
,
0001
0100
1000
0100
0010
1000
0100
0010
,
0001
1000
0010
0100
1000
0100
0001
1000
,
0001
0100
1000
0100
0010
1000
0001
0100
,
0010
1000
0001
0010
0100
1000
0001
0010
,
0001
0100
1000
0100
0001
1000
0100
0010
,
0001
1000
0100
0010
1000
0010
0001
1000
,
0001
0100
1000
0100
0001
0010
0100
1000
,
0001
0100
0010
1000
0001
0010
0100
0001
,
0100
0010
0001
1000
0010
0100
0001
0010
,
0100
1000
0010
0100
1000
0100
0001
1000
,
0100
0010
1000
0010
0001
1000
0010
0100
,
0001
0010
0100
1000
0001
0100
0010
0001
,
0010
1000
0001
1000
0010
0100
0001
1000
,
0100
0010
0001
0100
1000
0100
0010
1000
,
0001
0010
1000
0010
0100
0000
0010
0000
,
0100
1000
0001
0100
0010
1000
0100
0010
,
0001
0100
0001
1000
0100
1000
0001
0100
,
0001
0010
0100
1000
0001
0100
0010
1000
,
0100
0010
0001
0100
0010
1000
0001
0010
,
0100
1000
0010
0100
0001
0010
0100
1000
,
0001
0100
0010
1000
0100
0010
0001
0100
,
0001
1000
0100
0010
0001
1000
0010
0100
,
0001
0010
0100
1000
0010
0100
0001
1000
,
0100
0010
0001
0100
0010
1000
0100
0010
,
0001
0100
0001
1000
0100
0010
0001
0100
,
0001
0010
0100
1000
0010
0100
0001
1000
,
0100
0010
0001
0100
0010
1000
0100
0010
,
0001
1000
0010
0100
0001
0010
0100
1000
,
0001
0100
0010
1000
0100
1000
0001
0100
,
0001
1000
0100
0010
0001
0100
0010
1000
,
0100
0010
0001
1000
0010
0100
0001
1000
,
0100
0010
0001
0100
0010
1000
0100
0010
,
0001
1000
0010
0100
0001
1000
0100
0010
,
0001
0001
0100
0100
0010
0010
0100
0100
,
0001
1000
0100
0010
0001
0100
0010
1000
,
0001
0001
0010
0100
0100
1000
0100
0010
,
0001
0001
1000
0010
0010
1000
0001
0010
,
0100
1000
0010
0100
0001
1000
0010
0100
,
0001
0010
0100
1000
0010
0100
0001
1000
,
0100
0010
0001
1000
0010
0100
0001
1000
,
0100
0010
0001
0100
0010
1000
0001
0010
,
0100
0100
1000
1000
0100
0100
0010
0010
,
0100
1000
0010
0100
0001
1000
0100
0010
,
0001
0001
1000
0010
0010
0100
0010
1000
,
0100
0100
0010
0001
0001
1000
0001
0010
,
0100
1000
0010
0100
0001
1000
0010
0100
,
0001
0010
0100
1000
0001
0100
0010
1000
,
0001
0010
0100
1000
0010
0100
0001
0010
,
0100
1000
0001
0010
0100
1000
0010
0100
,
0001
0010
0100
1000
0010
0100
0001
0010
,
0100
1000
0001
1000
0100
1000
0010
1000
,
0100
0010
0001
0100
0010
1000
0001
0100
,
0010
1000
0001
0010
0100
1000
0001
0010
,
0100
1000
0010
0100
0001
0010
0100
1000
,
0001
0100
0010
0100
0001
1000
0100
1000
,
0001
0010
0100
1000
0001
0100
0010
1000
,
0001
0100
0010
1000
0100
0010
0001
1000
,
0010
0100
0001
1000
0010
0100
0001
0010
,
0100
1000
0010
1000
0001
0100
0010
0100
,
0001
1000
0100
0010
0001
0100
0010
1000
,
0100
0010
0001
1000
0100
0010
0001
1000
,
0010
0100
0001
1000
0010
0100
0001
0010
,
0200
2000
0001
3010
,
0310
0001
1000
0010
0100
0001
0010
0100
,
1000
0010
1000
0001
0010
0001
1000
0010
,
1000
0100
0010
0001
1000
0010
0100
0001
,
0010
0100
1000
0010
0100
0001
1000
0100
,
0010
0001
0100
0010
1000
0100
0010
0001
,
1000
0010
0100
0001
0010
0100
1000
0010
,
1000
0001
0010
0100
1000
0001
0100
0010
,
1000
0100
0010
0001
0100
0010
1000
0001
,
0010
0100
1000
0010
0100
0001
0010
0100
,
1000
0010
1000
0001
0010
0100
1000
0010
,
1000
0100
0010
0001
0100
0010
1000
0001
,
0010
0100
1000
0010
0100
0001
0010
0100
,
1000
0001
0100
0010
1000
0100
0010
0001
,
1000
0010
0100
0001
0010
0001
1000
0010
,
1000
0001
0010
0100
1000
0010
0100
0001
,
1MM1
M1M1
1M1M
M1M1
,
1000
0100
0010
0001
0100
0010
1000
0100
,
0010
0001
1000
0100
0010
0001
0100
0010
,
1000
0100
0010
0001
0100
0010
1000
0100
,
0010
0001
1000
0001
0010
0001
0100
0001
,
0010
0100
1000
0010
0100
0001
1000
0010
,
0100
0001
1000
0100
0010
0001
1000
0100
,
0010
0001
0100
0010
1000
0100
0010
0001
,
1000
0010
0100
0010
1000
0001
0010
0001
,
1000
0100
0010
0001
1000
0010
0100
0001
,
1000
0010
0100
0001
0010
0100
1000
0001
,
0100
0010
1000
0001
0100
0010
1000
0100
,
0010
0001
0100
0001
1000
0010
0100
0010
,
1000
0001
0010
0100
1000
0010
0100
0001
,
0010
0100
1000
0001
0010
0100
1000
0001
,
0100
0010
1000
0001
0100
0010
1000
0100
,
0010
0001
1000
0001
1000
0001
1000
0001
0010
0000
0100
0000
1000
0000
0010
0000
,
1000
0100
0001
0100
0010
0001
0100
0010
,
1000
0001
0010
0100
0001
0100
1000
0001
,
1000
0100
0001
0100
0010
0001
1000
0100
,
0010
0001
1000
0010
0100
0001
1000
0010
,
1000
0100
0001
0100
1000
0001
0100
0010
,
1000
0001
0100
0010
0001
0010
1000
0001
,
1000
0100
0001
0100
1000
0010
0100
0001
,
1000
0100
0010
0001
1000
0010
0100
1000
,
0100
0010
1000
0001
0010
0100
1000
0010
,
0100
0001
0010
0100
0001
0100
1000
0001
,
0100
0010
0001
0010
1000
0001
0010
0100
,
1000
0010
0100
0001
1000
0100
0010
1000
,
0010
0001
1000
0001
0010
0100
1000
0001
,
0100
0010
1000
0100
0001
0100
0010
0001
,
1000
0010
0001
0010
0100
0000
0010
0000
,
0100
0001
1000
0100
0010
0001
0100
0010
,
1000
0100
1000
0001
0100
0001
1000
0100
,
1000
0010
0100
0001
1000
0100
0010
0001
,
0100
0010
1000
0100
0010
0001
1000
0010
,
0100
0001
0010
0100
1000
0010
0100
0001
,
1000
0100
0010
0001
0100
0010
1000
0100
,
1000
0001
0100
0010
1000
0001
0010
0100
,
1000
0010
0100
0001
0010
0100
1000
0001
,
0100
0010
1000
0100
0010
0001
0100
0010
,
1000
0100
1000
0001
0100
0010
1000
0100
,
1000
0010
0100
0001
0010
0100
1000
0001
,
0100
0010
1000
0100
0010
0001
0100
0010
,
1000
0001
0010
0100
1000
0010
0100
0001
,
1000
0100
0010
0001
0100
0001
1000
0100
,
1000
0001
0100
0010
1000
0100
0010
0001
,
0100
0010
1000
0001
0010
0100
1000
0001
,
0100
0010
1000
0100
0010
0001
0100
0010
,
1000
0001
0010
0100
1000
0001
0100
0010
,
1000
1000
0100
0100
0010
0010
0100
0100
,
1000
0001
0100
0010
1000
0100
0010
0001
,
1000
1000
0010
0100
0100
0001
0100
0010
,
1000
1000
0001
0010
0010
0001
1000
0010
,
0100
0001
0010
0100
1000
0001
0010
0100
,
1000
0010
0100
0001
0010
0100
1000
0001
,
0100
0010
1000
0001
0010
0100
1000
0001
,
0100
0010
1000
0100
0010
0001
1000
0010
,
0100
0100
0001
0001
0100
0100
0010
0010
,
0100
0001
0010
0100
1000
0001
0100
0010
,
1000
1000
0001
0010
0010
0100
0010
0001
,
0100
0100
0010
1000
1000
0001
1000
0010
,
0100
0001
0010
0100
1000
0001
0010
0100
,
1000
0010
0100
0001
1000
0100
0010
0001
,
1000
0010
0100
0001
0010
0100
1000
0010
,
0100
0001
1000
0010
0100
0001
0010
0100
,
1000
0010
0100
0001
0010
0100
1000
0010
,
0100
0001
1000
0001
0100
0001
0010
0001
,
0100
0010
1000
0100
0010
0001
1000
0100
,
0010
0001
1000
0010
0100
0001
1000
0010
,
0100
0001
0010
0100
1000
0010
0100
0001
,
1000
0100
0010
0100
1000
0001
0100
0001
,
1000
0010
0100
0001
1000
0100
0010
0001
,
1000
0100
0010
0001
0100
0010
1000
0001
,
0010
0100
1000
0001
0010
0100
1000
0010
,
0100
0001
0010
0001
1000
0100
0010
0100
,
1000
0001
0100
0010
1000
0100
0010
0001
,
0100
0010
1000
0001
0100
0010
1000
0001
,
0010
0100
1000
0001
0010
0100
1000
0010
,
0200
0002
1000
0013
,
0310
1000
0001
0010
0100
1000
0010
0100
,
0001
0010
0001
1000
0010
1000
0001
0010
,
0001
0100
0010
1000
0001
0010
0100
1000
,
0010
0100
0001
0010
0100
1000
0001
0100
,
0010
1000
0100
0010
0001
0100
0010
1000
,
0001
0010
0100
1000
0010
0100
0001
0010
,
0001
1000
0010
0100
0001
1000
0100
0010
,
0001
0100
0010
1000
0100
0010
0001
1000
,
0010
0100
0001
0010
0100
1000
0010
0100
,
0001
0010
0001
1000
0010
0100
0001
0010
,
0001
0100
0010
1000
0100
0010
0001
1000
,
0010
0100
0001
0010
0100
1000
0010
0100
,
0001
1000
0100
0010
0001
0100
0010
1000
,
0001
0010
0100
1000
0010
1000
0001
0010
,
0001
1000
0010
0100
0001
0010
0100
1000
,
1MM1
11MM
MM11
11MM
,
0001
0100
0010
1000
0100
0010
0001
0100
,
0010
1000
0001
0100
0010
1000
0100
0010
,
0001
0100
0010
1000
0100
0010
0001
0100
,
0010
1000
0001
1000
0010
1000
0100
1000
,
0010
0100
0001
0010
0100
1000
0001
0010
,
0100
1000
0001
0100
0010
1000
0001
0100
,
0010
1000
0100
0010
0001
0100
0010
1000
,
0001
0010
0100
0010
0001
1000
0010
1000
,
0001
0100
0010
1000
0001
0010
0100
1000
,
0001
0010
0100
1000
0010
0100
0001
1000
,
0100
0010
0001
1000
0100
0010
0001
0100
,
0010
1000
0100
1000
0001
0010
0100
0010
,
0001
1000
0010
0100
0001
0010
0100
1000
,
0010
0100
0001
1000
0010
0100
0001
1000
,
0100
0010
0001
1000
0100
0010
0001
0100
,
0010
1000
0001
1000
0001
1000
0001
1000
0010
0000
0100
0000
0001
0000
0010
0000
,
0001
0100
1000
0100
0010
1000
0100
0010
,
0001
1000
0010
0100
1000
0100
0001
1000
,
0001
0100
1000
0100
0010
1000
0001
0100
,
0010
1000
0001
0010
0100
1000
0001
0010
,
0001
0100
1000
0100
0001
1000
0100
0010
,
0001
1000
0100
0010
1000
0010
0001
1000
,
0001
0100
1000
0100
0001
0010
0100
1000
,
0001
0100
0010
1000
0001
0010
0100
0001
,
0100
0010
0001
1000
0010
0100
0001
0010
,
0100
1000
0010
0100
1000
0100
0001
1000
,
0100
0010
1000
0010
0001
1000
0010
0100
,
0001
0010
0100
1000
0001
0100
0010
0001
,
0010
1000
0001
1000
0010
0100
0001
1000
,
0100
0010
0001
0100
1000
0100
0010
1000
,
0001
0010
1000
0010
0100
0000
0010
0000
,
0100
1000
0001
0100
0010
1000
0100
0010
,
0001
0100
0001
1000
0100
1000
0001
0100
,
0001
0010
0100
1000
0001
0100
0010
1000
,
0100
0010
0001
0100
0010
1000
0001
0010
,
0100
1000
0010
0100
0001
0010
0100
1000
,
0001
0100
0010
1000
0100
0010
0001
0100
,
0001
1000
0100
0010
0001
1000
0010
0100
,
0001
0010
0100
1000
0010
0100
0001
1000
,
0100
0010
0001
0100
0010
1000
0100
0010
,
0001
0100
0001
1000
0100
0010
0001
0100
,
0001
0010
0100
1000
0010
0100
0001
1000
,
0100
0010
0001
0100
0010
1000
0100
0010
,
0001
1000
0010
0100
0001
0010
0100
1000
,
0001
0100
0010
1000
0100
1000
0001
0100
,
0001
1000
0100
0010
0001
0100
0010
1000
,
0100
0010
0001
1000
0010
0100
0001
1000
,
0100
0010
0001
0100
0010
1000
0100
0010
,
0001
1000
0010
0100
0001
1000
0100
0010
,
0001
0001
0100
0100
0010
0010
0100
0100
,
0001
1000
0100
0010
0001
0100
0010
1000
,
0001
0001
0010
0100
0100
1000
0100
0010
,
0001
0001
1000
0010
0010
1000
0001
0010
,
0100
1000
0010
0100
0001
1000
0010
0100
,
0001
0010
0100
1000
0010
0100
0001
1000
,
0100
0010
0001
1000
0010
0100
0001
1000
,
0100
0010
0001
0100
0010
1000
0001
0010
,
0100
0100
1000
1000
0100
0100
0010
0010
,
0100
1000
0010
0100
0001
1000
0100
0010
,
0001
0001
1000
0010
0010
0100
0010
1000
,
0100
0100
0010
0001
0001
1000
0001
0010
,
0100
1000
0010
0100
0001
1000
0010
0100
,
0001
0010
0100
1000
0001
0100
0010
1000
,
0001
0010
0100
1000
0010
0100
0001
0010
,
0100
1000
0001
0010
0100
1000
0010
0100
,
0001
0010
0100
1000
0010
0100
0001
0010
,
0100
1000
0001
1000
0100
1000
0010
1000
,
0100
0010
0001
0100
0010
1000
0001
0100
,
0010
1000
0001
0010
0100
1000
0001
0010
,
0100
1000
0010
0100
0001
0010
0100
1000
,
0001
0100
0010
0100
0001
1000
0100
1000
,
0001
0010
0100
1000
0001
0100
0010
1000
,
0001
0100
0010
1000
0100
0010
0001
1000
,
0010
0100
0001
1000
0010
0100
0001
0010
,
0100
1000
0010
1000
0001
0100
0010
0100
,
0001
1000
0100
0010
0001
0100
0010
1000
,
0100
0010
0001
1000
0100
0010
0001
1000
,
0010
0100
0001
1000
0010
0100
0001
0010
,
0200
2000
0001
3010
,
0310
0001
1000
0010
0100
0001
0010
0100
,
1000
0010
1000
0001
0010
0001
1000
0010
,
1000
0100
0010
0001
1000
0010
0100
0001
,
0010
0100
1000
0010
0100
0001
1000
0100
,
0010
0001
0100
0010
1000
0100
0010
0001
,
1000
0010
0100
0001
0010
0100
1000
0010
,
1000
0001
0010
0100
1000
0001
0100
0010
,
1000
0100
0010
0001
0100
0010
1000
0001
,
0010
0100
1000
0010
0100
0001
0010
0100
,
1000
0010
1000
0001
0010
0100
1000
0010
,
1000
0100
0010
0001
0100
0010
1000
0001
,
0010
0100
1000
0010
0100
0001
0010
0100
,
1000
0001
0100
0010
1000
0100
0010
0001
,
1000
0010
0100
0001
0010
0001
1000
0010
,
1000
0001
0010
0100
1000
0010
0100
0001
,
1MM1
M1M1
1M1M
M1M1
,
1000
0100
0010
0001
0100
0010
1000
0100
,
0010
0001
1000
0100
0010
0001
0100
0010
,
1000
0100
0010
0001
0100
0010
1000
0100
,
0010
0001
1000
0001
0010
0001
0100
0001
,
0010
0100
1000
0010
0100
0001
1000
0010
,
0100
0001
1000
0100
0010
0001
1000
0100
,
0010
0001
0100
0010
1000
0100
0010
0001
,
1000
0010
0100
0010
1000
0001
0010
0001
,
1000
0100
0010
0001
1000
0010
0100
0001
,
1000
0010
0100
0001
0010
0100
1000
0001
,
0100
0010
1000
0001
0100
0010
1000
0100
,
0010
0001
0100
0001
1000
0010
0100
0010
,
1000
0001
0010
0100
1000
0010
0100
0001
,
0010
0100
1000
0001
0010
0100
1000
0001
,
0100
0010
1000
0001
0100
0010
1000
0100
,
0010
0001
1000
0001
1000
0001
1000
0001
0010
0000
0100
0000
1000
0000
0010
0000
,
1000
0100
0001
0100
0010
0001
0100
0010
,
1000
0001
0010
0100
0001
0100
1000
0001
,
1000
0100
0001
0100
0010
0001
1000
0100
,
0010
0001
1000
0010
0100
0001
1000
0010
,
1000
0100
0001
0100
1000
0001
0100
0010
,
1000
0001
0100
0010
0001
0010
1000
0001
,
1000
0100
0001
0100
1000
0010
0100
0001
,
1000
0100
0010
0001
1000
0010
0100
1000
,
0100
0010
1000
0001
0010
0100
1000
0010
,
0100
0001
0010
0100
0001
0100
1000
0001
,
0100
0010
0001
0010
1000
0001
0010
0100
,
1000
0010
0100
0001
1000
0100
0010
1000
,
0010
0001
1000
0001
0010
0100
1000
0001
,
0100
0010
1000
0100
0001
0100
0010
0001
,
1000
0010
0001
0010
0100
0000
0010
0000
,
0100
0001
1000
0100
0010
0001
0100
0010
,
1000
0100
1000
0001
0100
0001
1000
0100
,
1000
0010
0100
0001
1000
0100
0010
0001
,
0100
0010
1000
0100
0010
0001
1000
0010
,
0100
0001
0010
0100
1000
0010
0100
0001
,
1000
0100
0010
0001
0100
0010
1000
0100
,
1000
0001
0100
0010
1000
0001
0010
0100
,
1000
0010
0100
0001
0010
0100
1000
0001
,
0100
0010
1000
0100
0010
0001
0100
0010
,
1000
0100
1000
0001
0100
0010
1000
0100
,
1000
0010
0100
0001
0010
0100
1000
0001
,
0100
0010
1000
0100
0010
0001
0100
0010
,
1000
0001
0010
0100
1000
0010
0100
0001
,
1000
0100
0010
0001
0100
0001
1000
0100
,
1000
0001
0100
0010
1000
0100
0010
0001
,
0100
0010
1000
0001
0010
0100
1000
0001
,
0100
0010
1000
0100
0010
0001
0100
0010
,
1000
0001
0010
0100
1000
0001
0100
0010
,
1000
1000
0100
0100
0010
0010
0100
0100
,
1000
0001
0100
0010
1000
0100
0010
0001
,
1000
1000
0010
0100
0100
0001
0100
0010
,
1000
1000
0001
0010
0010
0001
1000
0010
,
0100
0001
0010
0100
1000
0001
0010
0100
,
1000
0010
0100
0001
0010
0100
1000
0001
,
0100
0010
1000
0001
0010
0100
1000
0001
,
0100
0010
1000
0100
0010
0001
1000
0010
,
0100
0100
0001
0001
0100
0100
0010
0010
,
0100
0001
0010
0100
1000
0001
0100
0010
,
1000
1000
0001
0010
0010
0100
0010
0001
,
0100
0100
0010
1000
1000
0001
1000
0010
,
0100
0001
0010
0100
1000
0001
0010
0100
,
1000
0010
0100
0001
1000
0100
0010
0001
,
1000
0010
0100
0001
0010
0100
1000
0010
,
0100
0001
1000
0010
0100
0001
0010
0100
,
1000
0010
0100
0001
0010
0100
1000
0010
,
0100
0001
1000
0001
0100
0001
0010
0001
,
0100
0010
1000
0100
0010
0001
1000
0100
,
0010
0001
1000
0010
0100
0001
1000
0010
,
0100
0001
0010
0100
1000
0010
0100
0001
,
1000
0100
0010
0100
1000
0001
0100
0001
,
1000
0010
0100
0001
1000
0100
0010
0001
,
1000
0100
0010
0001
0100
0010
1000
0001
,
0010
0100
1000
0001
0010
0100
1000
0010
,
0100
0001
0010
0001
1000
0100
0010
0100
,
1000
0001
0100
0010
1000
0100
0010
0001
,
0100
0010
1000
0001
0100
0010
1000
0001
,
0010
0100
1000
0001
0010
0100
1000
0010
,
0200
0002
1000
0013
,
0310
1000
0001
0010
0100
1000
0010
0100
,
0001
0010
0001
1000
0010
1000
0001
0010
,
0001
0100
0010
1000
0001
0010
0100
1000
,
0010
0100
0001
0010
0100
1000
0001
0100
,
0010
1000
0100
0010
0001
0100
0010
1000
,
0001
0010
0100
1000
0010
0100
0001
0010
,
0001
1000
0010
0100
0001
1000
0100
0010
,
0001
0100
0010
1000
0100
0010
0001
1000
,
0010
0100
0001
0010
0100
1000
0010
0100
,
0001
0010
0001
1000
0010
0100
0001
0010
,
0001
0100
0010
1000
0100
0010
0001
1000
,
0010
0100
0001
0010
0100
1000
0010
0100
,
0001
1000
0100
0010
0001
0100
0010
1000
,
0001
0010
0100
1000
0010
1000
0001
0010
,
0001
1000
0010
0100
0001
0010
0100
1000
,
1MM1
11MM
MM11
11MM
,
0001
0100
0010
1000
0100
0010
0001
0100
,
0010
1000
0001
0100
0010
1000
0100
0010
,
0001
0100
0010
1000
0100
0010
0001
0100
,
0010
1000
0001
1000
0010
1000
0100
1000
,
0010
0100
0001
0010
0100
1000
0001
0010
,
0100
1000
0001
0100
0010
1000
0001
0100
,
0010
1000
0100
0010
0001
0100
0010
1000
,
0001
0010
0100
0010
0001
1000
0010
1000
,
0001
0100
0010
1000
0001
0010
0100
1000
,
0001
0010
0100
1000
0010
0100
0001
1000
,
0100
0010
0001
1000
0100
0010
0001
0100
,
0010
1000
0100
1000
0001
0010
0100
0010
,
0001
1000
0010
0100
0001
0010
0100
1000
,
0010
0100
0001
1000
0010
0100
0001
1000
,
0100
0010
0001
1000
0100
0010
0001
0100
,
0010
1000
0001
1000
0001
1000
0001
1000
0010
0000
0100
0000
0001
0000
0010
0000
,
0001
0100
1000
0100
0010
1000
0100
0010
,
0001
1000
0010
0100
1000
0100
0001
1000
,
0001
0100
1000
0100
0010
1000
0001
0100
,
0010
1000
0001
0010
0100
1000
0001
0010
,
0001
0100
1000
0100
0001
1000
0100
0010
,
0001
1000
0100
0010
1000
0010
0001
1000
,
0001
0100
1000
0100
0001
0010
0100
1000
,
0001
0100
0010
1000
0001
0010
0100
0001
,
0100
0010
0001
1000
0010
0100
0001
0010
,
0100
1000
0010
0100
1000
0100
0001
1000
,
0100
0010
1000
0010
0001
1000
0010
0100
,
0001
0010
0100
1000
0001
0100
0010
0001
,
0010
1000
0001
1000
0010
0100
0001
1000
,
0100
0010
0001
0100
1000
0100
0010
1000
,
0001
0010
1000
0010
0100
0000
0010
0000
,
0100
1000
0001
0100
0010
1000
0100
0010
,
0001
0100
0001
1000
0100
1000
0001
0100
,
0001
0010
0100
1000
0001
0100
0010
1000
,
0100
0010
0001
0100
0010
1000
0001
0010
,
0100
1000
0010
0100
0001
0010
0100
1000
,
0001
0100
0010
1000
0100
0010
0001
0100
,
0001
1000
0100
0010
0001
1000
0010
0100
,
0001
0010
0100
1000
0010
0100
0001
1000
,
0100
0010
0001
0100
0010
1000
0100
0010
,
0001
0100
0001
1000
0100
0010
0001
0100
,
0001
0010
0100
1000
0010
0100
0001
1000
,
0100
0010
0001
0100
0010
1000
0100
0010
,
0001
1000
0010
0100
0001
0010
0100
1000
,
0001
0100
0010
1000
0100
1000
0001
0100
,
0001
1000
0100
0010
0001
0100
0010
1000
,
0100
0010
0001
1000
0010
0100
0001
1000
,
0100
0010
0001
0100
0010
1000
0100
0010
,
0001
1000
0010
0100
0001
1000
0100
0010
,
0001
0001
0100
0100
0010
0010
0100
0100
,
0001
1000
0100
0010
0001
0100
0010
1000
,
0001
0001
0010
0100
0100
1000
0100
0010
,
0001
0001
1000
0010
0010
1000
0001
0010
,
0100
1000
0010
0100
0001
1000
0010
0100
,
0001
0010
0100
1000
0010
0100
0001
1000
,
0100
0010
0001
1000
0010
0100
0001
1000
,
0100
0010
0001
0100
0010
1000
0001
0010
,
0100
0100
1000
1000
0100
0100
0010
0010
,
0100
1000
0010
0100
0001
1000
0100
0010
,
0001
0001
1000
0010
0010
0100
0010
1000
,
0100
0100
0010
0001
0001
1000
0001
0010
,
0100
1000
0010
0100
0001
1000
0010
0100
,
0001
0010
0100
1000
0001
0100
0010
1000
,
0001
0010
0100
1000
0010
0100
0001
0010
,
0100
1000
0001
0010
0100
1000
0010
0100
,
0001
0010
0100
1000
0010
0100
0001
0010
,
0100
1000
0001
1000
0100
1000
0010
1000
,
0100
0010
0001
0100
0010
1000
0001
0100
,
0010
1000
0001
0010
0100
1000
0001
0010
,
0100
1000
0010
0100
0001
0010
0100
1000
,
0001
0100
0010
0100
0001
1000
0100
1000
,
0001
0010
0100
1000
0001
0100
0010
1000
,
0001
0100
0010
1000
0100
0010
0001
1000
,
0010
0100
0001
1000
0010
0100
0001
0010
,
0100
1000
0010
1000
0001
0100
0010
0100
,
0001
1000
0100
0010
0001
0100
0010
1000
,
0100
0010
0001
1000
0100
0010
0001
1000
,
0010
0100
0001
1000
0010
0100
0001
0010
,
0200
2000
0001
3010
,
0301
0001
1000
0010
0100
0001
0010
0100
,
1000
0001
1000
0010
0010
0001
1000
0001
,
0100
0010
1000
0001
0010
0100
1000
0001
,
0010
0100
1000
0010
0100
0001
1000
0100
,
0010
0001
0100
0010
1000
0100
0010
0001
,
1000
0010
0100
0010
0010
0001
1000
0010
,
1000
0001
0010
0100
1000
0001
0010
0100
,
1000
0001
0100
1000
0100
1000
0100
1000
,
0100
0001
1000
0100
0010
0001
0100
0010
,
1000
0001
1000
0010
0010
0001
1000
0001
,
0010
0100
1000
0001
0100
0010
1000
0001
,
0010
0100
1000
0010
0100
0001
0010
0100
,
1000
0001
0100
0010
1000
0100
0010
0001
,
1000
0010
0100
0010
0010
0001
1000
0010
,
1000
0001
0010
0100
1000
0010
0100
0001
,
0010
0001
0100
0100
0010
0010
1000
1000
,
0001
0010
0100
1000
0010
0100
0001
0010
,
0001
1000
0001
0010
0010
1000
0001
1000
,
0100
0010
0001
1000
0010
0100
0001
1000
,
0010
0100
0001
0010
0100
1000
0001
0100
,
0010
1000
0100
0010
0001
0100
0010
1000
,
0001
0010
0100
0010
0010
1000
0001
0010
,
0001
1000
0010
0100
0001
1000
0010
0100
,
0001
1000
0100
0100
0001
0100
0001
0001
,
0100
1000
0001
0100
0010
1000
0100
0010
,
0001
1000
0001
0100
0010
0100
0001
0010
,
0100
1000
0100
0010
0001
0100
0010
1000
,
0001
0010
0100
1000
0010
0100
0001
0010
,
0100
0010
0001
0100
0010
1000
0100
0010
,
0001
1000
0010
0100
0001
0010
0100
1000
,
0010
0100
0001
1000
0010
0100
0001
0010
,
0100
1000
0001
0100
0010
1000
0001
0010
,
0100
0010
0001
0100
0010
1000
1001
0001
,
0010
0100
1000
0010
0100
0010
1000
0100
,
0010
0001
0100
0010
1000
0001
0011
0010
,
0001
1000
0010
0100
0001
0100
0010
1000
,
0100
0010
0001
1000
0010
0100
0110
0010
,
1000
0100
0010
0001
1000
0001
0100
0010
,
1000
0100
0010
0001
0100
0010
1000
0001
,
1000
0010
0100
0001
1000
0100
0010
0001
,
1000
0010
0100
0001
0010
0100
1100
1000
,
0001
0100
0010
1000
0001
1000
0100
0010
,
0001
0100
0010
1000
0001
0010
0110
0100
,
1000
0010
0100
0001
0010
0001
1000
0010
,
0100
0001
0010
0100
1000
0001
0101
0100
,
0001
0010
0100
1000
0001
1000
0100
0010
,
0001
0100
0010
1000
0100
0010
0001
1000
,
0001
0010
0100
1000
0010
0100
0001
1000
,
0100
0010
0001
0100
0001
0010
1000
0010
,
0100
1000
0010
0100
0001
1000
0100
0010
,
1000
0010
0001
1000
0001
0010
1000
0010
,
0100
1000
0001
0010
0100
1000
0001
0100
,
0010
1000
0001
0100
0001
0010
1000
0010
,
0001
1000
0010
0100
0001
1000
0010
0100
,
1000
0100
0001
1000
0001
0010
1000
0010
,
0001
0100
0010
1000
0001
0010
0100
1000
,
0001
0100
0010
0001
0010
0100
0001
1000
,
0100
0010
0001
0100
0010
1000
0100
0010
,
1000
0010
0001
1000
0010
0100
1000
0100
,
0001
1000
0100
0010
0001
0100
0010
1000
,
0001
0010
0100
0001
0100
1000
0001
1000
,
0100
0010
0001
1000
0010
0100
0001
0010
,
1000
0010
0100
1000
0001
0100
1000
0100
,
0010
1000
0001
0010
0100
1000
0001
0100
,
0010
0000
0011
0000
0100
0010
1010
0000
,
0001
0000
0101
0000
1000
0010
0110
0000
,
0001
0000
1010
0000
0100
0001
0011
0000
,
0100
0000
1100
0000
0010
0001
1001
0000
,
0100
0000
1010
0000
0100
0010
0011
0000
,
1000
0000
0101
0000
1000
0010
0110
0000
,
1000
0000
0011
0000
0100
1000
1010
0000
,
0100
0000
0000
0100
0010
0000
0100
0000
0000
0000
0001
0000
1001
0000
0000
1000
,
0100
0000
0011
0000
0000
0100
1001
0000
,
0100
0000
1010
0000
0000
0001
0110
0000
,
1000
0000
0011
0000
0000
1000
0110
0000
,
0001
0000
1010
0000
0000
0100
1001
0000
,
0100
0000
1010
0000
0000
0100
1001
0000
,
0100
0000
0011
0000
0000
1000
0110
0000
,
0001
0000
1010
0000
0000
0001
0110
0000
,
0001
0000
0000
0001
1000
0000
0001
0000
0000
0000
0100
0000
1010
0000
0000
1000
,
0100
0000
0000
0000
;

//---------------dance-single - Geriatric Patrick----------------
#NOTES:
     dance-single:
     Geriatric Patrick:
     Hard:
     8:
     0.965,0.967,0.647,0.238,0.049:
0000
0000
0000
0000
,
0000
0000
0000
0000
,
0000
0000
0000
0000
,
0000
0000
0000
0000
,
1000
0000
0001
0010
0000
0010
0100
0000
1000
0000
0000
0000
1000
0000
0000
0000
,
0001
0001
0010
0100
,
0100
0000
0010
0001
0000
0001
1000
0000
0010
0000
0000
0000
0010
0000
0000
0000
,
0100
0100
0001
1000
,
1000
0000
0010
0100
0000
0100
0001
0000
1000
0000
0000
0000
1000
0000
0000
0000
,
0100
0100
0010
0100
,
0001
0000
0100
0010
0000
0010
1000
0000
0001
0000
0000
0000
0001
0000
0000
0000
,
0010
0010
0001
0100
,
0100
0000
0001
1000
0000
1000
0001
0000
1000
0000
0000
0000
1000
0000
0000
0000
,
0001
0001
0010
0100
,
0001
0000
0100
0010
0000
0010
0100
0000
0010
0000
0000
0000
0010
0000
0000
0000
,
0100
0100
0001
1000
,
1000
0000
0001
0100
0000
0100
0001
0000
1000
0000
0000
0000
1000
0000
0000
0000
,
0100
0100
0001
0100
,
1000
0000
0001
0010
0000
0010
0001
0000
0100
0000
0000
0000
0100
0000
0000
0000
,
0010
0010
0100
1000
,
0000
0000
0000
0000
,
0000
0000
0000
0000
,
0000
0000
0000
0000
,
0000
0000
0000
0000
,
0001
0000
1000
0010
,
1000
0001
0000
1000
0001
0000
1000
0001
,
0100
0000
0100
0000
0001
0010
0000
0001
,
0010
0000
0001
0010
0100
0000
0000
0000
,
0110
0000
1000
0001
,
0100
0010
0000
0100
0010
0000
0100
0001
,
0100
0000
0010
0000
1000
0001
0000
1000
,
0100
0000
0001
0010
0100
0000
0000
0000
,
0110
0000
0001
0100
,
0001
0010
0000
0001
0010
0000
0001
0010
,
0100
0000
0100
0000
1000
0001
0000
1000
,
0001
0000
0010
0001
0100
0000
0000
0000
,
0101
0000
1000
0010
,
0100
0001
0000
0100
0001
0000
1000
0010
,
0100
0000
0100
0000
0001
0010
0000
1000
,
0100
010M
01MM
M1MM
,
1000
0000
1001
0000
0000
0001
0010
0000
,
0001
0000
0100
0000
0000
0001
0010
0000
,
0001
0000
1000
0000
0000
0001
1000
0000
,
0010
0000
0100
0000
0000
0010
0100
0000
,
1000
0000
0001
0000
0000
1000
0010
0000
,
0100
0000
0001
0000
0000
0100
0010
0000
,
1000
0000
0100
0000
0000
1000
0001
0000
,
0100
0000
0001
0000
0000
1000
0010
0000
,
0001
0000
0010
0000
0000
0001
1000
0000
,
0001
0000
0100
0000
0000
0010
1000
0000
,
0001
0000
0010
0000
0000
0001
0100
0000
,
0010
0000
1000
0000
0000
0010
0100
0000
,
1000
0000
0100
0000
0000
1000
0001
0000
,
0100
0000
0010
0000
0000
0100
0001
0000
,
1000
0000
0010
0000
0000
1000
0010
0000
,
0110
M000
000M
M000
000M
M000
000M
M000
0001
0000
0000
0000
1000
0000
0010
0000
,
0000
0010
0100
0000
0000
0000
0100
0000
,
0000
0000
1000
0001
0010
0000
0010
0100
,
0000
0001
0100
0000
0001
0000
1000
0000
,
0000
0001
1000
0000
0100
0000
0010
0001
,
0000
0001
1000
0000
0000
0000
1000
0000
,
0000
0000
0001
0100
0010
0000
0001
0010
,
0000
1000
0010
0000
1000
0000
0010
0000
,
0000
1000
0010
0000
0001
0000
0100
0010
,
0000
0010
1000
0000
0000
0000
1000
0000
,
0000
0000
0001
0010
0100
0000
0001
1000
,
0000
1000
0001
0000
0100
0000
0010
0000
,
0000
0100
0010
0000
0001
0000
1000
0010
,
0000
0010
0100
0000
0000
0000
0100
0000
,
0000
0000
0001
0100
0010
0000
0001
0010
,
0000
1000
0100
0000
0100
0000
0010
0000
,
0100
0000
1000
0010
,
1000
0001
0000
1000
0001
0000
1000
0001
,
0100
0000
0100
0000
0001
0010
0000
0001
,
0010
0000
0001
0010
0100
0000
0000
0000
,
0110
0000
1000
0001
,
0100
0010
0000
0100
0010
0000
0100
0001
,
0100
0000
0010
0000
1000
0001
0000
1000
,
0100
0000
0001
0010
0100
0000
0000
0000
,
0110
0000
0001
0100
,
0001
0010
0000
0001
0010
0000
0001
0010
,
0100
0000
0100
0000
1000
0001
0000
1000
,
0001
0000
0010
0001
0100
0000
0000
0000
,
0101
0000
1000
0010
,
0100
0001
0000
0100
0001
0000
1000
0010
,
0100
0000
0100
0000
0001
0010
0000
1000
,
0100
0000
0001
0010
0100
0000
0000
0000
,
0110
0000
0000
0110
0000
0000
0000
0000
,
0011
0000
0000
1001
0000
1001
0000
0000
,
0010
0100
0001
0010
,
0100
0000
0000
0010
0000
0010
0000
0100
,
1000
0000
0000
1100
0000
0000
0000
0000
,
0001
0000
0000
0011
0000
0011
0000
0000
,
0110
0110
0110
0110
,
1100
0000
0000
0001
0000
0001
0000
0001
,
0100
0000
0000
0101
0000
0000
0000
0000
,
0010
0000
0000
1010
0000
1010
0000
0000
,
0001
0010
1000
0010
,
0100
0000
0000
1000
0000
1000
0000
0001
,
0100
0000
0000
0110
0000
0000
0000
0000
,
0001
0000
0000
1001
0000
1001
0000
0000
,
1010
1010
1010
1010
,
0110
0000
0000
0010
0000
0010
0000
1000
,
0100
0000
0000
0012
0000
00M0
0003
0000
,
0100
0000
0000
2010
0000
00M0
3000
0000
,
0100
0000
0000
1002
0000
M000
0003
0000
,
0000
0010
0100
0010
0100
0010
0100
0010
,
0001
0000
0000
1020
0000
M000
0030
0000
,
0100
0000
0000
2010
0000
00M0
3000
0000
,
0001
0000
0000
1020
0000
M000
0030
0000
,
0100
0010
1000
0010
1000
0010
0100
0000
,
0001
0000
0000
2010
0000
00M0
3000
0000
,
0001
0000
0000
0210
0000
00M0
0300
0000
,
0001
0000
0000
2010
0000
00M0
3000
0000
,
0000
0001
0010
0001
0010
0001
0010
0001
,
0100
0000
0000
2010
0000
00M0
3000
0000
,
0001
0000
0000
0120
0000
0M00
0030
0000
,
1000
0000
0000
0012
0000
00M0
0003
0000
,
2000
3020
0230
0302
,
1003
0000
0001
0010
,
0001
1000
0000
0001
1000
0000
0001
1000
,
0100
0000
0100
0000
1000
0010
0000
1000
,
0010
0000
1000
0010
0100
0000
0000
0000
,
0110
0000
0001
1000
,
0100
0010
0000
0100
0010
0000
0100
1000
,
0100
0000
0010
0000
0001
1000
0000
0001
,
0100
0000
1000
0010
0100
0000
0000
0000
,
0110
0000
1000
0100
,
1000
0010
0000
1000
0010
0000
1000
0010
,
0100
0000
0100
0000
0001
1000
0000
0001
,
1000
0000
0010
1000
0100
0000
0000
0000
,
1100
0000
0001
0010
,
0100
1000
0000
0100
1000
0000
0001
0010
,
0100
0000
0100
0000
1000
0010
0000
0001
,
0100
M100
M1M0
M1MM
,
0001
0000
1001
0000
0000
1000
0010
0000
,
1000
0000
0100
0000
0000
1000
0010
0000
,
1000
0000
0001
0000
0000
1000
0001
0000
,
0010
0000
0100
0000
0000
0010
0100
0000
,
0001
0000
1000
0000
0000
0001
0010
0000
,
0100
0000
1000
0000
0000
0100
0010
0000
,
0001
0000
0100
0000
0000
0001
1000
0000
,
0100
0000
1000
0000
0000
0001
0010
0000
,
1000
0000
0010
0000
0000
1000
0001
0000
,
1000
0000
0100
0000
0000
0010
0001
0000
,
1000
0000
0010
0000
0000
1000
0100
0000
,
0010
0000
0001
0000
0000
0010
0100
0000
,
0001
0000
0100
0000
0000
0001
1000
0000
,
0100
0000
0010
0000
0000
0100
1000
0000
,
0001
0000
0010
0000
0000
0001
0010
0000
,
0110
000M
M000
000M
M000
000M
M000
000M
1000
0000
0000
0000
0001
0000
0010
0000
,
0000
0010
0100
0000
0000
0000
0100
0000
,
0000
0000
0001
1000
0010
0000
0010
0100
,
0000
1000
0100
0000
1000
0000
0001
0000
,
0000
1000
0001
0000
0100
0000
0010
1000
,
0000
1000
0001
0000
0000
0000
0001
0000
,
0000
0000
1000
0100
0010
0000
1000
0010
,
0000
0001
0010
0000
0001
0000
0010
0000
,
0000
0001
0010
0000
1000
0000
0100
0010
,
0000
0010
0001
0000
0000
0000
0001
0000
,
0000
0000
1000
0010
0100
0000
1000
0001
,
0000
0001
1000
0000
0100
0000
0010
0000
,
0000
0100
0010
0000
1000
0000
0001
0010
,
0000
0010
0100
0000
0000
0000
0100
0000
,
0000
0000
1000
0100
0010
0000
1000
0010
,
0000
0001
0100
0000
0100
0000
0010
0000
,
0100
0000
0001
0010
,
0001
1000
0000
0001
1000
0000
0001
1000
,
0100
0000
0100
0000
1000
0010
0000
1000
,
0010
0000
1000
0010
0100
0000
0000
0000
,
0110
0000
0001
1000
,
0100
0010
0000
0100
0010
0000
0100
1000
,
0100
0000
0010
0000
0001
1000
0000
0001
,
0100
0000
1000
0010
0100
0000
0000
0000
,
0110
0000
1000
0100
,
1000
0010
0000
1000
0010
0000
1000
0010
,
0100
0000
0100
0000
0001
1000
0000
0001
,
1000
0000
0010
1000
0100
0000
0000
0000
,
1100
0000
0001
0010
,
0100
1000
0000
0100
1000
0000
0001
0010
,
0100
0000
0100
0000
1000
0010
0000
0001
,
0100
0000
1000
0010
0100
0000
0000
0000
,
0110
0000
0000
0110
0000
0000
0000
0000
,
1010
0000
0000
1001
0000
1001
0000
0000
,
0010
0100
1000
0010
,
0100
0000
0000
0010
0000
0010
0000
0100
,
0001
0000
0000
0101
0000
0000
0000
0000
,
1000
0000
0000
1010
0000
1010
0000
0000
,
0110
0110
0110
0110
,
0101
0000
0000
1000
0000
1000
0000
1000
,
0100
0000
0000
1100
0000
0000
0000
0000
,
0010
0000
0000
0011
0000
0011
0000
0000
,
1000
0010
0001
0010
,
0100
0000
0000
0001
0000
0001
0000
1000
,
0100
0000
0000
0110
0000
0000
0000
0000
,
1000
0000
0000
1001
0000
1001
0000
0000
,
0011
0011
0011
0011
,
0110
0000
0000
0010
0000
0010
0000
0001
,
0100
0000
0000
2010
0000
00M0
3000
0000
,
0100
0000
0000
0012
0000
00M0
0003
0000
,
0100
0000
0000
2001
0000
000M
3000
0000
,
0000
0010
0100
0010
0100
0010
0100
0010
,
1000
0000
0000
0021
0000
000M
0030
0000
,
0100
0000
0000
0012
0000
00M0
0003
0000
,
1000
0000
0000
0021
0000
000M
0030
0000
,
0100
0010
0001
0010
0001
0010
0100
0000
,
1000
0000
0000
0012
0000
00M0
0003
0000
,
1000
0000
0000
0210
0000
00M0
0300
0000
,
1000
0000
0000
0012
0000
00M0
0003
0000
,
0000
1000
0010
1000
0010
1000
0010
1000
,
0100
0000
0000
0012
0000
00M0
0003
0000
,
1000
0000
0000
0120
0000
0M00
0030
0000
,
0001
0000
0000
2010
0000
00M0
3000
0000
,
0002
0023
0230
2300
,
3001
0000
1000
0010
,
1000
0001
0000
1000
0001
0000
1000
0001
,
0100
0000
0100
0000
0001
0010
0000
0001
,
0010
0000
0001
0010
0100
0000
0000
0000
,
0110
0000
1000
0001
,
0100
0010
0000
0100
0010
0000
0100
0001
,
0100
0000
0010
0000
1000
0001
0000
1000
,
0100
0000
0001
0010
0100
0000
0000
0000
,
0110
0000
0001
0100
,
0001
0010
0000
0001
0010
0000
0001
0010
,
0100
0000
0100
0000
1000
0001
0000
1000
,
0001
0000
0010
0001
0100
0000
0000
0000
,
0101
0000
1000
0010
,
0100
0001
0000
0100
0001
0000
1000
0010
,
0100
0000
0100
0000
0001
0010
0000
1000
,
0100
010M
01MM
M1MM
,
1000
0000
1001
0000
0000
0001
0010
0000
,
0001
0000
0100
0000
0000
0001
0010
0000
,
0001
0000
1000
0000
0000
0001
1000
0000
,
0010
0000
0100
0000
0000
0010
0100
0000
,
1000
0000
0001
0000
0000
1000
0010
0000
,
0100
0000
0001
0000
0000
0100
0010
0000
,
1000
0000
0100
0000
0000
1000
0001
0000
,
0100
0000
0001
0000
0000
1000
0010
0000
,
0001
0000
0010
0000
0000
0001
1000
0000
,
0001
0000
0100
0000
0000
0010
1000
0000
,
0001
0000
0010
0000
0000
0001
0100
0000
,
0010
0000
1000
0000
0000
0010
0100
0000
,
1000
0000
0100
0000
0000
1000
0001
0000
,
0100
0000
0010
0000
0000
0100
0001
0000
,
1000
0000
0010
0000
0000
1000
0010
0000
,
0110
M000
000M
M000
000M
M000
000M
M000
0001
0000
0000
0000
1000
0000
0010
0000
,
0000
0010
0100
0000
0000
0000
0100
0000
,
0000
0000
1000
0001
0010
0000
0010
0100
,
0000
0001
0100
0000
0001
0000
1000
0000
,
0000
0001
1000
0000
0100
0000
0010
0001
,
0000
0001
1000
0000
0000
0000
1000
0000
,
0000
0000
0001
0100
0010
0000
0001
0010
,
0000
1000
0010
0000
1000
0000
0010
0000
,
0000
1000
0010
0000
0001
0000
0100
0010
,
0000
0010
1000
0000
0000
0000
1000
0000
,
0000
0000
0001
0010
0100
0000
0001
1000
,
0000
1000
0001
0000
0100
0000
0010
0000
,
0000
0100
0010
0000
0001
0000
1000
0010
,
0000
0010
0100
0000
0000
0000
0100
0000
,
0000
0000
0001
0100
0010
0000
0001
0010
,
0000
1000
0100
0000
0100
0000
0010
0000
,
0100
0000
1000
0010
,
1000
0001
0000
1000
0001
0000
1000
0001
,
0100
0000
0100
0000
0001
0010
0000
0001
,
0010
0000
0001
0010
0100
0000
0000
0000
,
0110
0000
1000
0001
,
0100
0010
0000
0100
0010
0000
0100
0001
,
0100
0000
0010
0000
1000
0001
0000
1000
,
0100
0000
0001
0010
0100
0000
0000
0000
,
0110
0000
0001
0100
,
0001
0010
0000
0001
0010
0000
0001
0010
,
0100
0000
0100
0000
1000
0001
0000
1000
,
0001
0000
0010
0001
0100
0000
0000
0000
,
0101
0000
1000
0010
,
0100
0001
0000
0100
0001
0000
1000
0010
,
0100
0000
0100
0000
0001
0010
0000
1000
,
0100
0000
0001
0010
0100
0000
0000
0000
,
0110
0000
0000
0110
0000
0000
0000
0000
,
0011
0000
0000
1001
0000
1001
0000
0000
,
0010
0100
0001
0010
,
0100
0000
0000
0010
0000
0010
0000
0100
,
1000
0000
0000
1100
0000
0000
0000
0000
,
0001
0000
0000
0011
0000
0011
0000
0000
,
0110
0110
0110
0110
,
1100
0000
0000
0001
0000
0001
0000
0001
,
0100
0000
0000
0101
0000
0000
0000
0000
,
0010
0000
0000
1010
0000
1010
0000
0000
,
0001
0010
1000
0010
,
0100
0000
0000
1000
0000
1000
0000
0001
,
0100
0000
0000
0110
0000
0000
0000
0000
,
0001
0000
0000
1001
0000
1001
0000
0000
,
1010
1010
1010
1010
,
0110
0000
0000
0010
0000
0010
0000
1000
,
0100
0000
0000
0012
0000
00M0
0003
0000
,
0100
0000
0000
2010
0000
00M0
3000
0000
,
0100
0000
0000
1002
0000
M000
0003
0000
,
0000
0010
0100
0010
0100
0010
0100
0010
,
0001
0000
0000
1020
0000
M000
0030
0000
,
0100
0000
0000
2010
0000
00M0
3000
0000
,
0001
0000
0000
1020
0000
M000
0030
0000
,
0100
0010
1000
0010
1000
0010
0100
0000
,
0001
0000
0000
2010
0000
00M0
3000
0000
,
0001
0000
0000
0210
0000
00M0
0300
0000
,
0001
0000
0000
2010
0000
00M0
3000
0000
,
0000
0001
0010
0001
0010
0001
0010
0001
,
0100
0000
0000
2010
0000
00M0
3000
0000
,
0001
0000
0000
0120
0000
0M00
0030
0000
,
1000
0000
0000
0012
0000
00M0
0003
0000
,
2000
3020
0230
0302
,
1003
0000
0001
0010
,
0001
1000
0000
0001
1000
0000
0001
1000
,
0100
0000
0100
0000
1000
0010
0000
1000
,
0010
0000
1000
0010
0100
0000
0000
0000
,
0110
0000
0001
1000
,
0100
0010
0000
0100
0010
0000
0100
1000
,
0100
0000
0010
0000
0001
1000
0000
0001
,
0100
0000
1000
0010
0100
0000
0000
0000
,
0110
0000
1000
0100
,
1000
0010
0000
1000
0010
0000
1000
0010
,
0100
0000
0100
0000
0001
1000
0000
0001
,
1000
0000
0010
1000
0100
0000
0000
0000
,
1100
0000
0001
0010
,
0100
1000
0000
0100
1000
0000
0001
0010
,
0100
0000
0100
0000
1000
0010
0000
0001
,
0100
M100
M1M0
M1MM
,
0001
0000
1001
0000
0000
1000
0010
0000
,
1000
0000
0100
0000
0000
1000
0010
0000
,
1000
0000
0001
0000
0000
1000
0001
0000
,
0010
0000
0100
0000
0000
0010
0100
0000
,
0001
0000
1000
0000
0000
0001
0010
0000
,
0100
0000
1000
0000
0000
0100
0010
0000
,
0001
0000
0100
0000
0000
0001
1000
0000
,
0100
0000
1000
0000
0000
0001
0010
0000
,
1000
0000
0010
0000
0000
1000
0001
0000
,
1000
0000
0100
0000
0000
0010
0001
0000
,
1000
0000
0010
0000
0000
1000
0100
0000
,
0010
0000
0001
0000
0000
0010
0100
0000
,
0001
0000
0100
0000
0000
0001
1000
0000
,
0100
0000
0010
0000
0000
0100
1000
0000
,
0001
0000
0010
0000
0000
0001
0010
0000
,
0110
000M
M000
000M
M000
000M
M000
000M
1000
0000
0000
0000
0001
0000
0010
0000
,
0000
0010
0100
0000
0000
0000
0100
0000
,
0000
0000
0001
1000
0010
0000
0010
0100
,
0000
1000
0100
0000
1000
0000
0001
0000
,
0000
1000
0001
0000
0100
0000
0010
1000
,
0000
1000
0001
0000
0000
0000
0001
0000
,
0000
0000
1000
0100
0010
0000
1000
0010
,
0000
0001
0010
0000
0001
0000
0010
0000
,
0000
0001
0010
0000
1000
0000
0100
0010
,
0000
0010
0001
0000
0000
0000
0001
0000
,
0000
0000
1000
0010
0100
0000
1000
0001
,
0000
0001
1000
0000
0100
0000
0010
0000
,
0000
0100
0010
0000
1000
0000
0001
0010
,
0000
0010
0100
0000
0000
0000
0100
0000
,
0000
0000
1000
0100
0010
0000
1000
0010
,
0000
0001
0100
0000
0100
0000
0010
0000
,
0100
0000
0001
0010
,
0001
1000
0000
0001
1000
0000
0001
1000
,
0100
0000
0100
0000
1000
0010
0000
1000
,
0010
0000
1000
0010
0100
0000
0000
0000
,
0110
0000
0001
1000
,
0100
0010
0000
0100
0010
0000
0100
1000
,
0100
0000
0010
0000
0001
1000
0000
0001
,
0100
0000
1000
0010
0100
0000
0000
0000
,
0110
0000
1000
0100
,
1000
0010
0000
1000
0010
0000
1000
0010
,
0100
0000
0100
0000
0001
1000
0000
0001
,
1000
0000
0010
1000
0100
0000
0000
0000
,
1100
0000
0001
0010
,
0100
1000
0000
0100
1000
0000
0001
0010
,
0100
0000
0100
0000
1000
0010
0000
0001
,
0100
0000
1000
0010
0100
0000
0000
0000
,
0110
0000
0000
0110
0000
0000
0000
0000
,
1010
0000
0000
1001
0000
1001
0000
0000
,
0010
0100
1000
0010
,
0100
0000
0000
0010
0000
0010
0000
0100
,
0001
0000
0000
0101
0000
0000
0000
0000
,
1000
0000
0000
1010
0000
1010
0000
0000
,
0110
0110
0110
0110
,
0101
0000
0000
1000
0000
1000
0000
1000
,
0100
0000
0000
1100
0000
0000
0000
0000
,
0010
0000
0000
0011
0000
0011
0000
0000
,
1000
0010
0001
0010
,
0100
0000
0000
0001
0000
0001
0000
1000
,
0100
0000
0000
0110
0000
0000
0000
0000
,
1000
0000
0000
1001
0000
1001
0000
0000
,
0011
0011
0011
0011
,
0110
0000
0000
0010
0000
0010
0000
0001
,
0100
0000
0000
2010
0000
00M0
3000
0000
,
0100
0000
0000
0012
0000
00M0
0003
0000
,
0100
0000
0000
2001
0000
000M
3000
0000
,
0000
0010
0100
0010
0100
0010
0100
0010
,
1000
0000
0000
0021
0000
000M
0030
0000
,
0100
0000
0000
0012
0000
00M0
0003
0000
,
1000
0000
0000
0021
0000
000M
0030
0000
,
0100
0010
0001
0010
0001
0010
0100
0000
,
1000
0000
0000
0012
0000
00M0
0003
0000
,
1000
0000
0000
0210
0000
00M0
0300
0000
,
1000
0000
0000
0012
0000
00M0
0003
0000
,
0000
1000
0010
1000
0010
1000
0010
1000
,
0100
0000
0000
0012
0000
00M0
0003
0000
,
1000
0000
0000
0120
0000
0M00
0030
0000
,
0001
0000
0000
2010
0000
00M0
3000
0000
,
0002
0023
0230
2300
,
3001
0000
1000
0010
,
1000
0001
0000
1000
0001
0000
1000
0001
,
0100
0000
0100
0000
0001
0010
0000
0001
,
0010
0000
0001
0010
0100
0000
0000
0000
,
0110
0000
1000
0001
,
0100
0010
0000
0100
0010
0000
0100
0001
,
0100
0000
0010
0000
1000
0001
0000
1000
,
0100
0000
0001
0010
0100
0000
0000
0000
,
0110
0000
0001
0100
,
0001
0010
0000
0001
0010
0000
0001
0010
,
0100
0000
0100
0000
1000
0001
0000
1000
,
0001
0000
0010
0001
0100
0000
0000
0000
,
0101
0000
1000
0010
,
0100
0001
0000
0100
0001
0000
1000
0010
,
0100
0000
0100
0000
0001
0010
0000
1000
,
0100
010M
01MM
M1MM
,
1000
0000
1001
0000
0000
0001
0010
0000
,
0001
0000
0100
0000
0000
0001
0010
0000
,
0001
0000
1000
0000
0000
0001
1000
0000
,
0010
0000
0100
0000
0000
0010
0100
0000
,
1000
0000
0001
0000
0000
1000
0010
0000
,
0100
0000
0001
0000
0000
0100
0010
0000
,
1000
0000
0100
0000
0000
1000
0001
0000
,
0100
0000
0001
0000
0000
1000
0010
0000
,
0001
0000
0010
0000
0000
0001
1000
0000
,
0001
0000
0100
0000
0000
0010
1000
0000
,
0001
0000
0010
0000
0000
0001
0100
0000
,
0010
0000
1000
0000
0000
0010
0100
0000
,
1000
0000
0100
0000
0000
1000
0001
0000
,
0100
0000
0010
0000
0000
0100
0001
0000
,
1000
0000
0010
0000
0000
1000
0010
0000
,
0110
M000
000M
M000
000M
M000
000M
M000
0001
0000
0000
0000
1000
0000
0010
0000
,
0000
0010
0100
0000
0000
0000
0100
0000
,
0000
0000
1000
0001
0010
0000
0010
0100
,
0000
0001
0100
0000
0001
0000
1000
0000
,
0000
0001
1000
0000
0100
0000
0010
0001
,
0000
0001
1000
0000
0000
0000
1000
0000
,
0000
0000
0001
0100
0010
0000
0001
0010
,
0000
1000
0010
0000
1000
0000
0010
0000
,
0000
1000
0010
0000
0001
0000
0100
0010
,
0000
0010
1000
0000
0000
0000
1000
0000
,
0000
0000
0001
0010
0100
0000
0001
1000
,
0000
1000
0001
0000
0100
0000
0010
0000
,
0000
0100
0010
0000
0001
0000
1000
0010
,
0000
0010
0100
0000
0000
0000
0100
0000
,
0000
0000
0001
0100
0010
0000
0001
0010
,
0000
1000
0100
0000
0100
0000
0010
0000
,
0100
0000
1000
0010
,
1000
0001
0000
1000
0001
0000
1000
0001
,
0100
0000
0100
0000
0001
0010
0000
0001
,
0010
0000
0001
0010
0100
0000
0000
0000
,
0110
0000
1000
0001
,
0100
0010
0000
0100
0010
0000
0100
0001
,
0100
0000
0010
0000
1000
0001
0000
1000
,
0100
0000
0001
0010
0100
0000
0000
0000
,
0110
0000
0001
0100
,
0001
0010
0000
0001
0010
0000
0001
0010
,
0100
0000
0100
0000
1000
0001
0000
1000
,
0001
0000
0010
0001
0100
0000
0000
0000
,
0101
0000
1000
0010
,
0100
0001
0000
0100
0001
0000
1000
0010
,
0100
0000
0100
0000
0001
0010
0000
1000
,
0100
0000
0001
0010
0100
0000
0000
0000
,
0110
0000
0000
0110
0000
0000
0000
0000
,
0011
0000
0000
1001
0000
1001
0000
0000
,
0010
0100
0001
0010
,
0100
0000
0000
0010
0000
0010
0000
0100
,
1000
0000
0000
1100
0000
0000
0000
0000
,
0001
0000
0000
0011
0000
0011
0000
0000
,
0110
0110
0110
0110
,
1100
0000
0000
0001
0000
0001
0000
0001
,
0100
0000
0000
0101
0000
0000
0000
0000
,
0010
0000
0000
1010
0000
1010
0000
0000
,
0001
0010
1000
0010
,
0100
0000
0000
1000
0000
1000
0000
0001
,
0100
0000
0000
0110
0000
0000
0000
0000
,
0001
0000
0000
1001
0000
1001
0000
0000
,
1010
1010
1010
1010
,
0110
0000
0000
0010
0000
0010
0000
1000
,
0100
0000
0000
0012
0000
00M0
0003
0000
,
0100
0000
0000
2010
0000
00M0
3000
0000
,
0100
0000
0000
1002
0000
M000
0003
0000
,
0000
0010
0100
0010
0100
0010
0100
0010
,
0001
0000
0000
1020
0000
M000
0030
0000
,
0100
0000
0000
2010
0000
00M0
3000
0000
,
0001
0000
0000
1020
0000
M000
0030
0000
,
0100
0010
1000
0010
1000
0010
0100
0000
,
0001
0000
0000
2010
0000
00M0
3000
0000
,
0001
0000
0000
0210
0000
00M0
0300
0000
,
0001
0000
0000
2010
0000
00M0
3000
0000
,
0000
0001
0010
0001
0010
0001
0010
0001
,
0100
0000
0000
2010
0000
00M0
3000
0000
,
0001
0000
0000
0120
0000
0M00
0030
0000
,
1000
0000
0000
0012
0000
00M0
0003
0000
,
2000
3020
0230
0302
,
1003
0000
0001
0010
,
0001
1000
0000
0001
1000
0000
0001
1000
,
0100
0000
0100
0000
1000
0010
0000
1000
,
0010
0000
1000
0010
0100
0000
0000
0000
,
0110
0000
0001
1000
,
0100
0010
0000
0100
0010
0000
0100
1000
,
0100
0000
0010
0000
0001
1000
0000
0001
,
0100
0000
1000
0010
0100
0000
0000
0000
,
0110
0000
1000
0100
,
1000
0010
0000
1000
0010
0000
1000
0010
,
0100
0000
0100
0000
0001
1000
0000
0001
,
1000
0000
0010
1000
0100
0000
0000
0000
,
1100
0000
0001
0010
,
0100
1000
0000
0100
1000
0000
0001
0010
,
0100
0000
0100
0000
1000
0010
0000
0001
,
0100
M100
M1M0
M1MM
,
0001
0000
1001
0000
0000
1000
0010
0000
,
1000
0000
0100
0000
0000
1000
0010
0000
,
1000
0000
0001
0000
0000
1000
0001
0000
,
0010
0000
0100
0000
0000
0010
0100
0000
,
0001
0000
1000
0000
0000
0001
0010
0000
,
0100
0000
1000
0000
0000
0100
0010
0000
,
0001
0000
0100
0000
0000
0001
1000
0000
,
0100
0000
1000
0000
0000
0001
0010
0000
,
1000
0000
0010
0000
0000
1000
0001
0000
,
1000
0000
0100
0000
0000
0010
0001
0000
,
1000
0000
0010
0000
0000
1000
0100
0000
,
0010
0000
0001
0000
0000
0010
0100
0000
,
0001
0000
0100
0000
0000
0001
1000
0000
,
0100
0000
0010
0000
0000
0100
1000
0000
,
0001
0000
0010
0000
0000
0001
0010
0000
,
0110
000M
M000
000M
M000
000M
M000
000M
1000
0000
0000
0000
0001
0000
0010
0000
,
0000
0010
0100
0000
0000
0000
0100
0000
,
0000
0000
0001
1000
0010
0000
0010
0100
,
0000
1000
0100
0000
1000
0000
0001
0000
,
0000
1000
0001
0000
0100
0000
0010
1000
,
0000
1000
0001
0000
0000
0000
0001
0000
,
0000
0000
1000
0100
0010
0000
1000
0010
,
0000
0001
0010
0000
0001
0000
0010
0000
,
0000
0001
0010
0000
1000
0000
0100
0010
,
0000
0010
0001
0000
0000
0000
0001
0000
,
0000
0000
1000
0010
0100
0000
1000
0001
,
0000
0001
1000
0000
0100
0000
0010
0000
,
0000
0100
0010
0000
1000
0000
0001
0010
,
0000
0010
0100
0000
0000
0000
0100
0000
,
0000
0000
1000
0100
0010
0000
1000
0010
,
0000
0001
0100
0000
0100
0000
0010
0000
,
0100
0000
0001
0010
,
0001
1000
0000
0001
1000
0000
0001
1000
,
0100
0000
0100
0000
1000
0010
0000
1000
,
0010
0000
1000
0010
0100
0000
0000
0000
,
0110
0000
0001
1000
,
0100
0010
0000
0100
0010
0000
0100
1000
,
0100
0000
0010
0000
0001
1000
0000
0001
,
0100
0000
1000
0010
0100
0000
0000
0000
,
0110
0000
1000
0100
,
1000
0010
0000
1000
0010
0000
1000
0010
,
0100
0000
0100
0000
0001
1000
0000
0001
,
1000
0000
0010
1000
0100
0000
0000
0000
,
1100
0000
0001
0010
,
0100
1000
0000
0100
1000
0000
0001
0010
,
0100
0000
0100
0000
1000
0010
0000
0001
,
0100
0000
1000
0010
0100
0000
0000
0000
,
0110
0000
0000
0110
0000
0000
0000
0000
,
1010
0000
0000
1001
0000
1001
0000
0000
,
0010
0100
1000
0010
,
0100
0000
0000
0010
0000
0010
0000
0100
,
0001
0000
0000
0101
0000
0000
0000
0000
,
1000
0000
0000
1010
0000
1010
0000
0000
,
0110
0110
0110
0110
,
0101
0000
0000
1000
0000
1000
0000
1000
,
0100
0000
0000
1100
0000
0000
0000
0000
,
0010
0000
0000
0011
0000
0011
0000
0000
,
1000
0010
0001
0010
,
0100
0000
0000
0001
0000
0001
0000
1000
,
0100
0000
0000
0110
0000
0000
0000
0000
,
1000
0000
0000
1001
0000
1001
0000
0000
,
0011
0011
0011
0011
,
0110
0000
0000
0010
0000
0010
0000
0001
,
0100
0000
0000
2010
0000
00M0
3000
0000
,
0100
0000
0000
0012
0000
00M0
0003
0000
,
0100
0000
0000
2001
0000
000M
3000
0000
,
0000
0010
0100
0010
0100
0010
0100
0010
,
1000
0000
0000
0021
0000
000M
0030
0000
,
0100
0000
0000
0012
0000
00M0
0003
0000
,
1000
0000
0000
0021
0000
000M
0030
0000
,
0100
0010
0001
0010
0001
0010
0100
0000
,
1000
0000
0000
0012
0000
00M0
0003
0000
,
1000
0000
0000
0210
0000
00M0
0300
0000
,
1000
0000
0000
0012
0000
00M0
0003
0000
,
0000
1000
0010
1000
0010
1000
0010
1000
,
0100
0000
0000
0012
0000
00M0
0003
0000
,
1000
0000
0000
0120
0000
0M00
0030
0000
,
0001
0000
0000
2010
0000
00M0
3000
0000
,
0002
0023
0230
2300
,
3010
0000
0000
0012
0000
00M0
0003
0000
,
1000
0000
0000
2010
0000
00M0
3000
0000
,
0001
0000
0000
0021
0000
000M
0030
0000
,
0000
0001
0010
0001
0010
0001
0010
0001
,
1000
0000
0000
1020
0000
M000
0030
0000
,
0100
0000
0000
0120
0000
0M00
0030
0000
,
1000
0000
0000
2010
0000
00M0
3000
0000
,
0001
0010
0100
0010
0100
0010
0001
0000
,
1000
0000
0000
2010
0000
00M0
3000
0000
,
0001
0000
0000
0210
0000
00M0
0300
0000
,
0001
0000
0000
2010
0000
00M0
3000
0000
,
0000
0001
0010
0001
0010
0001
0010
0001
,
0100
0000
0000
2010
0000
00M0
3000
0000
,
0001
0000
0000
0120
0000
0M00
0030
0000
,
1000
0000
0000
0012
0000
00M0
0003
0000
,
1000
0001
0010
0001
0010
0001
0100
0000
,
0101
0000
1000
0010
,
1000
0001
0000
0100
0010
0000
1000
0001
,
0100
0000
0100
0000
0001
0010
0000
0001
,
0010
0000
0001
0010
0100
0000
0000
0000
,
0110
0000
1000
0001
,
0100
0010
0000
0001
0010
0000
0100
0010
,
0001
0000
0100
0000
1000
0001
0000
1000
,
0100
0000
1000
0001
1000
0100
1000
0001
,
0000
0000
0100
0010
,
0001
0010
0000
1000
0100
0000
0001
0010
,
0100
0000
0100
0000
1000
0001
0000
1000
,
0001
0000
0010
0001
0100
0000
0000
0000
,
0101
0000
1000
0010
,
0100
0001
0000
0010
1000
0000
0001
0010
,
0100
0000
0100
0000
0001
0010
0000
1000
,
0010
0000
0001
0010
0100
0010
0001
0010
,
0100
0000
0010
0000
0000
0100
0010
0000
,
0001
0000
0010
0000
0000
0001
0010
0000
,
0100
0000
1000
0000
0000
0100
1000
0000
,
0001
0000
0010
0000
0000
0001
1000
0000
,
0001
0000
0010
0000
0000
0100
1000
0000
,
0001
0000
0100
0000
0000
0001
1000
0000
,
0001
0000
0010
0000
0000
0100
1000
0000
,
0001
0000
0100
0000
0000
0001
0010
0000
,
1000
0000
0010
0000
0000
1000
0001
0000
,
1000
0000
0010
0000
0000
0100
0001
0000
,
1000
0000
0010
0000
0000
1000
0100
0000
,
0010
0000
0001
0000
0000
0010
0001
0000
,
1000
0000
0010
0000
0000
0100
0001
0000
,
0100
0000
0001
0000
0000
1000
0100
0000
,
0010
0000
0001
0000
0000
0010
0100
0000
,
0010
0000
0001
0000
0000
1000
0010
0000
,
0100
0000
0100
0010
0000
0010
1000
0000
,
0000
0000
1000
0000
0000
0000
0001
1000
,
0010
0000
0010
0100
0000
1000
0100
0000
,
1000
0000
0001
0000
0000
1000
0001
0000
,
0100
0000
0010
1000
0000
1000
0001
0000
,
0000
0000
0001
0000
0000
0000
1000
0100
,
0010
0000
1000
0010
0000
0001
0010
0000
,
0001
0000
0010
0000
0000
0001
0010
0000
,
1000
0000
0100
0010
0000
0010
0001
0000
,
0000
0000
0001
0000
0000
0000
1000
0010
,
0100
0000
1000
0001
0000
0001
1000
0000
,
0100
0000
0010
0000
0000
0100
0010
0000
,
1000
0000
0001
0010
0000
0010
0100
0000
,
0000
0000
0100
0000
0000
0000
1000
0100
,
0010
0000
0001
1000
0000
1000
0010
0000
,
0100
0000
0010
0000
0000
0100
0010
0000
,
1000
0000
1001
0000
0100
0010
1000
0000
,
0001
0000
0101
0000
1000
0010
0100
0000
,
0001
0000
1010
0000
0100
0001
0010
0000
,
0100
0000
1100
0000
0010
0001
1000
0000
,
0100
0000
1010
0000
0100
0010
0001
0000
,
1000
0000
0101
0000
1000
0010
0100
0000
,
1000
0000
0011
0000
0100
1000
0010
0000
,
0100
0000
0000
0100
0010
0000
0100
0000
0000
0000
0001
0000
1000
0000
0000
1000
,
0100
0000
0011
0000
0000
0100
1000
0000
,
0100
0000
1010
0000
0000
0001
0010
0000
,
1000
0000
0011
0000
0000
1000
0010
0000
,
0001
0000
1010
0000
0000
0100
1000
0000
,
0100
0000
1010
0000
0000
0100
1000
0000
,
0100
0000
0011
0000
0000
1000
0010
0000
,
0001
0000
1010
0000
0000
0001
0010
0000
,
0001
0000
0000
0001
1000
0000
0001
0000
0000
0000
0001
0000
1000
0000
0000
1000
,
0100
0000
0000
0000
;

//---------------dance-single - Geriatric Patrick----------------
#NOTES:
     dance-single:
     Geriatric Patrick:
     Easy:
     5:
     0.650,0.595,0.018,0.166,0.000:
0000
0000
0000
0000
,
0000
0000
0000
0000
,
0000
0000
0000
0000
,
0000
0000
0000
0000
,
0001
0001
0010
0010
,
0100
1000
1000
0001
,
0100
0100
0010
0010
,
1000
1000
0100
0010
,
0001
0001
1000
1000
,
0010
0100
0100
0001
,
0010
0010
0100
0100
,
1000
1000
0001
0100
,
0010
0010
1000
1000
,
0001
0010
0010
0100
,
1000
1000
0010
0010
,
0100
0100
0001
1000
,
0100
0100
0010
0010
,
0001
1000
1000
0010
,
0100
0100
0001
0001
,
0010
0010
0100
1000
,
0000
0000
0000
0000
,
0000
0000
0000
0000
,
0000
0000
0000
0000
,
0000
0000
0000
0000
,
0001
0010
0000
0010
,
0100
1000
0000
1000
,
0001
0100
0000
0100
,
0001
0010
0000
0010
,
1000
0100
0000
0100
,
0010
0001
0000
0001
,
1000
0010
0000
0010
,
0100
0010
0000
0001
,
1000
0100
0000
1000
,
0010
0100
0000
1000
,
0001
0100
0000
0001
,
0010
0100
0000
0001
,
1000
0010
0000
1000
,
0001
0100
0000
1000
,
0100
0010
0000
0010
,
1000
1000
1000
1000
,
1000
0010
0000
0010
,
0100
0001
0000
0001
,
1000
0100
0000
0100
,
0010
0100
0000
0100
,
0001
1000
0000
1000
,
0010
0100
0000
0100
,
0001
0010
0000
0010
,
0100
0010
0000
0010
,
1000
0001
0000
0001
,
0100
0010
0000
0100
,
0001
1000
0000
1000
,
0100
0010
0000
0100
,
1000
0010
0000
0010
,
0100
0001
0000
0100
,
0010
1000
0000
1000
,
0001
0000
1000
0010
,
0000
0001
1000
0001
,
0000
0001
0100
0010
,
0000
0001
0010
0001
,
0000
1000
0001
0100
,
0000
1000
0100
1000
,
0000
0010
0001
0100
,
0000
1000
0010
1000
,
0000
0010
0100
0001
,
0000
0010
1000
0010
,
0000
1000
0100
0010
,
0000
1000
0001
1000
,
0000
0100
0010
0001
,
0000
0100
1000
0100
,
0000
0010
0001
0100
,
0000
1000
0100
0000
,
1000
0001
0000
1000
,
0100
0010
0000
0100
,
1000
0010
0000
1000
,
0001
0100
0000
0100
,
0001
0010
0000
0001
,
1000
0100
0000
1000
,
0001
0010
0000
0001
,
0100
0010
0000
0010
,
1000
0001
0000
1000
,
0100
0010
0000
0100
,
1000
0001
0000
1000
,
0010
0100
0000
0100
,
0001
0010
0000
0001
,
1000
0100
0000
1000
,
0010
0100
0000
0010
,
1000
0001
0000
0001
,
0010
0000
0000
0010
0000
0000
0000
0000
,
0001
0000
0000
1000
0000
1000
0000
0000
,
0010
0010
0100
0100
,
0001
0000
0000
0010
0000
0010
0000
0000
,
1000
0000
0000
1000
0000
0000
0000
0000
,
0001
0000
0000
0010
0000
0010
0000
0000
,
0100
1000
0100
1000
,
0001
0000
0000
0100
0000
0100
0000
0000
,
1000
0000
0000
1000
0000
0000
0000
0000
,
0001
0000
0000
0010
0000
0010
0000
0000
,
0001
0001
1000
1000
,
0010
0000
0000
0100
0000
0100
0000
0000
,
0001
0000
0000
0001
0000
0000
0000
0000
,
1000
0000
0000
0100
0000
0100
0000
0000
,
0010
0001
0010
0001
,
1000
0000
0000
0010
0000
0010
0000
0000
,
0100
0000
0000
0002
0000
0000
0003
0000
,
1000
0000
0000
0002
0000
0000
0003
0000
,
0100
0000
0000
0020
0000
0000
0030
0000
,
0100
0001
0001
0001
,
1000
0000
0000
0200
0000
0000
0300
0000
,
1000
0000
0000
0002
0000
0000
0003
0000
,
0100
0000
0000
0002
0000
0000
0003
0000
,
0100
0010
0010
0100
,
0001
0000
0000
0020
0000
0000
0030
0000
,
0100
0000
0000
0020
0000
0000
0030
0000
,
0001
0000
0000
2000
0000
0000
3000
0000
,
0010
0100
0100
0100
,
0001
0000
0000
2000
0000
0000
3000
0000
,
0001
0000
0000
0020
0000
0000
0030
0000
,
0100
0000
0000
2000
0000
0000
3000
0000
,
0100
0010
0010
0100
,
1000
0010
0000
0010
,
0100
0001
0000
0001
,
1000
0100
0000
0100
,
1000
0010
0000
0010
,
0001
0100
0000
0100
,
0010
1000
0000
1000
,
0001
0010
0000
0010
,
0100
0010
0000
1000
,
0001
0100
0000
0001
,
0010
0100
0000
0001
,
1000
0100
0000
1000
,
0010
0100
0000
1000
,
0001
0010
0000
0001
,
1000
0100
0000
0001
,
0100
0010
0000
0010
,
0001
0001
0001
0001
,
0001
0010
0000
0010
,
0100
1000
0000
1000
,
0001
0100
0000
0100
,
0010
0100
0000
0100
,
1000
0001
0000
0001
,
0010
0100
0000
0100
,
1000
0010
0000
0010
,
0100
0010
0000
0010
,
0001
1000
0000
1000
,
0100
0010
0000
0100
,
1000
0001
0000
0001
,
0100
0010
0000
0100
,
0001
0010
0000
0010
,
0100
1000
0000
0100
,
0010
0001
0000
0001
,
1000
0000
0001
0010
,
0000
1000
0001
1000
,
0000
1000
0100
0010
,
0000
1000
0010
1000
,
0000
0001
1000
0100
,
0000
0001
0100
0001
,
0000
0010
1000
0100
,
0000
0001
0010
0001
,
0000
0010
0100
1000
,
0000
0010
0001
0010
,
0000
0001
0100
0010
,
0000
0001
1000
0001
,
0000
0100
0010
1000
,
0000
0100
0001
0100
,
0000
0010
1000
0100
,
0000
0001
0100
0000
,
0001
1000
0000
0001
,
0100
0010
0000
0100
,
0001
0010
0000
0001
,
1000
0100
0000
0100
,
1000
0010
0000
1000
,
0001
0100
0000
0001
,
1000
0010
0000
1000
,
0100
0010
0000
0010
,
0001
1000
0000
0001
,
0100
0010
0000
0100
,
0001
1000
0000
0001
,
0010
0100
0000
0100
,
1000
0010
0000
1000
,
0001
0100
0000
0001
,
0010
0100
0000
0010
,
0001
1000
0000
1000
,
0010
0000
0000
0010
0000
0000
0000
0000
,
1000
0000
0000
0001
0000
0001
0000
0000
,
0010
0010
0100
0100
,
1000
0000
0000
0010
0000
0010
0000
0000
,
0001
0000
0000
0001
0000
0000
0000
0000
,
1000
0000
0000
0010
0000
0010
0000
0000
,
0100
0001
0100
0001
,
1000
0000
0000
0100
0000
0100
0000
0000
,
0001
0000
0000
0001
0000
0000
0000
0000
,
1000
0000
0000
0010
0000
0010
0000
0000
,
1000
1000
0001
0001
,
0010
0000
0000
0100
0000
0100
0000
0000
,
1000
0000
0000
1000
0000
0000
0000
0000
,
0001
0000
0000
0100
0000
0100
0000
0000
,
0010
1000
0010
1000
,
0001
0000
0000
0010
0000
0010
0000
0000
,
0100
0000
0000
2000
0000
0000
3000
0000
,
0001
0000
0000
2000
0000
0000
3000
0000
,
0100
0000
0000
0020
0000
0000
0030
0000
,
0100
1000
1000
1000
,
0001
0000
0000
0200
0000
0000
0300
0000
,
0001
0000
0000
2000
0000
0000
3000
0000
,
0100
0000
0000
2000
0000
0000
3000
0000
,
0100
0010
0010
0100
,
1000
0000
0000
0020
0000
0000
0030
0000
,
0100
0000
0000
0020
0000
0000
0030
0000
,
1000
0000
0000
0002
0000
0000
0003
0000
,
0010
0100
0100
0100
,
1000
0000
0000
0002
0000
0000
0003
0000
,
1000
0000
0000
0020
0000
0000
0030
0000
,
0100
0000
0000
0002
0000
0000
0003
0000
,
0100
0010
0010
0100
,
0001
0010
0000
0010
,
0100
1000
0000
1000
,
0001
0100
0000
0100
,
0001
0010
0000
0010
,
1000
0100
0000
0100
,
0010
0001
0000
0001
,
1000
0010
0000
0010
,
0100
0010
0000
0001
,
1000
0100
0000
1000
,
0010
0100
0000
1000
,
0001
0100
0000
0001
,
0010
0100
0000
0001
,
1000
0010
0000
1000
,
0001
0100
0000
1000
,
0100
0010
0000
0010
,
1000
1000
1000
1000
,
1000
0010
0000
0010
,
0100
0001
0000
0001
,
1000
0100
0000
0100
,
0010
0100
0000
0100
,
0001
1000
0000
1000
,
0010
0100
0000
0100
,
0001
0010
0000
0010
,
0100
0010
0000
0010
,
1000
0001
0000
0001
,
0100
0010
0000
0100
,
0001
1000
0000
1000
,
0100
0010
0000
0100
,
1000
0010
0000
0010
,
0100
0001
0000
0100
,
0010
1000
0000
1000
,
0001
0000
1000
0010
,
0000
0001
1000
0001
,
0000
0001
0100
0010
,
0000
0001
0010
0001
,
0000
1000
0001
0100
,
0000
1000
0100
1000
,
0000
0010
0001
0100
,
0000
1000
0010
1000
,
0000
0010
0100
0001
,
0000
0010
1000
0010
,
0000
1000
0100
0010
,
0000
1000
0001
1000
,
0000
0100
0010
0001
,
0000
0100
1000
0100
,
0000
0010
0001
0100
,
0000
1000
0100
0000
,
1000
0001
0000
1000
,
0100
0010
0000
0100
,
1000
0010
0000
1000
,
0001
0100
0000
0100
,
0001
0010
0000
0001
,
1000
0100
0000
1000
,
0001
0010
0000
0001
,
0100
0010
0000
0010
,
1000
0001
0000
1000
,
0100
0010
0000
0100
,
1000
0001
0000
1000
,
0010
0100
0000
0100
,
0001
0010
0000
0001
,
1000
0100
0000
1000
,
0010
0100
0000
0010
,
1000
0001
0000
0001
,
0010
0000
0000
0010
0000
0000
0000
0000
,
0001
0000
0000
1000
0000
1000
0000
0000
,
0010
0010
0100
0100
,
0001
0000
0000
0010
0000
0010
0000
0000
,
1000
0000
0000
1000
0000
0000
0000
0000
,
0001
0000
0000
0010
0000
0010
0000
0000
,
0100
1000
0100
1000
,
0001
0000
0000
0100
0000
0100
0000
0000
,
1000
0000
0000
1000
0000
0000
0000
0000
,
0001
0000
0000
0010
0000
0010
0000
0000
,
0001
0001
1000
1000
,
0010
0000
0000
0100
0000
0100
0000
0000
,
0001
0000
0000
0001
0000
0000
0000
0000
,
1000
0000
0000
0100
0000
0100
0000
0000
,
0010
0001
0010
0001
,
1000
0000
0000
0010
0000
0010
0000
0000
,
0100
0000
0000
0002
0000
0000
0003
0000
,
1000
0000
0000
0002
0000
0000
0003
0000
,
0100
0000
0000
0020
0000
0000
0030
0000
,
0100
0001
0001
0001
,
1000
0000
0000
0200
0000
0000
0300
0000
,
1000
0000
0000
0002
0000
0000
0003
0000
,
0100
0000
0000
0002
0000
0000
0003
0000
,
0100
0010
0010
0100
,
0001
0000
0000
0020
0000
0000
0030
0000
,
0100
0000
0000
0020
0000
0000
0030
0000
,
0001
0000
0000
2000
0000
0000
3000
0000
,
0010
0100
0100
0100
,
0001
0000
0000
2000
0000
0000
3000
0000
,
0001
0000
0000
0020
0000
0000
0030
0000
,
0100
0000
0000
2000
0000
0000
3000
0000
,
0100
0010
0010
0100
,
1000
0010
0000
0010
,
0100
0001
0000
0001
,
1000
0100
0000
0100
,
1000
0010
0000
0010
,
0001
0100
0000
0100
,
0010
1000
0000
1000
,
0001
0010
0000
0010
,
0100
0010
0000
1000
,
0001
0100
0000
0001
,
0010
0100
0000
0001
,
1000
0100
0000
1000
,
0010
0100
0000
1000
,
0001
0010
0000
0001
,
1000
0100
0000
0001
,
0100
0010
0000
0010
,
0001
0001
0001
0001
,
0001
0010
0000
0010
,
0100
1000
0000
1000
,
0001
0100
0000
0100
,
0010
0100
0000
0100
,
1000
0001
0000
0001
,
0010
0100
0000
0100
,
1000
0010
0000
0010
,
0100
0010
0000
0010
,
0001
1000
0000
1000
,
0100
0010
0000
0100
,
1000
0001
0000
0001
,
0100
0010
0000
0100
,
0001
0010
0000
0010
,
0100
1000
0000
0100
,
0010
0001
0000
0001
,
1000
0000
0001
0010
,
0000
1000
0001
1000
,
0000
1000
0100
0010
,
0000
1000
0010
1000
,
0000
0001
1000
0100
,
0000
0001
0100
0001
,
0000
0010
1000
0100
,
0000
0001
0010
0001
,
0000
0010
0100
1000
,
0000
0010
0001
0010
,
0000
0001
0100
0010
,
0000
0001
1000
0001
,
0000
0100
0010
1000
,
0000
0100
0001
0100
,
0000
0010
1000
0100
,
0000
0001
0100
0000
,
0001
1000
0000
0001
,
0100
0010
0000
0100
,
0001
0010
0000
0001
,
1000
0100
0000
0100
,
1000
0010
0000
1000
,
0001
0100
0000
0001
,
1000
0010
0000
1000
,
0100
0010
0000
0010
,
0001
1000
0000
0001
,
0100
0010
0000
0100
,
0001
1000
0000
0001
,
0010
0100
0000
0100
,
1000
0010
0000
1000
,
0001
0100
0000
0001
,
0010
0100
0000
0010
,
0001
1000
0000
1000
,
0010
0000
0000
0010
0000
0000
0000
0000
,
1000
0000
0000
0001
0000
0001
0000
0000
,
0010
0010
0100
0100
,
1000
0000
0000
0010
0000
0010
0000
0000
,
0001
0000
0000
0001
0000
0000
0000
0000
,
1000
0000
0000
0010
0000
0010
0000
0000
,
0100
0001
0100
0001
,
1000
0000
0000
0100
0000
0100
0000
0000
,
0001
0000
0000
0001
0000
0000
0000
0000
,
1000
0000
0000
0010
0000
0010
0000
0000
,
1000
1000
0001
0001
,
0010
0000
0000
0100
0000
0100
0000
0000
,
1000
0000
0000
1000
0000
0000
0000
0000
,
0001
0000
0000
0100
0000
0100
0000
0000
,
0010
1000
0010
1000
,
0001
0000
0000
0010
0000
0010
0000
0000
,
0100
0000
0000
2000
0000
0000
3000
0000
,
0001
0000
0000
2000
0000
0000
3000
0000
,
0100
0000
0000
0020
0000
0000
0030
0000
,
0100
1000
1000
1000
,
0001
0000
0000
0200
0000
0000
0300
0000
,
0001
0000
0000
2000
0000
0000
3000
0000
,
0100
0000
0000
2000
0000
0000
3000
0000
,
0100
0010
0010
0100
,
1000
0000
0000
0020
0000
0000
0030
0000
,
0100
0000
0000
0020
0000
0000
0030
0000
,
1000
0000
0000
0002
0000
0000
0003
0000
,
0010
0100
0100
0100
,
1000
0000
0000
0002
0000
0000
0003
0000
,
1000
0000
0000
0020
0000
0000
0030
0000
,
0100
0000
0000
0002
0000
0000
0003
0000
,
0100
0010
0010
0100
,
0001
0010
0000
0010
,
0100
1000
0000
1000
,
0001
0100
0000
0100
,
0001
0010
0000
0010
,
1000
0100
0000
0100
,
0010
0001
0000
0001
,
1000
0010
0000
0010
,
0100
0010
0000
0001
,
1000
0100
0000
1000
,
0010
0100
0000
1000
,
0001
0100
0000
0001
,
0010
0100
0000
0001
,
1000
0010
0000
1000
,
0001
0100
0000
1000
,
0100
0010
0000
0010
,
1000
1000
1000
1000
,
1000
0010
0000
0010
,
0100
0001
0000
0001
,
1000
0100
0000
0100
,
0010
0100
0000
0100
,
0001
1000
0000
1000
,
0010
0100
0000
0100
,
0001
0010
0000
0010
,
0100
0010
0000
0010
,
1000
0001
0000
0001
,
0100
0010
0000
0100
,
0001
1000
0000
1000
,
0100
0010
0000
0100
,
1000
0010
0000
0010
,
0100
0001
0000
0100
,
0010
1000
0000
1000
,
0001
0000
1000
0010
,
0000
0001
1000
0001
,
0000
0001
0100
0010
,
0000
0001
0010
0001
,
0000
1000
0001
0100
,
0000
1000
0100
1000
,
0000
0010
0001
0100
,
0000
1000
0010
1000
,
0000
0010
0100
0001
,
0000
0010
1000
0010
,
0000
1000
0100
0010
,
0000
1000
0001
1000
,
0000
0100
0010
0001
,
0000
0100
1000
0100
,
0000
0010
0001
0100
,
0000
1000
0100
0000
,
1000
0001
0000
1000
,
0100
0010
0000
0100
,
1000
0010
0000
1000
,
0001
0100
0000
0100
,
0001
0010
0000
0001
,
1000
0100
0000
1000
,
0001
0010
0000
0001
,
0100
0010
0000
0010
,
1000
0001
0000
1000
,
0100
0010
0000
0100
,
1000
0001
0000
1000
,
0010
0100
0000
0100
,
0001
0010
0000
0001
,
1000
0100
0000
1000
,
0010
0100
0000
0010
,
1000
0001
0000
0001
,
0010
0000
0000
0010
0000
0000
0000
0000
,
0001
0000
0000
1000
0000
1000
0000
0000
,
0010
0010
0100
0100
,
0001
0000
0000
0010
0000
0010
0000
0000
,
1000
0000
0000
1000
0000
0000
0000
0000
,
0001
0000
0000
0010
0000
0010
0000
0000
,
0100
1000
0100
1000
,
0001
0000
0000
0100
0000
0100
0000
0000
,
1000
0000
0000
1000
0000
0000
0000
0000
,
0001
0000
0000
0010
0000
0010
0000
0000
,
0001
0001
1000
1000
,
0010
0000
0000
0100
0000
0100
0000
0000
,
0001
0000
0000
0001
0000
0000
0000
0000
,
1000
0000
0000
0100
0000
0100
0000
0000
,
0010
0001
0010
0001
,
1000
0000
0000
0010
0000
0010
0000
0000
,
0100
0000
0000
0002
0000
0000
0003
0000
,
1000
0000
0000
0002
0000
0000
0003
0000
,
0100
0000
0000
0020
0000
0000
0030
0000
,
0100
0001
0001
0001
,
1000
0000
0000
0200
0000
0000
0300
0000
,
1000
0000
0000
0002
0000
0000
0003
0000
,
0100
0000
0000
0002
0000
0000
0003
0000
,
0100
0010
0010
0100
,
0001
0000
0000
0020
0000
0000
0030
0000
,
0100
0000
0000
0020
0000
0000
0030
0000
,
0001
0000
0000
2000
0000
0000
3000
0000
,
0010
0100
0100
0100
,
0001
0000
0000
2000
0000
0000
3000
0000
,
0001
0000
0000
0020
0000
0000
0030
0000
,
0100
0000
0000
2000
0000
0000
3000
0000
,
0100
0010
0010
0100
,
1000
0010
0000
0010
,
0100
0001
0000
0001
,
1000
0100
0000
0100
,
1000
0010
0000
0010
,
0001
0100
0000
0100
,
0010
1000
0000
1000
,
0001
0010
0000
0010
,
0100
0010
0000
1000
,
0001
0100
0000
0001
,
0010
0100
0000
0001
,
1000
0100
0000
1000
,
0010
0100
0000
1000
,
0001
0010
0000
0001
,
1000
0100
0000
0001
,
0100
0010
0000
0010
,
0001
0001
0001
0001
,
0001
0010
0000
0010
,
0100
1000
0000
1000
,
0001
0100
0000
0100
,
0010
0100
0000
0100
,
1000
0001
0000
0001
,
0010
0100
0000
0100
,
1000
0010
0000
0010
,
0100
0010
0000
0010
,
0001
1000
0000
1000
,
0100
0010
0000
0100
,
1000
0001
0000
0001
,
0100
0010
0000
0100
,
0001
0010
0000
0010
,
0100
1000
0000
0100
,
0010
0001
0000
0001
,
1000
0000
0001
0010
,
0000
1000
0001
1000
,
0000
1000
0100
0010
,
0000
1000
0010
1000
,
0000
0001
1000
0100
,
0000
0001
0100
0001
,
0000
0010
1000
0100
,
0000
0001
0010
0001
,
0000
0010
0100
1000
,
0000
0010
0001
0010
,
0000
0001
0100
0010
,
0000
0001
1000
0001
,
0000
0100
0010
1000
,
0000
0100
0001
0100
,
0000
0010
1000
0100
,
0000
0001
0100
0000
,
0001
1000
0000
0001
,
0100
0010
0000
0100
,
0001
0010
0000
0001
,
1000
0100
0000
0100
,
1000
0010
0000
1000
,
0001
0100
0000
0001
,
1000
0010
0000
1000
,
0100
0010
0000
0010
,
0001
1000
0000
0001
,
0100
0010
0000
0100
,
0001
1000
0000
0001
,
0010
0100
0000
0100
,
1000
0010
0000
1000
,
0001
0100
0000
0001
,
0010
0100
0000
0010
,
0001
1000
0000
1000
,
0010
0000
0000
0010
0000
0000
0000
0000
,
1000
0000
0000
0001
0000
0001
0000
0000
,
0010
0010
0100
0100
,
1000
0000
0000
0010
0000
0010
0000
0000
,
0001
0000
0000
0001
0000
0000
0000
0000
,
1000
0000
0000
0010
0000
0010
0000
0000
,
0100
0001
0100
0001
,
1000
0000
0000
0100
0000
0100
0000
0000
,
0001
0000
0000
0001
0000
0000
0000
0000
,
1000
0000
0000
0010
0000
0010
0000
0000
,
1000
1000
0001
0001
,
0010
0000
0000
0100
0000
0100
0000
0000
,
1000
0000
0000
1000
0000
0000
0000
0000
,
0001
0000
0000
0100
0000
0100
0000
0000
,
0010
1000
0010
1000
,
0001
0000
0000
0010
0000
0010
0000
0000
,
0100
0000
0000
2000
0000
0000
3000
0000
,
0001
0000
0000
2000
0000
0000
3000
0000
,
0100
0000
0000
0020
0000
0000
0030
0000
,
0100
1000
1000
1000
,
0001
0000
0000
0200
0000
0000
0300
0000
,
0001
0000
0000
2000
0000
0000
3000
0000
,
0100
0000
0000
2000
0000
0000
3000
0000
,
0100
0010
0010
0100
,
1000
0000
0000
0020
0000
0000
0030
0000
,
0100
0000
0000
0020
0000
0000
0030
0000
,
1000
0000
0000
0002
0000
0000
0003
0000
,
0010
0100
0100
0100
,
1000
0000
0000
0002
0000
0000
0003
0000
,
1000
0000
0000
0020
0000
0000
0030
0000
,
0100
0000
0000
0002
0000
0000
0003
0000
,
0100
0010
0010
0100
,
1000
0001
0000
0001
,
0100
0010
0000
0010
,
1000
0001
0000
0001
,
0010
0100
0100
0100
,
1000
0001
0000
0001
,
0100
0010
0000
0010
,
1000
0100
0000
0100
,
0010
0001
0001
0010
,
0100
1000
0000
1000
,
0001
0100
0000
0100
,
0010
1000
0000
1000
,
0001
0010
0010
0010
,
0100
1000
0000
1000
,
0010
0100
0000
0100
,
0001
0010
0000
0010
,
0100
1000
1000
0100
,
0010
0001
0010
0001
,
1000
0010
0100
0010
,
1000
0001
1000
0001
,
0010
0100
1000
0001
,
0100
0010
0100
0010
,
1000
0001
0010
0001
,
1000
0100
1000
0100
,
0010
0001
0001
0001
,
1000
0010
1000
0010
,
0100
0001
0010
0001
,
0100
0010
0100
0010
,
1000
0001
0010
0100
,
1000
0001
1000
0001
,
0100
0010
1000
0010
,
0100
0001
0100
0001
,
0010
0100
0100
0100
,
1000
0000
0000
1001
0000
0000
0000
0000
,
0010
0000
0000
0100
0000
0100
0000
0000
,
1000
0000
0000
1100
0000
0000
0000
0000
,
0001
0000
0000
0100
0000
0010
0000
0000
,
0001
0000
0000
0101
0000
0000
0000
0000
,
1000
0000
0000
0010
0000
0010
0000
0000
,
0100
0000
0000
0110
0000
0000
0000
0000
,
1000
0000
0000
0001
0000
0100
0000
0000
,
0010
0000
0000
0110
0000
0000
0000
0000
,
0001
0000
0000
1000
0000
1000
0000
0000
,
0010
0000
0000
1010
0000
0000
0000
0000
,
0100
0000
0000
0001
0000
1000
0000
0000
,
0100
0000
0000
1100
0000
0000
0000
0000
,
0010
0000
0000
0001
0000
0001
0000
0000
,
2000
0000
0000
3020
,
0230
0000
0000
0300
,
0001
0010
0000
1000
,
0001
1000
0000
1000
,
0100
0010
0000
1000
,
0010
1000
0000
0001
,
1000
0100
0000
0001
,
0100
0001
0000
0010
,
1000
0100
0000
0001
,
0010
0001
0000
0010
,
0100
1000
0000
0010
,
0001
0010
0000
0001
,
0100
0010
0000
0001
,
1000
0001
0000
0100
,
0010
1000
0000
0100
,
0001
0100
0000
0010
,
1000
0100
0000
0001
,
0100
0001
0000
1000
,
0100
0010
0000
0010
,
0100
0001
0000
0001
,
0100
0010
0000
0010
,
0100
1000
0000
0001
,
0010
0100
0000
0001
,
0010
1000
0000
0001
,
0100
0010
0000
0001
,
0100
1000
0000
0100
,
0010
0100
0000
0100
,
0010
1000
0000
1000
,
0010
0100
0000
0100
,
0010
0001
0000
1000
,
0100
0010
0000
1000
,
0100
0001
0000
1000
,
0010
0100
0000
1000
,
0010
0001
0000
1000
,
0101
0000
0000
0000
;
