#TITLE:Bangarang;
#SUBTITLE:;
#ARTIST:Skrillex;
#TITLETRANSLIT:;
#SUBTITLETRANSLIT:;
#ARTISTTRANSLIT:;
#GENRE:;
#CREDIT:;
#BANNER:Bangarang-bn.png;
#BACKGROUND:Bangarang-bg.png;
#LYRICSPATH:;
#CDTITLE:;
#MUSIC:Bangarang.ogg;
#OFFSET:-23.700;
#SAMPLESTART:26.100;
#SAMPLELENGTH:12.960;
#SELECTABLE:YES;
#BPMS:0.000=110.000,3.000=55.000,3.750=-55.000,11.750=55.000,20.000=220.000,22.000=110.000,29.000=220.000,31.000=110.000,38.000=220.000,40.000=110.000,47.000=220.000,49.000=110.000,55.438=-110.000,63.438=110.000,72.000=220.000,74.000=110.000,81.000=220.000,83.000=110.000,90.000=220.000,92.000=110.000,99.000=220.000,101.000=110.000,108.000=220.000,110.000=110.000,137.000=220.000,138.000=110.000,138.500=220.000,139.500=110.000,140.000=55.000,140.750=-55.000,148.750=55.000,157.000=220.000,157.500=110.000,157.750=220.000,158.250=110.000,158.500=220.000,159.000=110.000,159.250=220.000,159.750=110.000,162.000=220.000,162.500=110.000,162.750=220.000,163.250=110.000,163.500=220.000,164.000=110.000,164.250=220.000,164.750=110.000,166.000=220.000,168.500=110.000,168.750=220.000,169.250=110.000,169.500=220.000,170.000=110.000,170.250=220.000,170.750=110.000,177.000=220.000,177.500=110.000,177.750=220.000,178.250=110.000,178.500=220.000,179.000=110.000,179.250=220.000,179.750=110.000,182.000=220.000,182.500=110.000,182.750=220.000,183.250=110.000,183.500=220.000,184.000=110.000,184.250=220.000,184.750=110.000,186.000=220.000,188.500=110.000,188.750=220.000,189.250=110.000,189.500=220.000,190.000=110.000,190.250=220.000,190.750=110.000,197.000=220.000,197.500=110.000,197.750=220.000,198.250=110.000,198.500=220.000,199.000=110.000,199.250=220.000,199.750=110.000,202.000=220.000,202.500=110.000,202.750=220.000,203.250=110.000,203.500=220.000,204.000=110.000,204.250=220.000,204.750=110.000,206.000=220.000,208.000=440.000,208.000=110.000,208.000=220.000,208.063=220.020,208.125=220.000,208.500=110.000,208.750=220.000,209.250=110.000,209.500=220.000,210.000=110.000,210.250=220.000,210.750=110.000,217.000=220.000,217.500=110.000,217.750=220.000,218.250=110.000,218.500=220.000,219.000=110.000,219.250=220.000,219.750=110.000,222.000=220.000,222.500=110.000,222.750=220.000,223.250=110.000,223.500=220.000,224.000=110.000,224.250=220.000,224.750=110.000,226.000=220.000,228.000=440.000,228.000=110.000,228.000=220.000,228.063=219.980,228.125=220.000,228.500=110.000,228.750=220.000,229.250=110.000,229.500=220.000,230.000=110.000,230.250=220.000,230.750=110.000,235.000=55.000,235.750=-55.000,244.250=55.000,253.000=165.000,253.750=110.000,254.250=165.000,255.000=110.000,255.500=165.000,256.250=110.000,256.750=165.000,257.500=110.000,258.000=165.000,258.750=110.000,259.250=165.000,260.000=110.000,260.500=165.000,261.250=110.000,261.750=165.000,262.500=110.000,263.000=165.000,263.750=110.000,264.250=165.000,265.000=110.000,265.500=165.000,266.250=110.000,266.750=165.000,267.500=110.000,268.000=165.000,268.750=110.000,269.250=165.000,270.000=110.000,270.500=165.000,271.250=110.000,271.750=165.000,272.500=110.000,273.000=165.000,273.750=110.000,274.250=165.000,275.000=110.000,275.500=165.000,276.250=110.000,276.750=165.000,277.500=110.000,278.000=165.000,278.750=110.000,279.250=165.000,280.000=110.000,280.500=165.000,281.250=110.000,281.750=165.000,282.500=110.000,283.000=165.000,283.750=110.000,284.250=165.000,285.000=110.000,285.500=165.000,286.250=110.000,286.750=165.000,287.500=110.000,288.000=165.000,288.750=110.000,289.250=165.000,290.000=110.000,290.500=165.000,291.250=110.000,291.750=165.000,292.500=110.000,293.000=220.000,295.000=110.000;
#STOPS:;
#BGCHANGES:;
#KEYSOUNDS:;

//---------------dance-single - nvwls300----------------
#NOTES:
     dance-single:
     nvwls300:
     Challenge:
     10:
     0.665,0.723,1.000,0.030,0.619:
0000
0000
0000
0000
,
MMMM
0000
0011
0000
,
0000
0000
0000
0000
,
0000
0000
0000
0000
,
0000
0000
0000
0000
,
1111
0000
0000
0000
0000
0000
0000
0000
0011
0000
1001
0000
0101
0000
0100
0010
,
0001
0000
1000
0000
0001
0010
0100
1000
0001
0010
1000
0000
0110
0000
0100
0010
,
0000
1000
111M
0000
0000
0000
0011
0101
,
0011
0000
1000
0100
0010
0000
0100
0000
1000
0001
0100
0001
1000
0100
0010
0000
,
1100
0100
0011
0001
1M11
0000
0000
0000
,
1010
0000
0110
0000
0101
0000
0100
0010
0001
0000
0010
0000
1000
0010
0100
0001
,
0100
0010
0001
0000
0110
0000
0100
0001
0000
0000
0010
0000
M111
0000
0000
0000
,
0000
0000
0000
0000
0011
0000
1001
0000
1010
0000
1000
0100
0001
0000
0010
0000
,
0100
1000
0010
1000
0100
0010
0001
0000
1001
0000
0100
0000
0110
0000
0001
0000
,
MM0M
0000
1010
0000
,
0000
0000
0000
0000
,
0000
0000
0000
0000
,
0000
0000
0000
0000
0000
0000
0000
0000
0000
0000
0000
0000
0000
000M
0000
0000
,
11M1
0000
0000
0000
0000
0000
0000
0000
1010
0000
0101
0000
1010
0000
0100
0001
,
0010
0000
0001
0000
1000
0010
0100
0001
1000
0010
0110
0000
0001
0000
1000
0001
,
0000
0100
M111
0000
0000
0000
1010
0110
,
1010
0000
0100
0100
0010
0000
0100
0000
0001
1000
0010
1000
0100
1000
0010
0000
,
0110
0001
1001
0010
111M
0000
0000
0000
,
0110
0000
0101
0000
1010
0000
0100
0001
1000
0000
0100
0000
1000
0010
0100
0001
,
0100
0010
1010
0000
0100
0000
0001
0010
0000
0000
0001
0000
11M1
0000
0000
0000
,
0000
0000
0000
0000
0011
0000
1100
0000
0110
0000
1000
1000
0010
0000
1000
0000
,
0001
0010
0100
0010
0001
1000
0001
1000
1100
0000
0001
0000
0011
0000
0100
0000
,
1M11
0000
0000
0000
0000
0000
0000
0000
1010
0000
0000
0000
0100
0000
0000
0100
,
0000
0000
0100
0000
0001
0000
0000
0000
1000
0000
0000
0000
0001
0000
0000
0100
,
0000
0000
0001
0000
0010
0000
0000
0000
0010
0000
0000
0000
0100
0000
0000
0100
,
0000
0000
0100
0000
1000
0000
0000
0000
0010
0000
0000
0000
0001
0000
1000
0001
,
0000
0000
1000
0000
0100
0010
0100
1000
0010
0000
0001
0000
0000
0000
0100
0010
,
0100
0010
0100
0010
1000
0001
0010
0001
1000
0000
1000
0000
0000
0000
1100
0000
,
1010
0000
0100
0000
0001
0010
1000
0010
0100
0000
0100
0000
0000
0000
1000
0100
,
0001
0100
1000
0001
0011
0000
0000
0000
1000
0000
1100
0000
0000
0000
0001
0000
,
0110
0000
0100
0010
0000
0000
0000
0000
00MM
0000
0000
0000
0000
0000
0011
0000
0000
0000
0000
0000
1100
0000
0000
0000
0000
0000
0000
0000
0000
0000
0000
0000
,
0000
0000
0000
0000
,
0000
0000
0000
0000
,
0000
0000
0000
0000
,
0000
0000
0000
0000
0011
0000
0000
0011
0000
0000
1100
0000
0000
1010
0000
0000
,
0001
0010
0001
0000
1000
0010
0100
0010
1010
0000
0000
1010
0000
0000
0101
0000
,
0000
0000
0000
0000
1010
0000
0000
0000
0000
0000
0000
0000
0000
0000
0000
0000
1000
0000
0000
0000
0001
0000
0000
0000
1000
0000
0000
0000
0001
0000
0000
0000
0020
0000
0000
0000
0000
0000
0000
0000
0000
0000
0000
0000
0000
0000
0000
0000
0000
0000
0000
0000
0000
0000
0000
0000
0000
0000
0000
0000
0000
0000
0000
0030
,
0110
0000
0000
0110
0000
0000
1100
0000
0000
0011
0000
0000
1000
0010
0001
0000
,
1000
0010
0001
0010
0110
0000
0001
0001
1000
0000
0001
0000
0101
0000
0100
0000
,
1010
0000
0010
0000
1001
0000
0000
1001
0000
0000
0101
0000
0000
1010
0000
0000
,
1000
0100
0010
0000
1000
0100
0010
0001
0101
0000
0000
0101
0000
0000
1100
0000
,
0000
0000
0000
0000
0101
0000
0000
0000
0000
0000
0000
0000
0000
0000
0000
0000
0100
0000
0000
0000
0010
0000
0000
0000
0100
0000
0000
0000
0010
0000
0000
0000
2000
0000
0000
0000
0000
0000
0000
0000
0000
0000
0000
0000
0000
0000
0000
0000
0000
0000
0000
0000
0000
0000
0000
0000
0000
0000
0000
0000
0000
0000
0000
3000
,
1001
0000
0000
1001
0000
0000
0110
0000
0000
1001
0000
0000
0010
0001
0100
0000
,
0010
0001
1000
0001
0011
0000
0100
0100
1000
0000
0100
0000
1001
0000
0001
0000
,
0011
0000
0100
0000
1010
0000
0000
1100
0000
0000
1100
0000
0000
1010
0000
0000
,
0100
0000
0001
0000
1000
0000
0001
0100
0001
0000
0100
0000
0010
0000
1000
0000
1010
0000
0000
0000
0000
0000
1100
0000
0000
0000
0000
0000
0101
0000
0000
0000
,
0000
0000
0000
0000
0011
0000
0000
0000
0000
0000
0000
0000
0000
0000
0000
0000
0100
0000
0000
0000
0010
0000
0000
0000
0100
0000
0000
0000
0010
0000
0000
0000
0002
0000
0000
0000
0000
0000
0000
0000
0000
0000
0000
0000
0000
0000
0000
0000
0000
0000
0000
0000
0000
0000
0000
0000
0000
0000
0000
0000
0000
0000
0000
0003
,
1001
0000
0000
0000
0000
0000
0101
0000
0000
0000
0000
0000
0101
0000
0000
0000
0000
0000
1010
0000
0000
0000
0000
0000
1000
0000
0100
0000
0010
0000
0001
1000
,
0001
0010
0100
0010
0011
0000
1000
1000
0010
0000
0100
0000
0101
0000
1000
0000
,
0011
0000
1000
0000
M11M
0000
0000
0001
0000
0000
1000
0000
0000
M11M
0000
0000
,
1000
0000
0001
0000
1000
0000
0100
0010
0100
0000
1000
0000
0001
0000
1000
0000
1010
0000
0000
0000
0000
0000
0101
0000
0000
0000
0000
0000
1100
0000
0000
0000
,
0000
0000
0000
0000
0011
0000
0000
0000
0000
0000
0000
0000
0000
0000
0000
0000
0001
0000
0000
0000
0100
0000
0000
0000
0001
0000
0000
0000
0100
0000
0000
0000
2000
0000
0000
0000
0000
0000
0000
0000
0000
0000
0000
0000
0000
0000
0000
0000
0000
0000
0000
0000
0000
0000
0000
0000
0000
0000
0000
0000
0000
0000
0000
3000
,
1MM1
0000
0000
0000
0000
0000
0100
0000
0000
0000
0000
0000
0100
0000
0000
0000
0000
0000
1MM1
0000
0000
0000
0000
0000
0010
0000
0100
0000
1000
0000
0001
1000
,
0001
0000
1000
0000
0100
0000
0010
0000
0011
0000
0000
0000
0100
0000
0100
0000
1000
0000
0001
0000
0100
0000
0001
1000
0001
0000
0100
0010
0000
0000
0000
0000
,
M00M
0000
0000
0001
0000
0011
0000
0000
0000
0000
0000
0000
0000
0000
0000
0000
,
0000
0000
0000
0000
,
0000
0000
0000
0000
,
0000
0000
0000
0000
,
0000
0000
0000
0000
1MM1
0000
0000
0001
0000
MM11
0000
0000
0001
0000
11MM
0000
,
0000
0100
0000
M11M
0000
0000
0100
0000
1MM1
0000
0000
0001
0000
M1M1
0000
0000
,
0001
0000
1M1M
0000
0000
0010
0000
M11M
0000
0000
0010
0000
1MM1
0000
0000
1000
,
0000
1M1M
0000
0000
1000
0000
M1M1
0000
0000
0100
0000
M11M
0000
0000
0100
0000
,
1MM1
0000
0000
1000
0000
11MM
0000
0000
1000
0000
MM11
0000
0000
0010
0000
M11M
,
0000
0000
0010
0000
1MM1
0000
0000
0001
0000
MM11
0000
0000
0001
0000
11MM
0000
,
0000
0100
0000
MM11
0000
0000
0001
0000
M11M
0000
0000
0100
0000
MM11
0000
0000
,
0001
0000
11MM
0000
0000
0100
0000
MM11
0000
0000
0001
0000
1MM1
0000
0000
1000
,
0000
1M1M
0000
0000
1000
0000
M1M1
0000
0000
0100
0000
1M1M
0000
0000
1000
0000
,
M11M
0000
0000
0100
0000
1M1M
0000
0000
1000
0000
M1M1
0000
0000
0100
0010
0000
,
0000
0001
1111
0000
0000
0000
0000
0000
;

//---------------dance-single - nvwls300----------------
#NOTES:
     dance-single:
     nvwls300:
     Hard:
     9:
     0.584,0.700,0.737,0.182,0.505:
0000
0000
0000
0000
,
M00M
0000
0010
0000
,
0000
0000
0000
0000
,
0000
0000
0000
0000
,
0000
0000
0000
0000
,
2002
0000
0000
0000
0000
0000
0000
0000
0000
0000
0000
0000
0000
0000
0000
0000
0000
0000
0000
0000
0000
0000
0000
0000
0000
0000
0000
0000
0000
0000
0000
3003
0010
0000
0000
0000
0000
0000
0000
0000
0110
0000
0000
0000
0000
0000
0000
0000
0110
0000
0000
0000
0000
0000
0000
0000
0100
0000
0000
0000
0001
0000
0000
0000
,
0100
0000
0001
0000
1000
0100
0010
0100
1000
0100
0010
0000
1000
0000
0001
1000
,
0000
0000
0000
0000
0000
0000
0000
0000
0010
0000
0000
0000
0000
0000
0000
0000
2002
0000
0000
0000
0000
0000
0000
0000
0000
0000
0000
0000
0000
0000
0000
0000
0000
0000
0000
0000
0000
0000
0000
0000
0000
0000
0000
0000
0000
0000
0000
3003
1000
0000
0000
0000
0000
0000
0000
0000
0100
0000
0000
0000
0000
0000
0000
0000
,
0001
0000
0100
0010
0001
0000
0001
0000
1000
0010
1000
0010
0100
0001
0010
0000
,
0001
0000
0000
0000
0000
0000
0000
0000
0100
0000
0000
0000
0000
0000
0000
0000
1000
0000
0000
0000
0000
0000
0000
0000
0010
0000
0000
0000
0000
0000
0000
0000
0220
0000
0000
0000
0000
0000
0000
0000
0000
0000
0000
0000
0000
0000
0000
0000
0000
0000
0000
0000
0000
0000
0000
0000
0000
0000
0000
0000
0000
0000
0000
0330
,
1000
0000
1001
0000
1001
0000
0001
0100
0010
0000
0100
0000
0001
1000
0100
0010
,
0100
1000
0001
0000
0100
0000
0001
0010
0000
0000
0100
0000
0022
0000
0000
0000
,
0000
0000
0000
0000
0000
0000
0000
0000
0000
0000
0000
0000
0000
0000
0000
0033
0001
0000
0000
0000
0000
0000
0000
0000
0010
0000
0000
0000
0000
0000
0000
0000
0001
0000
0000
0000
0000
0000
0000
0000
1000
0000
0000
0000
0100
0000
0000
0000
0010
0000
0000
0000
0000
0000
0000
0000
0100
0000
0000
0000
0000
0000
0000
0000
,
1000
0001
1000
0001
0100
0001
1000
0000
0100
0000
0100
0000
0010
0000
0010
0000
,
1001
0000
0110
0000
,
0000
0000
0000
0000
,
0000
0000
0000
0000
,
0000
0000
0000
0000
,
2002
0000
0000
0000
0000
0000
0000
0000
0000
0000
0000
0000
0000
0000
0000
0000
0000
0000
0000
0000
0000
0000
0000
0000
0000
0000
0000
0000
0000
0000
0000
3003
0110
0000
0000
0000
0000
0000
0000
0000
0110
0000
0000
0000
0000
0000
0000
0000
0110
0000
0000
0000
0000
0000
0000
0000
0100
0000
0000
0000
0001
0000
0000
0000
,
0010
0000
0100
0000
0001
1000
0010
1000
0001
0100
0010
0000
0110
0000
0100
0001
,
0000
0000
0000
0000
0000
0000
0000
0000
0100
0000
0000
0000
0000
0000
0000
0000
2020
0000
0000
0000
0000
0000
0000
0000
0000
0000
0000
0000
0000
0000
0000
0000
0000
0000
0000
0000
0000
0000
0000
0000
0000
0000
0000
0000
0000
0000
0000
3030
0011
0000
0000
0000
0000
0000
0000
0000
0011
0000
0000
0000
0000
0000
0000
0000
,
0011
0000
1000
0100
0010
0000
0010
0000
0100
1000
0001
1000
0010
1000
0001
0000
,
0100
0000
0000
0000
0000
0000
0000
0000
0100
0000
0000
0000
0000
0000
0000
0000
0001
0000
0000
0000
0000
0000
0000
0000
1000
0000
0000
0000
0000
0000
0000
0000
0022
0000
0000
0000
0000
0000
0000
0000
0000
0000
0000
0000
0000
0000
0000
0000
0000
0000
0000
0000
0000
0000
0000
0000
0000
0000
0000
0000
0000
0000
0000
0033
,
1001
0000
0100
0000
0010
0000
0001
0001
0010
0000
0001
0000
1000
0010
0100
0001
,
0100
0010
1000
0000
0001
0000
1000
0001
0000
0000
0100
0000
2002
0000
0000
0000
,
0000
0000
0000
0000
0000
0000
0000
0000
0000
0000
0000
0000
0000
0000
0000
3003
0110
0000
0000
0000
0000
0000
0000
0000
0001
0000
0000
0000
0000
0000
0000
0000
1000
0000
0000
0000
0000
0000
0000
0000
0100
0000
0000
0000
0100
0000
0000
0000
0010
0000
0000
0000
0000
0000
0000
0000
0100
0000
0000
0000
0000
0000
0000
0000
,
1000
0001
1000
0001
1000
0010
1000
0010
0100
0000
0100
0000
0001
0000
0001
0000
,
0022
0000
0000
0000
0000
0000
0000
0000
0000
0000
0000
0000
0000
0000
0000
0000
0000
0000
0000
0000
0000
0000
0000
0000
0000
0000
0000
0000
0000
0000
0000
0033
0001
0000
0000
0000
0000
0000
0000
0000
0000
0000
0000
0000
0000
0000
0000
0000
0001
0000
0000
0000
0000
0000
0000
0000
0000
0000
0000
0000
0100
0000
0000
0000
,
0000
0000
0010
0000
0001
0000
0000
0000
0001
0000
0000
0000
0001
0000
0000
1000
,
0000
0000
0100
0000
0001
0000
0000
0000
0001
0000
0000
0000
0100
0000
0000
0010
,
0000
0000
1000
0000
0001
0000
0000
0000
0001
0000
0000
0000
1000
0000
0001
1000
,
0000
0000
0001
0000
1000
0000
0000
0000
1000
0000
0000
0000
0001
0000
0000
0100
,
0000
0000
0001
0000
1000
0000
0000
0000
1000
0000
0000
0000
0010
0000
0000
0001
,
0000
0000
0010
0000
1000
0000
0000
0000
1000
0000
0000
0000
0100
0000
0000
0010
,
0000
0001
0110
0000
0100
1100
0000
0100
,
1001
0000
0000
0000
00MM
0000
0000
0011
0000
0000
0101
0000
0000
0000
0000
0000
,
0000
0000
0000
0000
,
0000
0000
0000
0000
,
0000
0000
0000
0000
,
0000
0000
0000
0000
0011
0000
0000
0011
0000
0000
0101
0000
0000
0011
0000
0000
,
0001
0010
0001
0000
1000
0000
0001
0000
1010
0000
0000
1010
0000
0000
1100
0000
,
0000
0000
0000
0000
1010
0000
0000
0000
0000
0000
0000
0000
0000
0000
0000
0000
1000
0000
0000
0000
0001
0000
0000
0000
1000
0000
0000
0000
0001
0000
0000
0000
0020
0000
0000
0000
0000
0000
0000
0000
0000
0000
0000
0000
0000
0000
0000
0000
0000
0000
0000
0000
0000
0000
0000
0000
0000
0000
0000
0000
0000
0000
0000
0030
,
0110
0000
0000
0110
0000
0000
1100
0000
0000
0110
0000
0000
0001
0010
0001
0000
,
1000
0100
1000
0100
1000
0000
0001
0001
0100
0000
0001
0000
1000
0000
0100
0000
,
0001
0000
0010
0000
1001
0000
0000
1001
0000
0000
0100
0000
0000
1001
0000
0000
,
1000
0100
0010
0000
1000
0000
0010
0000
0101
0000
0000
0101
0000
0000
1000
0000
,
0000
0000
0000
0000
0101
0000
0000
0000
0000
0000
0000
0000
0000
0000
0000
0000
0100
0000
0000
0000
0010
0000
0000
0000
0100
0000
0000
0000
0010
0000
0000
0000
2000
0000
0000
0000
0000
0000
0000
0000
0000
0000
0000
0000
0000
0000
0000
0000
0000
0000
0000
0000
0000
0000
0000
0000
0000
0000
0000
0000
0000
0000
0000
3000
,
1001
0000
0000
1001
0000
0000
0100
0000
0000
1001
0000
0000
0010
0001
1000
0000
,
0010
0001
1000
0001
0010
0000
0100
0100
1000
0000
0100
0000
0001
0000
0010
0000
,
1000
0000
0100
0000
0011
0000
0000
0001
0000
0000
0010
0000
0000
0011
0000
0000
,
1000
0000
0000
0000
0001
0000
1000
0100
1000
0000
0000
0000
0001
0000
0000
0000
0010
0000
0000
0000
0000
0000
1001
0000
0000
0000
0000
0000
1001
0000
0000
0000
,
0000
0000
0000
0000
0010
0000
0000
0000
0000
0000
0000
0000
0000
0000
0000
0000
0100
0000
0000
0000
1000
0000
0000
0000
0001
0000
0000
0000
1000
0000
0000
0000
0020
0000
0000
0000
0000
0000
0000
0000
0000
0000
0000
0000
0000
0000
0000
0000
0000
0000
0000
0000
0000
0000
0000
0000
0000
0000
0000
0000
0000
0000
0000
0030
,
0110
0000
0000
0000
0000
0000
0100
0000
0000
0000
0000
0000
0010
0000
0000
0000
0000
0000
0110
0000
0000
0000
0000
0000
1000
0000
0000
0000
0100
0000
0010
0001
,
0010
0000
0001
0000
0100
0000
1000
1000
0010
0000
0001
0000
0101
0000
0001
0000
,
0011
0000
0001
0000
0110
0000
0000
0001
0000
0000
1000
0000
0000
0110
0000
0000
,
0001
0000
0000
0000
1000
0000
0001
0100
0001
0000
0000
0000
1000
0000
0000
0000
0010
0000
0000
0000
0000
0000
0101
0000
0000
0000
0000
0000
0101
0000
0000
0000
,
0000
0000
0000
0000
0010
0000
0000
0000
0000
0000
0000
0000
0000
0000
0000
0000
0100
0000
0000
0000
0001
0000
0000
0000
0100
0000
0000
0000
0010
0000
0000
0000
2000
0000
0000
0000
0000
0000
0000
0000
0000
0000
0000
0000
0000
0000
0000
0000
0000
0000
0000
0000
0000
0000
0000
0000
0000
0000
0000
0000
0000
0000
0000
3000
,
1001
0000
0000
0000
0000
0000
0100
0000
0000
0000
0000
0000
0100
0000
0000
0000
0000
0000
1001
0000
0000
0000
0000
0000
0010
0000
0000
0000
0100
0000
1000
0001
,
1000
0000
0000
0000
0100
0000
0000
0000
0010
0000
0000
0000
0100
0000
0100
0000
1000
0000
0001
0000
1000
0000
0100
0010
0000
0000
0000
0000
0000
0000
0000
0000
,
M00M
0000
0000
0001
0000
0011
0000
0000
0000
0000
0000
0000
0000
0000
0000
0000
,
0000
0000
0000
0000
,
0000
0000
0000
0000
,
0000
0000
0000
0000
,
0000
0000
0000
0000
1001
0000
0000
0001
0000
0011
0000
0000
0001
0000
1100
0000
,
0000
0100
0000
0110
0000
0000
0100
0000
1001
0000
0000
0001
0000
0101
0000
0000
,
0001
0000
1010
0000
0000
0010
0000
0110
0000
0000
0010
0000
1001
0000
0000
1000
,
0000
1010
0000
0000
1000
0000
0101
0000
0000
0100
0000
0110
0000
0000
0100
0000
,
1001
0000
0000
1000
0000
1100
0000
0000
1000
0000
0011
0000
0000
0010
0000
0110
,
0000
0000
0010
0000
1001
0000
0000
0001
0000
0011
0000
0000
0001
0000
1100
0000
,
0000
0100
0000
0011
0000
0000
0001
0000
0110
0000
0000
0100
0000
0011
0000
0000
,
0001
0000
1100
0000
0000
0100
0000
0011
0000
0000
0001
0000
1001
0000
0000
1000
,
0000
1010
0000
0000
1000
0000
0101
0000
0000
0100
0000
1010
0000
0000
1000
0000
,
0110
0000
0000
0100
0000
1010
0000
0000
1000
0000
0101
0000
0000
0100
0010
0000
,
0000
0001
2002
0000
0000
0000
3003
0000
;

//---------------dance-single - nvwls300----------------
#NOTES:
     dance-single:
     nvwls300:
     Medium:
     8:
     0.472,0.532,0.364,0.213,0.326:
0000
0000
0000
0000
,
1001
0000
0010
0000
,
0000
0000
0000
0000
,
0000
0000
0000
0000
,
0000
0000
0000
0000
,
2002
0000
0000
0000
0000
0000
0000
0000
0000
0000
0000
0000
0000
0000
0000
0000
0000
0000
0000
0000
0000
0000
0000
0000
0003
0000
0000
0000
0000
0000
0000
3000
0010
0000
0000
0000
0000
0000
0000
0000
0010
0000
0000
0000
0000
0000
0000
0000
0010
0000
0000
0000
0000
0000
0000
0000
0100
0000
0000
0000
0001
0000
0000
0000
,
0100
0000
0001
0000
1000
0000
0010
0000
1000
0000
0010
0000
0100
0000
0000
0110
,
0000
0000
0000
0000
0000
0000
0000
0000
1000
0000
0000
0000
0000
0000
0000
0000
2002
0000
0000
0000
0000
0000
0000
0000
0000
0000
0000
0000
0000
0000
0000
0000
0000
0000
0000
0000
0000
0000
0000
0000
3000
0000
0000
0000
0000
0000
0000
0003
0100
0000
0000
0000
0000
0000
0000
0000
0100
0000
0000
0000
0000
0000
0000
0000
,
0100
0001
1000
0001
0100
0010
1000
0010
,
0100
0000
0000
0000
0000
0000
0000
0000
0100
0000
0000
0000
0000
0000
0000
0000
0010
0000
0000
0000
0000
0000
0000
0000
0010
0000
0000
0000
0000
0000
0000
0000
0202
0000
0000
0000
0000
0000
0000
0000
0000
0000
0000
0000
0000
0000
0000
0000
0000
0000
0000
0000
0000
0000
0000
0000
0003
0000
0000
0000
0000
0000
0000
0300
,
0010
0000
0100
0000
0010
0000
1000
0001
0010
0000
0001
0000
0100
0000
0010
0000
,
0100
0000
0010
0000
0101
0000
0000
0100
0000
0000
0010
0000
2020
0000
0000
0000
,
0000
0030
3001
0010
0001
0100
1000
0100
,
0001
1000
0100
1000
0001
0001
0100
0010
,
1001
0000
0000
0000
,
0000
0000
0000
0000
,
0000
0000
0000
0000
,
0000
0000
0000
0000
,
2002
0000
0000
0000
0000
0000
0000
0000
0000
0000
0000
0000
0000
0000
0000
0000
0000
0000
0000
0000
0000
0000
0000
0000
3000
0000
0000
0000
0000
0000
0000
0003
0010
0000
0000
0000
0000
0000
0000
0000
0010
0000
0000
0000
0000
0000
0000
0000
0010
0000
0000
0000
0000
0000
0000
0000
0100
0000
0000
0000
0100
0000
0000
0000
,
1000
0000
0100
0000
0010
0000
0001
0000
0010
0000
0001
0000
0100
0000
0000
0101
,
0000
0000
0000
0000
0000
0000
0000
0000
0010
0000
0000
0000
0000
0000
0000
0000
2020
0000
0000
0000
0000
0000
0000
0000
0000
0000
0000
0000
0000
0000
0000
0000
0000
0000
0000
0000
0000
0000
0000
0000
3000
0000
0000
0000
0000
0000
0000
0030
0100
0000
0000
0000
0000
0000
0000
0000
0001
0000
0000
0000
0000
0000
0000
0000
,
0010
0000
0001
0001
1000
0000
0001
0000
0100
0000
0100
0000
0010
0000
0010
0000
,
1000
0100
0001
0010
0220
0000
0000
0300
,
0031
0001
0001
1000
0010
1000
0001
0010
,
0100
0000
0010
0000
1100
0000
0000
0100
0000
0000
0001
0000
0202
0000
0000
0000
,
0000
0000
0003
0000
0310
0000
1000
0000
0100
0000
1000
1000
0010
0000
1000
0000
,
0100
0100
0010
0010
0001
0100
1000
0010
,
2002
0000
0000
0000
0000
0000
0003
0000
3001
0000
0000
0000
0001
0000
0000
0100
,
0000
0000
0010
0000
0001
0000
0000
0000
0001
0000
0000
0000
0001
0000
0000
1000
,
0000
0000
0100
0000
0001
0000
0000
0000
0001
0000
0000
0000
0100
0000
0000
0010
,
0000
0000
1000
0000
0001
0000
0000
0000
0001
0000
0000
0000
1000
0000
0001
1000
,
0000
0000
0001
0000
1000
0000
0000
0000
1000
0000
0000
0000
0001
0000
0000
0100
,
0000
0000
0001
0000
1000
0000
0000
0000
1000
0000
0000
0000
0010
0000
0000
0001
,
0000
0000
0010
0000
1000
0000
0000
0000
1000
0000
0000
0000
0100
0000
0000
0010
,
0000
0001
0220
0000
0330
2200
0000
3300
,
1001
0000
0000
0000
0011
0000
0000
0011
0000
0000
0100
0000
0000
0000
0000
0000
,
0000
0000
0000
0000
,
0000
0000
0000
0000
,
0000
0000
0000
0000
,
0000
0000
0000
0000
0011
0000
0000
0011
0000
0000
0100
0000
0000
0011
0000
0000
,
1000
0000
0010
0000
0100
0000
0010
0000
1010
0000
0000
1010
0000
0000
0001
0000
,
0000
1010
0000
0000
0100
0000
0001
0000
0020
0000
0000
0000
0000
0000
0030
0000
,
0110
0000
0000
1000
0000
0000
1000
0000
0000
0110
0000
0000
0001
0000
1000
0000
,
0001
0000
1000
0000
0010
0000
1000
0001
0100
0000
0001
0000
1000
0000
0100
0000
,
0001
0000
0010
0000
1001
0000
0000
0100
0000
0000
0100
0000
0000
1001
0000
0000
,
0001
0000
0100
0000
0001
0000
0010
0000
0110
0000
0000
1000
0000
0000
0001
0000
,
0000
0110
0000
0000
0100
0000
1000
0000
0020
0000
0000
0000
0000
0000
0030
0000
,
1001
0000
0000
0100
0000
0000
0100
0000
0000
1001
0000
0000
1000
0000
0100
0000
,
1000
0000
0001
0000
0010
0000
0001
0001
0100
0000
0001
0000
1000
0000
0100
0000
,
0001
0000
0010
0000
0110
0000
0000
0001
0000
0000
1000
0000
0000
1001
0000
0000
,
0100
0000
0000
0000
0000
0000
1000
0100
1000
0000
0000
0000
0000
0000
0000
0000
0011
0000
0000
0000
0000
0000
1000
0000
0000
0000
0000
0000
0100
0000
0000
0000
,
0000
0011
0000
0000
1000
0000
0100
0000
0020
0000
0000
0000
0000
0000
0030
0000
,
1001
0000
0000
0000
0000
0000
0100
0000
0000
0000
0000
0000
0010
0000
0000
0000
0000
0000
0110
0000
0000
0000
0000
0000
1000
0000
0000
0000
0000
0000
0001
0100
,
0001
0000
0000
0000
0010
0000
0100
1000
0001
0000
1000
0000
0100
0000
0100
0000
,
0010
0000
0010
0000
1100
0000
0000
1000
0000
0000
0001
0000
0000
0101
0000
0000
,
0010
0000
0000
0000
0000
0000
0001
1000
0001
0000
0000
0000
0000
0000
0000
0000
1010
0000
0000
0000
0000
0000
1000
0000
0000
0000
0000
0000
0001
0000
0000
0000
,
0000
0011
0000
0000
0100
0000
1000
0000
0020
0000
0000
0000
0000
0000
0030
0000
,
0110
0000
0000
0000
0000
0000
0001
0000
0000
0000
0000
0000
0100
0000
0000
0000
0000
0000
1001
0000
0000
0000
0000
0000
1000
0000
0000
0000
0000
0000
0100
0010
,
0100
0000
0000
0000
1000
0000
0001
0001
0100
0000
0001
0000
1001
0000
0000
0000
,
0100
0000
0000
0001
0000
0010
0000
0000
0000
0000
0000
0000
0000
0000
0000
0000
,
0000
0000
0000
0000
,
0000
0000
0000
0000
,
0000
0000
0000
0000
,
0000
0000
0000
0000
0100
0000
0000
0001
0000
0010
0000
0000
0001
0000
0100
0000
,
0000
0001
0000
0010
0000
0000
0001
0000
0100
0000
0000
0001
0000
0010
0000
0000
,
0001
0000
0100
0000
0000
0001
0000
0010
0000
0000
0100
0000
1000
0000
0000
0001
,
0000
0010
0000
0000
0001
0000
1000
0000
0000
0001
0000
0010
0000
0000
0001
0000
,
1000
0000
0000
0001
0000
0010
0000
0000
0001
0000
1000
0000
0000
0001
0000
0010
,
0000
0000
0100
0000
1000
0000
0000
0010
0000
0100
0000
0000
0010
0000
1000
0000
,
0000
0010
0000
0100
0000
0000
0010
0000
1000
0000
0000
0010
0000
0100
0000
0000
,
0010
0000
1000
0000
0000
0010
0000
0100
0000
0000
0001
0000
0010
0000
0000
0100
,
0000
0001
0000
0000
0100
0000
0010
0000
0000
0100
0000
0001
0000
0000
0100
0000
,
0010
0000
0000
0100
0000
0001
0000
0000
0100
0000
0010
0000
0000
0100
0001
0000
,
0000
0100
2002
0000
0000
0000
3003
0000
;
