#TITLE:BBK;
#SUBTITLE:;
#ARTIST:KoRn;
#TITLETRANSLIT:;
#SUBTITLETRANSLIT:;
#ARTISTTRANSLIT:;
#GENRE:;
#CREDIT:;
#BANNER:bbk-bn.png;
#BACKGROUND:bbk-bg.png;
#LYRICSPATH:;
#CDTITLE:;
#MUSIC:BBK.ogg;
#OFFSET:0.083;
#SAMPLESTART:71.540;
#SAMPLELENGTH:16.760;
#SELECTABLE:YES;
#BPMS:0.000=112.500,16.000=112.500,20.000=112.000,24.000=111.500,28.000=111.000,32.000=111.500,36.000=112.000,40.000=112.500,48.000=115.000,80.000=113.000,88.000=113.500,96.000=114.000,104.000=114.500,128.000=57.250,132.000=114.000,148.000=114.250,156.000=114.500,160.000=116.000,164.000=119.000,180.000=119.500,192.000=118.000,196.000=58.500,200.000=114.000,216.000=114.250,224.000=114.500,228.000=115.000,229.000=116.000,230.000=117.000,231.000=118.000,232.000=114.000,236.000=112.500,240.000=111.000,248.000=115.000,252.000=113.000,256.000=112.000,260.000=114.000,262.000=117.000,264.000=112.750,272.000=112.500,280.000=112.750,288.000=113.000,292.000=114.000,293.000=116.000,294.000=118.000,295.000=120.000,296.000=118.000,304.000=116.000,312.000=118.000,320.000=120.000,324.000=118.000,326.000=115.000,328.000=113.000,336.000=113.000,340.000=111.000;
#STOPS:;
#SCROLLS:0.000=1.000;
#TIMESIGNATURES:0.000=4=4;
#BGCHANGES:;
#KEYSOUNDS:;

//---------------dance-single - Geriatric Patrick----------------
#NOTES:
     dance-single:
     Geriatric Patrick:
     Challenge:
     10:
     0.740,0.767,0.699,0.276,0.715:
0000
0000
0000
0000
,
0000
0000
0000
0000
,
0000
0000
0000
0000
,
0000
0000
0000
0012
,
1003
0010
0100
0001
0101
0000
1000
0010
0100
0010
1000
0000
1MM1
0001
0010
0000
,
1000
0100
1000
0001
0011
0000
0010
0100
1000
0100
0010
0000
M11M
0100
1000
0000
,
0001
0100
0001
1000
1010
0000
1000
0001
0010
0001
1000
0000
1M1M
0010
0100
0000
,
1000
0100
0010
0001
0011
0000
1000
0010
0001
0010
1000
0000
1MM1
0000
1001
0000
,
0010
0001
0100
0001
1001
0000
1000
0010
0100
0001
0100
0000
1M1M
1000
0100
0000
,
0010
0100
0001
0010
0110
0000
0001
1000
0010
0100
0010
0000
1MM1
0001
0010
0000
,
1000
0100
0001
0100
0110
0000
0010
0001
1000
0100
1000
0000
MM11
0001
0100
0000
,
1000
0100
0010
1000
1001
0000
0010
1000
0100
0010
0100
0000
1M02
0000
0000
0000
,
0013
0100
1000
0010
0100
0010
1000
0100
0010
0001
0100
0001
2100
0000
0000
0000
,
3010
0100
0001
0100
0010
1000
0001
0010
0001
1000
0010
0100
0021
0000
0000
0000
,
1030
0100
0010
0001
0100
0001
0010
0100
1000
0001
0100
0001
2010
0000
0000
0000
,
3100
0010
0001
0010
0100
1000
0010
0100
0010
1000
0100
0010
0201
0000
0000
0310
,
0100
1000
0010
0100
0001
0100
0010
1000
0100
0010
0001
0010
0102
0000
0000
0000
,
0013
0001
1000
0010
0100
0010
1000
0001
0010
0100
1000
0100
1020
0000
0000
0000
,
0130
1000
0001
1000
0100
0010
0001
0100
0001
0010
0100
1000
0012
0000
0000
0000
,
1003
0010
0100
0010
1000
0001
0010
0100
1010
0001
0010
0100
2010
0000
0000
0000
,
3001
0010
0100
1000
1010
0000
1000
0100
0010
0001
0010
0000
1MM1
0001
0010
0000
,
0100
1000
0010
1000
1001
0000
0010
0100
1000
0010
1000
0000
M1M1
0100
0010
0000
,
0001
0010
0100
0001
0101
0000
0010
0100
1000
0001
1000
0000
M11M
0100
0001
0000
,
0010
1000
0001
0100
0110
0000
0100
0001
1000
0100
1000
0000
1M02
0000
0000
0000
,
1003
0010
0100
0010
1100
0010
0100
0001
0010
0100
1000
0100
1020
0000
0000
0000
,
0130
1000
0001
1000
0101
1000
0001
0100
0010
1000
0001
1000
0021
0000
0000
0000
,
0130
0010
1000
0001
1010
0001
1000
0010
0100
0001
0010
0001
2010
0000
0000
0000
,
3001
0100
0010
1000
0011
1000
0010
0100
0001
1000
0100
1000
0102
0000
0000
1003
,
0001
0100
0010
0100
0011
0100
0010
1000
0100
0010
0001
0010
0201
0000
0000
0000
,
0310
0001
0100
0001
1100
0001
0010
0100
1000
0001
0100
0001
2100
0000
0000
0000
,
3010
1000
0001
0010
0101
0010
0001
1000
0010
1000
0100
0010
0102
0000
0000
0000
,
1003
0001
0010
0100
1010
0001
0010
0100
1000
0001
0100
0010
2100
0000
0000
0000
,
3002
0000
0000
M000
0000
00M0
0000
0000
2003
0000
0000
000M
0000
00M0
0000
3000
,
0110
0000
0001
1000
0010
0000
1010
0000
0000
0000
0001
0000
0010
0000
0001
1000
,
1100
0000
0100
0010
0001
0000
1100
0000
0000
0000
1000
0000
0010
0000
0100
0010
,
1010
0000
0001
0100
0010
0000
0110
0000
0000
0000
0001
0000
0010
0000
0001
1000
,
1010
0000
0010
0100
1000
0000
1100
0000
0000
0000
0110
0000
0110
0000
0010
1000
,
0001
0010
0001
0000
1001
0000
0100
0000
0000
0000
0010
0000
0011
0000
0001
0100
,
0010
0000
0100
0001
1001
0000
0100
0000
0000
0000
1000
0000
1010
0000
0010
1000
,
0001
0000
1000
0100
0110
0000
0001
0000
0000
0000
1000
0000
1100
0000
0001
0010
,
0100
0000
0001
0100
0110
0000
1000
0000
0000
0000
0010
0001
1000
0010
1000
0000
,
0100
0000
1010
0010
0100
0000
0011
0100
,
0000
0000
0001
0000
0110
0000
0000
0000
0001
0000
0100
0000
0110
0000
0100
0001
,
0100
0000
1010
1000
0100
0000
0011
0100
,
0000
0000
1000
0000
1010
0000
0010
0100
0010
0000
0001
0000
0M00
0000
000M
0000
,
1000
0000
0110
0001
0100
0000
1001
0100
,
0000
0000
0100
0000
1001
0000
0001
0010
0100
0000
0010
0000
1000
0000
0010
0000
,
0100
0000
0011
0001
0100
0000
0110
0001
,
0000
0000
0100
0000
1010
0000
0000
0010
0100
0000
0100
0000
0010
1000
0000
0000
,
0101
0001
0001
0001
0001
0001
0001
0001
,
1010
0000
1000
0001
0010
0000
0110
0000
0000
0000
1000
0000
0010
0000
1000
0001
,
0101
0000
0100
0001
0010
0000
0110
0000
0000
0000
0001
0000
1000
0000
0001
0010
,
0110
0000
0010
0001
1000
0000
1010
0000
0000
0000
1000
0000
0001
0000
0010
0001
,
1001
0000
1000
0100
0010
0000
1100
0000
0000
0000
0110
0000
0110
0000
0010
0001
,
1000
0010
1000
0000
0110
0000
0001
0000
0000
0000
1000
0000
0011
0000
0010
0100
,
1000
0000
0100
1000
1001
0000
0100
0000
0000
0000
0001
0000
0011
0000
0010
0001
,
1000
0000
0001
0100
0110
0000
0001
0000
0000
0000
1000
0000
1100
0000
0001
0010
,
0100
0000
0010
0001
1001
0000
0100
0000
0000
0000
0100
0000
1010
0000
0100
0000
,
0002
0000
0000
0023
0000
0130
11M1
0000
,
0002
0000
0000
0023
0000
0130
111M
0000
,
0002
0000
0000
0023
0000
0130
11M1
0000
,
0002
0000
0000
0023
0000
0130
111M
0000
,
0001
0000
0000
1000
0010
0000
0000
1010
0000
0010
0100
0000
0020
1000
0000
1030
,
0100
0000
0000
0001
0010
0000
0000
0011
0000
0010
0100
0000
0020
0001
0000
0031
,
1000
0000
0000
1000
0010
0000
0000
0110
0000
0010
0100
0000
0020
1000
0000
1030
,
0100
0000
0000
0001
0010
0000
0000
0011
0000
0100
1000
0000
0004
0010
0000
0013
,
0100
0000
0010
0001
1000
0010
0100
0000
1000
0001
0010
0100
0000
0001
0000
0100
,
0000
0000
0010
0000
0001
0000
0000
0000
1000
0000
0010
0000
0100
0000
0001
0000
0010
0000
0001
0010
0001
0000
0010
0000
0100
0000
0000
0000
4000
0000
0000
0000
,
3010
0100
0010
0000
1010
0000
0100
0010
0100
0000
0011
0000
0001
1000
0000
0001
,
0010
0100
0010
0000
1000
0001
1000
0000
0010
0001
0100
0001
0010
0100
1000
0100
,
0000
1000
0001
1000
0100
1000
0010
0100
0001
0100
1000
0100
0010
0100
0001
0100
,
0000
1000
0100
1000
0001
0100
0010
1000
0010
0001
0000
0100
0010
1000
0010
0001
,
0000
0000
0000
1000
0000
0000
0001
0000
0000
1000
0000
0000
0001
0000
0010
0000
0100
0000
1000
0000
0000
0100
0000
0000
1000
0000
0000
0000
0000
0000
0011
0000
0000
0000
0000
0000
0100
0000
0000
0001
0000
0000
0100
0000
0000
0010
0000
0000
,
0000
0100
1000
0100
0010
0001
0100
0000
1001
0000
0100
0000
1001
0000
0100
0000
,
2012
0000
00M0
0003
0100
0100
30M0
2020
,
0000
3000
M000
0030
20M1
0001
00M0
3100
,
1220
0000
M000
0300
1000
1000
0M30
2200
,
0000
3000
M000
0300
0012
0010
0000
0103
,
0221
0001
000M
0030
1000
1000
03M0
0202
,
0000
0300
0M00
0003
2001
0001
000M
3001
,
1022
0000
M000
0030
0100
0100
01M3
2200
,
0000
00M0
0011
3011
,
1300
1000
1000
11M1
,
1000
1000
1000
111M
,
1000
1000
1000
11M1
,
0000
0000
0000
0000
0000
0000
M1MM
0M00
;

//---------------dance-single - Geriatric Patrick----------------
#NOTES:
     dance-single:
     Geriatric Patrick:
     Hard:
     9:
     0.597,0.673,0.390,0.211,0.458:
0000
0000
0000
0000
,
0000
0000
0000
0000
,
0000
0000
0000
0000
,
0000
0000
0000
1002
,
0013
0100
1000
0100
0010
0000
0001
0010
0100
1000
0100
0000
0010
0001
0010
0000
,
0001
1000
0100
1000
0010
0000
1000
0010
0100
0001
0100
0000
0010
1000
0010
0000
,
0100
0001
0010
0001
1000
0000
0001
0010
0100
1000
0100
0000
0010
0001
0010
0000
,
0001
1000
0010
1000
0001
0000
1000
0010
0100
0001
0100
0000
0101
0000
0101
0000
,
0010
1000
1001
0001
0010
0100
1MM2
0000
,
0013
0100
1100
1000
0001
0010
21MM
0000
,
3001
0100
0110
0010
1000
0001
M12M
0000
,
1030
0001
0011
0010
0100
1000
MM12
0000
,
1003
0100
1000
0001
0100
0010
0100
0001
1000
0010
1000
0001
0020
0000
0000
0000
,
0130
1000
0100
0010
0001
1000
0001
0010
0100
1000
0001
1000
0200
0000
0000
0000
,
0310
0001
0010
0100
1000
0001
1000
0100
0010
0001
1000
0001
0020
0000
0000
0000
,
0031
0100
0001
1000
0100
0010
0100
1000
0001
0010
0001
1000
0020
0000
0000
1030
,
0001
0010
0100
0010
0001
1000
0010
1000
0001
0100
0010
0100
0002
0000
0000
0000
,
1003
0100
0010
0100
1000
0001
0100
0001
1000
0010
0100
0001
0200
0000
0000
0000
,
0310
1000
0001
1000
0010
0100
0001
0100
0010
1000
0001
0010
0200
0000
0000
0000
,
0310
0001
1000
0001
0010
0100
1000
0100
0010
0001
0100
0001
0020
0000
0000
0000
,
0031
0100
0110
0100
0001
1000
2100
0M00
,
3M01
1000
1010
1000
0001
0010
0210
00M0
,
03M1
0100
1100
0100
0010
0001
1002
M000
,
M013
0100
0101
0100
0010
0001
0120
0M00
,
0M31
0010
0100
1000
0001
1000
0100
0010
0001
1000
0010
1000
0002
0000
0000
0000
,
1003
0010
1000
0001
0010
0100
1000
0100
0010
0001
1000
0010
2000
0000
0000
0000
,
3001
0010
0001
1000
0010
0100
0001
0100
0010
1000
0001
0010
0002
0000
0000
0000
,
1003
0100
0010
0001
1000
0001
0010
0100
1000
0001
0100
0001
2000
0000
0000
3001
,
0010
0100
0010
0001
1000
0100
0010
0100
1000
0001
0100
0010
0200
0000
0000
0000
,
0301
0010
0001
1000
0100
0010
0001
0010
0100
1000
0001
0100
0002
0000
0000
0000
,
1003
0010
0100
0010
1000
0001
0010
0100
1000
0001
0100
0001
2000
0000
0000
0000
,
3010
0100
0001
0100
0010
1000
0001
0010
0100
1000
0001
1000
0200
0000
0000
0000
,
0300
0000
0000
M000
0000
00M0
0000
0000
0000
0000
0000
000M
0000
00M0
0000
0000
,
0110
0000
0100
1000
0001
0000
1000
0000
0000
0000
0001
0000
0010
0000
0001
1000
,
0100
0000
0100
0010
0001
0000
0010
0000
0000
0000
1000
0000
0010
0000
0100
0010
,
1000
0000
1000
0001
0010
0000
0001
0000
0000
0000
0100
0000
0010
0000
0100
0001
,
1000
0000
1000
0100
0010
0000
0100
0000
0000
0000
0110
0000
0110
0000
0010
0100
,
1000
0001
1000
0000
0010
0000
1000
0000
0000
0000
0001
0000
0011
0000
0010
0100
,
0010
0000
0100
1000
0001
0000
0100
0000
0000
0000
1000
0000
1010
0000
0010
1000
,
0001
0000
1000
0001
0010
0000
0100
0000
0000
0000
0001
0000
1001
0000
1000
0100
,
1000
0000
0100
0010
0001
0000
0100
0000
0000
0000
0010
1000
0010
0100
0001
0000
,
0100
0000
1010
0010
0100
0000
1000
0100
,
0000
0001
0010
0000
0001
0100
0110
0100
,
0001
0000
1010
1000
0100
0000
0001
0100
,
0000
1000
0010
0000
0000
0001
M000
000M
,
1000
0000
0110
0010
1000
0000
0100
0001
,
0000
0000
0010
0000
1000
0000
0000
0010
0100
0000
0010
0000
1000
0000
0010
0000
,
0100
0000
1001
0001
0100
0000
1000
0100
,
0000
0000
0001
0000
0010
0000
0000
1000
0100
0000
0100
0000
0010
0001
0000
0000
,
0100
0000
0000
0000
,
1010
0000
1000
0001
0010
0000
0001
0000
0000
0000
1000
0000
0010
0000
1000
0001
,
0100
0000
0001
0100
0010
0000
0100
0000
0000
0000
0001
0000
0010
0000
0001
1000
,
0010
0000
0010
0100
0001
0000
0100
0000
0000
0000
1000
0000
0010
0000
1000
0001
,
0010
0000
0001
1000
0010
0000
0100
0000
0000
0000
0110
0000
0110
0000
0010
1000
,
0001
0100
0001
0000
0010
0000
0001
0000
0000
0000
1000
0000
1010
0000
0010
0100
,
0010
0000
1000
0001
0010
0000
0100
0000
0000
0000
0100
0000
0011
0000
0010
0100
,
1000
0000
0100
0010
0100
0000
0001
0000
0000
0000
1000
0000
1001
0000
0001
0100
,
0010
0000
0100
0010
0001
0000
0010
0000
0000
0000
0100
0000
0010
0000
0100
0000
,
0001
0001
0001
11MM
,
0001
0001
0001
M11M
,
1000
1000
1000
M1M1
,
1000
1000
1000
M11M
,
0001
0000
0000
0000
0010
0000
0000
0010
0000
0010
0100
0000
0020
0100
0000
0000
,
0130
0000
0000
0000
1000
0000
0000
1000
0000
1000
0100
0000
2000
0100
0000
0000
,
3100
0000
0000
0000
0010
0000
0000
0010
0000
0010
0001
0000
0020
0001
0000
0000
,
0031
0000
0000
0000
1000
0000
0000
1000
0000
1000
0001
0000
1000
0010
1000
0010
,
0100
0010
1010
1000
0001
0010
0110
0010
,
0001
1000
1010
0010
0100
0001
0011
0001
,
1000
0010
0110
0100
0001
1000
1100
1000
,
0010
0100
0101
0001
1000
0100
0110
0110
,
0010
0001
1001
1000
0010
0100
1010
0010
,
0100
0001
0011
0010
0100
1000
0110
0100
,
1000
0001
0101
0100
0001
0010
1100
0100
,
0010
0001
1001
1000
0110
1000
0110
0000
,
0012
0000
00M0
0000
0100
0103
0000
1020
,
0000
0000
M000
0030
2001
0001
000M
3001
,
2001
0000
000M
0000
0100
3100
0000
0120
,
0000
0000
0M00
0030
0012
0010
0000
1003
,
1020
0100
M000
0000
0100
0130
0000
1002
,
0000
0000
M000
0003
0021
0001
000M
0031
,
0120
0000
0M00
0000
0100
0130
1000
1200
,
0000
M000
0001
0001
,
1300
1000
1000
M1M1
,
1000
1000
1000
M11M
,
0001
0001
0001
11MM
,
0000
0000
0000
M1MM
;

//---------------dance-single - Geriatric Patrick----------------
#NOTES:
     dance-single:
     Geriatric Patrick:
     Medium:
     7:
     0.432,0.418,0.395,0.173,0.046:
0000
0000
0000
0000
,
0000
0000
0000
0000
,
0000
0000
0000
0000
,
0000
0000
0000
1001
,
0100
0000
1010
1000
0100
0000
0012
0000
,
0103
0000
1001
0001
0100
0000
2010
0000
,
3001
0000
0110
0100
1000
0000
1002
0000
,
0103
0000
0000
0000
1001
0000
1000
0000
0100
0000
0000
0000
0120
0000
0100
0030
,
1000
0000
1010
0010
0100
0000
0201
0000
,
0310
0000
1001
0001
0010
0000
0120
0000
,
0031
0000
1100
1000
0001
0000
0102
0000
,
1003
0000
0110
0001
1000
0000
2001
0000
,
3001
0100
0010
0100
0001
1000
1010
0000
,
0001
0010
0100
0010
0001
0100
0110
0000
,
1000
0001
0010
0001
1000
0100
0110
0000
,
1000
0000
0010
0000
0100
0000
0010
0000
1000
0000
0001
0000
0011
0000
0000
0001
,
1000
0001
0010
0100
1000
0001
0101
0000
,
1000
0100
0010
0001
1000
0010
0110
0000
,
0001
1000
0100
0010
0001
1000
1010
0000
,
0001
0100
1000
0100
0010
0100
0110
0000
,
1000
0000
0011
0001
1000
0000
1020
0000
,
0130
0000
1010
1000
0100
0000
0021
0000
,
0130
0000
1001
1000
0010
0000
0201
0000
,
0310
0000
1001
0001
0010
0000
1200
0000
,
0310
0001
0100
0001
0010
0100
1100
0000
,
0010
0001
0100
0010
1000
0010
0110
0000
,
1000
0001
0010
0100
1000
0001
0101
0000
,
1000
0000
0100
0000
0010
0000
0001
0000
0100
0000
0001
0000
0011
0000
0000
0010
,
0100
1000
0010
1000
0100
0010
0011
0000
,
0100
1000
0010
0100
0001
0100
0110
0000
,
0001
1000
0100
0010
0001
1000
1010
0000
,
0001
0010
0100
1000
0010
1000
1100
0000
,
0010
0000
0000
0000
,
1000
0001
0101
1000
0000
1000
0010
1000
,
0001
0010
0110
0001
0000
0001
1000
0001
,
0010
0100
1100
1000
0000
0010
0001
0010
,
0100
0001
1001
1000
0000
0100
0100
0100
,
1000
0010
0110
0001
0000
1000
0010
1000
,
0001
0010
0110
0100
0000
1000
0001
1000
,
0100
0010
0011
1000
0000
0001
0010
0001
,
0100
0000
0010
0000
1010
0000
1000
0000
0000
0000
0001
0010
0001
0010
0001
0000
,
1000
0000
0010
1000
0100
0000
0010
0100
,
0000
0100
0010
0000
0100
1000
0010
0100
,
0001
0000
0010
0001
0100
0000
0010
0100
,
0000
0001
0010
0000
0000
0100
0000
0000
,
0100
0000
0010
0001
0100
0000
0010
0100
,
0000
0100
0010
1000
0001
1000
0010
1000
,
0100
0000
0010
0100
1000
0000
0010
0100
,
0000
0000
0001
0000
0010
0000
0000
0000
0001
0000
1000
0000
0001
0010
0000
0000
,
0100
0000
0000
0000
,
0110
0010
0001
0100
0000
0001
0011
0010
,
0100
1000
0010
1000
0000
1000
1010
0010
,
0100
0001
0010
0001
0000
1000
1100
1000
,
0001
0100
0010
0100
0000
0110
0110
0110
,
0010
1000
0001
1000
0000
0010
0110
0100
,
0001
0010
0001
0100
0000
1000
1010
0010
,
0100
0001
0010
0001
0000
0100
0110
0100
,
0001
1000
0010
1000
0000
0001
0011
0001
,
0100
0000
0000
0010
0000
0000
1001
0000
,
0100
0000
0000
0010
0000
0000
1001
0000
,
0100
0000
0000
0010
0000
0000
1001
0000
,
0100
0000
0000
0010
0000
0000
1001
0000
,
0100
0000
0000
0000
0000
0000
0000
0000
0000
0000
0000
0000
0001
1000
0000
1000
,
0100
0000
0000
0000
0000
0000
0000
0000
0000
0000
0000
0000
1000
0001
0000
0001
,
0100
0000
0000
0000
0000
0000
0000
0000
0000
0000
0000
0000
0010
1000
0000
1000
,
0100
0000
0000
0000
0000
0000
0000
0000
0000
0000
0000
0000
0010
0001
0010
0001
,
0000
0000
1000
0000
0010
0000
1000
0000
0100
0000
0000
0010
0000
0010
0000
0010
,
0000
0100
0010
0001
1000
0001
0010
0000
,
0100
0100
1000
0001
0001
1000
0100
0000
,
0010
0010
0001
0001
1000
0100
0010
0100
,
0000
1000
0001
0010
0001
0100
0010
1000
,
0000
1000
0100
0010
0010
0000
0100
0010
,
0000
0000
1000
0000
0001
0000
0100
0000
0001
0000
0010
0000
0100
0000
0000
0010
,
0000
0100
1000
0001
1001
0000
1001
0000
,
2002
0000
0000
3000
0010
0013
0000
0200
,
0000
0000
0000
0000
2300
0010
0000
3010
,
2020
0000
0000
0030
0001
3001
0000
0200
,
0000
0000
0000
0000
0320
1000
0000
1030
,
2001
0001
0000
0000
0100
3100
0000
0020
,
0000
0000
0000
0000
0032
1000
0000
1003
,
2020
0000
0000
3000
0100
0130
0100
0002
,
0000
0000
1000
1000
,
0003
0000
0000
0202
,
0303
0000
0000
2002
,
3003
0000
0000
2200
,
3300
0000
0000
0001
;

//---------------dance-single - Geriatric Patrick----------------
#NOTES:
     dance-single:
     Geriatric Patrick:
     Easy:
     5:
     0.269,0.279,0.184,0.417,0.000:
0000
0000
0000
0000
,
0000
0000
0000
0000
,
0000
0000
0000
0000
,
0000
0000
0000
0200
,
0300
1001
0000
2100
,
3000
1001
0000
0201
,
0300
1010
0000
0102
,
0003
0000
0011
0000
0000
0000
1200
1000
,
0300
0110
0000
2100
,
3000
1010
0000
0201
,
0300
0110
0000
0102
,
0003
0011
0000
2001
,
3000
0000
0000
0000
0001
0010
0000
0001
,
0000
0100
0000
0001
0000
1000
0000
0100
,
0000
0000
0000
0000
0010
0001
0000
1000
,
0000
1000
0000
0010
0000
1000
0002
0000
,
0000
0000
0003
0000
0010
0010
0000
0100
,
0000
1000
0000
0001
0000
0100
0000
0001
,
0000
0000
0000
1000
0010
1000
0001
0200
,
0000
0000
0010
0310
,
0000
1001
0000
2100
,
3000
1001
0000
0201
,
0300
0110
0000
0102
,
0003
1010
0000
0201
,
0300
0000
0000
0000
1000
1000
0000
0100
,
0000
0010
0000
0100
0000
1000
0000
0100
,
0000
0000
0000
0000
0001
1000
0001
0100
,
0000
0100
0000
0010
0000
0100
0002
0000
,
0000
0000
0003
0000
0010
0010
0000
0001
,
0000
0100
0000
0001
0000
1000
0000
0100
,
0000
0000
0000
1000
0001
0010
0001
2000
,
0000
0000
0000
3000
,
0000
0000
0000
0000
,
1001
0000
0000
0000
0100
0100
0000
0020
,
0000
0000
0030
0000
1000
0001
0000
0001
,
1000
0000
0000
0000
0100
0100
0000
2000
,
0000
0000
3000
0000
0010
0001
0000
0001
,
0010
0100
0000
0000
1000
1000
0000
0020
,
0000
0000
0030
0000
0100
0001
0000
0001
,
0100
0000
0000
0000
0001
1000
0001
0020
,
0000
0000
0000
0030
,
0000
0000
0000
0100
0010
0001
0000
1000
,
0000
0001
0000
0100
0000
0100
0010
0200
,
0000
0000
0300
0000
0001
1000
0000
0001
,
0000
0001
0000
0010
0000
0010
0200
0000
,
0000
0000
0300
1000
0010
0010
0000
1000
,
0000
0001
0000
0100
0000
0100
0001
1000
,
0000
0000
0000
0000
0001
0010
0001
2000
,
0000
0000
0000
3000
,
0100
0000
0000
0000
,
1001
0000
0000
0000
0100
0100
0000
0020
,
0000
0000
0030
0000
1000
0001
0000
0001
,
1000
0000
0000
0000
0010
0010
0000
0200
,
0000
0000
0300
0000
0010
1000
0000
1000
,
0010
0100
0000
0000
1000
1000
0000
0200
,
0000
0000
0300
0000
0010
0001
0000
0001
,
0010
0000
0000
0000
0001
1000
0001
0020
,
0000
0000
0000
0030
,
0000
0000
0000
2200
,
3300
0000
0000
2200
,
3300
0000
0000
2200
,
3300
0000
0000
2200
,
3300
0001
0000
0020
,
0030
1000
0000
0020
,
0030
0001
0000
0020
,
0030
0000
1000
0000
0000
0000
0010
0010
,
0200
0000
0000
0302
0000
0020
0033
0000
,
0200
0000
0000
2300
0000
0020
3030
0000
,
0200
0000
0000
0302
0000
0020
0033
0000
,
0200
0000
0000
2300
0000
0020
3030
0000
,
0200
0000
0000
0320
0000
2000
3030
0000
,
0200
0000
0000
0320
0000
0002
0033
0000
,
0200
0000
0000
0320
0000
2000
3030
0000
,
0200
0000
0000
0310
0001
0010
0001
0000
,
2002
0000
0000
3003
0100
0100
0000
0020
,
0000
0000
0030
0000
2000
0001
0000
3001
,
2000
0000
0000
3000
0010
0010
0000
0200
,
0000
0000
0300
0000
0010
1000
0000
1000
,
0020
0100
0000
0030
1000
1000
0000
0002
,
0000
0000
0003
0000
0010
0100
0000
0100
,
0020
0000
0000
0030
0001
1000
0001
0200
,
0000
0000
0010
0010
,
0300
0000
0000
0202
,
0303
0000
0000
0202
,
0303
0000
0000
0202
,
0303
0000
0000
0001
;

//---------------dance-single - Geriatric Patrick----------------
#NOTES:
     dance-single:
     Geriatric Patrick:
     Beginner:
     2:
     0.173,0.186,0.146,0.460,0.000:
0000
0000
0000
0000
,
0000
0000
0000
0000
,
0000
0000
0000
0000
,
0000
0000
0000
0220
,
0330
0000
0000
2002
,
3003
0000
0000
2002
,
3003
0000
0000
2002
,
3003
0000
0000
2002
,
3003
0000
0000
0220
,
0330
0000
0000
0220
,
0330
0000
0000
0220
,
0330
0000
0000
0220
,
0330
0000
0000
0002
,
0003
0000
0000
0020
,
0030
0000
0000
0200
,
0300
0000
0000
2000
,
3000
0000
0000
0002
,
0003
0000
0000
0200
,
0300
0000
0000
0020
,
0030
0000
0000
2000
,
3000
0000
0000
2002
,
3003
0000
0000
2002
,
3003
0000
0000
0220
,
0330
0000
0000
0220
,
0330
0000
0000
0002
,
0003
0000
0000
0020
,
0030
0000
0000
0002
,
0003
0000
0000
0200
,
0300
0000
0000
2000
,
3000
0000
0000
0020
,
0030
0000
0000
2000
,
3000
0000
0000
0200
,
0300
0000
0000
0000
,
0000
0001
0000
0001
,
0000
1000
0000
1000
,
0000
0100
0000
0100
,
0000
0010
0000
0010
,
0000
0001
0000
0001
,
0000
1000
0000
1000
,
0000
0010
0000
0010
,
0000
0100
0000
0100
,
0000
0001
0000
1000
,
0000
0001
0000
1000
,
0000
0100
0000
1000
,
0000
0100
0000
0000
,
0000
0001
0000
0010
,
0000
0001
0000
0010
,
0000
0001
0000
1000
,
0000
0001
0000
1000
,
0100
0000
0000
0000
,
0000
0010
0000
0010
,
0000
0100
0000
0100
,
0000
1000
0000
1000
,
0000
0010
0000
0010
,
0000
0001
0000
0001
,
0000
0010
0000
0010
,
0000
0100
0000
0100
,
0000
0001
0000
0001
,
0000
0000
0000
0220
,
0330
0000
0000
0220
,
0330
0000
0000
0220
,
0330
0000
0000
0220
,
0330
0000
0000
2000
,
3000
0000
0000
0002
,
0003
0000
0000
2000
,
3000
0000
0000
0002
,
0003
0000
0000
2002
,
3003
0000
0000
2002
,
3003
0000
0000
2002
,
3003
0000
0000
2002
,
3003
0000
0000
0220
,
0330
0000
0000
0220
,
0330
0000
0000
0220
,
0330
0000
0010
0010
,
0020
0000
0000
0000
0000
0000
0000
2030
,
0000
0000
3002
0000
,
0023
0000
0000
0000
0000
0000
0000
0032
,
0000
0000
2003
0000
,
3020
0000
0000
0000
0000
0000
0000
2030
,
0000
0000
3002
0000
,
0023
0000
0000
0000
0000
0000
0000
0032
,
0000
0000
1003
1000
,
0000
0000
0000
2002
,
3003
0000
0000
2002
,
3003
0000
0000
2002
,
3003
0000
0000
0100
;
