#TITLE:B.Y.O.B.;
#SUBTITLE:;
#ARTIST:System of a Down;
#TITLETRANSLIT:;
#SUBTITLETRANSLIT:;
#ARTISTTRANSLIT:;
#GENRE:;
#CREDIT:;
#BANNER:B.Y.O.B.-bn.png;
#BACKGROUND:B.Y.O.B.-bg.png;
#LYRICSPATH:;
#CDTITLE:DJ Obvious.gif;
#MUSIC:B.Y.O.B..ogg;
#OFFSET:-0.500;
#SAMPLESTART:51.724;
#SAMPLELENGTH:13.500;
#SELECTABLE:YES;
#DISPLAYBPM:*;
#BPMS:0.000=166.001,22.000=157.002,24.000=306.000,36.000=298.000,40.000=308.000,48.000=312.000,52.000=302.000,60.000=308.000,64.000=318.000,68.000=294.000,72.000=300.000,76.000=312.000,80.000=302.000,90.000=206.000,96.000=412.000,99.000=206.000,105.000=208.000,113.000=402.000,116.000=201.000,120.000=207.000,122.000=230.000,124.000=198.000,138.000=396.000,141.000=198.000,153.000=185.000,157.000=190.000,159.000=210.000,161.000=200.000,166.000=207.000,169.000=195.000,173.000=203.000,174.000=206.000,178.000=201.000,184.000=210.000,185.000=203.000,197.000=199.000,206.000=203.000,214.000=205.041,215.000=198.041,217.000=198.000,219.000=200.401,221.000=201.000,223.000=190.000,223.188=207.000,224.000=203.000,227.000=200.000,238.000=203.000,244.000=208.000,249.000=207.000,260.000=205.000,263.000=410.000,264.417=412.000,266.000=205.000,280.000=210.000,282.000=206.000,288.000=412.000,291.000=206.000,305.000=412.000,308.000=206.000,312.000=190.000,314.000=195.000,315.500=202.000,325.000=198.000,328.000=204.000,335.000=220.000,336.500=203.000,344.000=203.600,356.000=201.600,358.000=199.600,362.000=205.600,371.000=199.600,376.000=204.000,380.000=203.700,384.000=201.700,389.000=203.700,402.000=207.700,408.000=197.700,410.000=210.001,412.000=203.680,416.000=205.680,422.000=205.000,423.000=199.000,424.000=202.000,428.000=205.000,440.000=201.000,449.000=206.000,458.000=199.000,463.000=207.000,471.000=92.950,473.000=316.000,484.000=322.000,490.000=325.000,501.000=320.000,503.000=313.000,506.000=325.000,513.000=312.000,515.000=326.000,518.000=318.000,525.000=320.000,533.000=326.000,564.000=323.000,569.000=319.999,593.000=313.000,598.000=324.000,601.000=319.000,607.000=285.339,609.000=304.000,615.000=301.000,617.000=300.000,617.021=268.000,618.000=207.000,631.000=202.000,632.000=404.000,635.000=202.000,637.000=205.000,647.000=211.000,651.000=205.000,657.000=410.000,660.000=205.000,671.000=208.000,674.000=416.000,675.000=410.000,677.000=208.000,681.000=196.000,683.000=193.000,684.500=202.000,689.000=198.000,694.000=201.000,696.000=203.000,702.000=199.000,705.000=201.000,710.000=210.000,713.000=200.000,717.000=196.000,723.000=198.000,731.000=200.000,739.000=204.000,751.000=202.000,757.000=204.000,763.000=199.000,769.000=202.000,771.000=203.000,781.000=198.000,788.000=201.000,809.000=204.000,813.000=203.000,826.000=204.000,827.000=212.000,828.000=209.000,829.000=336.000,836.000=333.000,845.000=315.000,850.000=330.000,861.000=319.999,871.000=328.999,877.000=313.999,885.000=309.999,890.000=320.999,893.000=309.999,898.500=315.000,899.000=329.000,901.000=322.000,909.000=300.000,917.000=324.000,923.000=310.000,932.000=326.000,937.000=313.000,945.000=322.000,954.000=313.000,970.000=332.000;
#STOPS:88.000=1.176
,96.000=0.146
,113.000=0.149
,138.000=0.152
,248.000=1.235
,263.000=0.146
,288.000=0.146
,305.000=0.146
,617.000=1.424
,632.000=0.149
,657.000=0.146
,674.000=0.144
;
#BGCHANGES:23.500=BYOB.avi=1.000=0=0=1=====,
980.000=B.Y.O.B.-bg.png=1.000=0=0=1=====,
99999=-nosongbg-=1.000=0=0=0 // don't automatically add -songbackground-
;
#KEYSOUNDS:;

//---------------dance-single - Geriatric Patrick----------------
#NOTES:
     dance-single:
     Geriatric Patrick:
     Challenge:
     12:
     0.836,1.000,0.352,0.117,0.556:
0000
0000
0000
0000
,
0000
0000
0000
0000
,
0000
0000
0000
0000
,
0000
0000
0000
0000
,
0000
0000
0000
0000
,
0000
0000
0000
0000
,
1100
0000
0001
0000
0100
0010
0000
0100
,
0001
0000
0100
0010
0000
0010
1000
0000
,
0101
0000
0001
0000
0010
0100
0010
0000
,
0021
0000
0000
0100
0000
0000
1030
0000
,
0110
0000
0001
0000
1000
0010
0000
0100
,
0001
0000
1000
0010
0000
0010
0100
0000
,
0110
0000
0001
0000
1000
0010
1000
0000
,
0210
0000
0000
1000
0000
0000
0301
0000
,
0101
0000
1000
0000
0100
0010
0000
0100
,
1000
0000
0001
0010
0000
0010
0100
0000
,
1100
0000
0001
0000
0100
0010
0100
0000
,
1020
0000
0000
0100
0000
0000
0031
0000
,
0110
0000
1000
0000
0001
0010
0000
0001
,
0100
0000
0001
0010
0000
0010
0100
0000
,
0011
0000
0001
0000
1000
0010
1000
0000
,
0210
0000
0000
1000
0000
0000
0301
0000
,
0000
0000
0000
0000
0000
0000
0001
0100
0001
1000
0010
1000
,
0001
0100
0001
0010
0100
0010
0001
0100
0001
1000
0010
1000
,
0100
0000
0000
2010
0000
0000
0000
00M0
0000
3001
0100
0001
,
1000
0100
1000
0001
0010
0001
1000
0100
1000
0020
0000
0000
,
0000
0000
0000
0130
0000
0000
0001
0000
0000
1000
0100
1000
,
0001
0100
0001
1000
0100
1000
0010
0100
0010
1000
0100
1000
,
0001
0100
0001
0010
0000
0000
1002
0000
0000
0000
M003
0001
,
0010
0100
0010
0001
1000
0001
0100
0010
0100
0001
1000
0001
,
0020
0000
0130
0010
,
0001
0010
0001
1000
0100
1000
0001
0010
0001
1000
0100
1000
,
0001
0010
0001
1000
0100
1000
0001
0010
0001
1000
0100
1000
,
0001
0010
0001
1000
0100
1000
0001
0010
0001
1000
0100
1000
,
0001
0010
0001
1000
0100
1000
0010
0000
0000
1001
0000
0000
,
0000
0000
0000
0010
0100
0010
0001
0100
0001
1000
0010
1000
,
0001
0100
0001
0010
0100
0010
0001
0100
0001
1000
0100
1000
,
0001
0100
0001
1000
0010
1000
0001
0010
0001
1000
0010
1000
,
0001
0100
0001
0020
0000
0000
0000
0000
0000
0230
0000
0000
,
0000
0310
1000
0010
0001
0000
0000
0000
,
0011
0000
0000
1000
0010
0100
1000
0100
,
0010
1000
0001
0010
0100
0000
0000
0000
,
0110
0000
0000
0100
0001
0100
0010
0001
,
0010
0000
1000
0010
0100
0000
0000
0000
,
0110
0000
0000
1000
0100
0010
1000
0010
,
0100
1000
0001
0100
0001
0000
0000
0000
,
0010
0000
0100
0000
0010
0000
0001
1000
0001
0000
1000
0000
0100
0000
1000
0000
,
0010
0000
0100
0010
0100
0000
0000
0000
,
0111
0000
0000
0100
1000
0000
0000
0100
,
0001
0000
1000
0001
1000
0000
0000
0000
,
1101
0000
0000
0001
1000
0000
0000
1000
,
0001
0000
0100
0010
1000
0000
0000
0000
,
1011
0000
0000
0010
0100
0001
0010
0001
,
0100
0001
0010
0100
0001
0000
0000
0000
,
0010
0400
0040
0000
0300
0030
0020
0000
,
0000
0000
0130
1000
0100
0000
0000
0000
,
1110
0000
0000
0100
1000
0000
0000
0100
,
0010
0000
0100
0001
0100
0000
0000
0000
,
1101
0000
0000
0100
1000
0000
0000
0100
,
0001
0000
0100
0010
0100
0000
0000
0000
,
0111
0000
0000
1000
0010
0100
1000
0100
,
0010
1000
1001
0001
0100
0010
0010
0001
,
0101
0000
0000
0010
1000
0010
0100
0001
0100
0010
1000
0010
,
0100
0001
0100
0010
1000
0010
0100
0001
0100
0010
1000
0010
,
0100
0001
0100
0010
1000
0010
0100
0001
0100
0010
1000
0010
,
0100
0001
0100
0010
1000
0010
0100
0001
0100
1000
0000
0000
,
0110
0000
0000
0000
0000
0000
1000
0100
1000
0001
0010
0001
,
1000
0010
1000
0001
0010
0001
1000
0100
1000
0001
0010
0001
,
1000
0010
1000
0001
0010
0001
1000
0100
1000
0001
0100
0001
,
1000
0100
1000
0001
0100
0001
0020
0000
0000
0000
0000
0000
,
0130
0000
0000
0001
0000
0000
0100
1000
0100
0010
0001
0010
,
0100
1000
0100
0010
1000
0010
0100
1000
0100
0010
0001
0010
,
0100
0000
0000
0021
0000
0000
0000
000M
0000
0031
0100
0001
,
1000
0100
1000
0010
0100
0010
1000
0001
1000
0020
0000
0000
,
0000
0000
0000
0130
0000
0000
0001
0000
0000
1000
0100
1000
,
0001
0100
0001
1000
0010
1000
0001
0100
0001
1000
0100
1000
,
0001
0010
0001
1000
0000
0000
0012
0000
0000
0000
00M0
0000
,
0103
1000
0100
0010
1000
0010
0100
0001
0100
0010
1000
0010
,
0002
0000
0000
0000
2003
0000
0000
3100
,
0010
1000
0010
0000
0000
0000
0111
0000
,
0000
1000
0010
0100
1000
0100
0010
1000
,
0001
0010
0100
0000
0000
0000
1110
0000
,
0000
0100
0001
0100
0010
0001
0010
0000
,
1000
0010
0100
0000
0000
0000
1101
0000
,
0000
1000
0100
0010
1000
0010
0100
1000
,
0001
0100
0001
0000
0000
0000
0010
0100
,
0010
0000
0001
1000
0001
0000
1000
0000
0100
0000
1000
0000
0010
0000
0000
0000
,
0100
0010
0100
0000
0000
0000
0111
0000
,
0000
0010
1000
0000
0000
0010
0001
0000
,
0100
0001
0100
0000
0000
0000
1110
0000
,
0000
0100
0001
0000
0000
0100
0010
0000
,
0100
0001
0010
0000
0000
0000
0111
0000
,
0000
0010
0100
1000
0010
1000
0100
0010
,
1000
0010
0001
0000
0000
0000
0010
0400
,
0040
0000
0300
0030
0020
0000
0000
0000
,
0130
0001
0100
0000
0000
0000
1110
0000
,
0000
0100
0001
0000
0000
0100
1000
0000
,
0001
1000
0001
0000
0000
0000
1101
0000
,
0000
1000
0010
0000
0000
0001
0100
0000
,
1000
0010
0100
0000
0000
0000
1110
0000
,
0000
0010
0100
1000
0001
1000
0100
0010
,
1000
0001
0100
0000
0000
0000
0010
0400
,
0040
0000
0300
0030
0020
0000
0000
0000
,
0130
1000
0100
0000
0000
0000
0111
0000
,
0000
0100
1000
0000
0000
0001
0010
0000
,
0100
1000
0100
0000
0000
0000
1110
0000
,
0000
1000
0001
0000
0000
1000
0100
0000
,
0010
0001
0010
0000
0000
0000
1011
0000
,
0000
0010
0100
0001
1000
0001
0100
0010
,
0001
1000
0001
0000
0000
0000
0010
0400
,
0040
0000
0300
0030
0020
0000
0000
0000
,
0130
1000
0100
0000
0000
0000
1110
0000
,
0000
1000
0010
0000
0000
1000
0001
0000
,
1000
0100
1000
0000
0000
0000
1101
0000
,
0000
1000
0100
0000
0000
1000
0001
0000
,
0100
0010
0001
0000
0000
0000
0111
0000
,
0000
0100
0001
1000
0100
1000
0001
0100
,
0110
0010
1000
0100
0100
0001
1001
0000
,
0000
0000
0100
0000
0001
1000
0010
1000
,
0010
0000
0001
0000
0010
0100
0000
0100
,
0010
0000
1000
0000
0001
0010
0100
0010
,
0100
0000
0001
0000
0100
1000
0000
1000
,
0010
0000
0100
0000
0001
1000
0100
1000
,
0100
0000
0001
0000
0100
1000
0000
1000
,
0001
0000
0100
0000
0010
1000
0001
1000
,
0001
0000
0010
0000
0001
1000
0000
1000
,
0001
0000
0100
0000
0010
1000
0001
0010
,
0001
0000
0100
0000
0001
0010
0000
1000
,
0010
0000
0100
0000
0001
1000
0100
0010
,
0100
0000
0001
0000
0100
0010
0000
0100
,
1000
0000
0001
0000
0100
0010
1000
0001
,
1000
0000
0010
0000
0100
0001
0000
1000
,
0100
0000
0010
0000
0100
1000
0010
0100
,
0010
0001
0110
0110
,
0110
0000
0040
1000
0000
1000
0000
1000
,
0030
1000
0040
0100
0000
0100
0000
0100
,
0030
0100
0004
1000
0000
1000
0000
1000
,
0003
1000
0400
1000
0000
1000
0000
1000
,
0300
1000
0004
0010
0000
0010
0000
0010
,
0003
0010
0004
1000
0000
1000
0000
1000
,
0003
1000
0040
0100
0000
0100
0000
0100
,
0030
0100
0004
0100
0000
0100
0000
0100
,
0003
0100
0010
0000
1000
0001
0000
0001
,
0010
0000
1000
0000
0001
0100
0000
0100
,
0010
0000
0001
0000
1000
0010
0000
0010
,
0001
0000
0100
0000
0001
0010
0000
0010
,
0100
0000
0001
0000
1000
0010
0000
0010
,
0100
0000
1000
0000
0001
0100
0000
0100
,
1000
1100
0000
0000
,
0000
0000
0001
1000
0001
0100
0010
0100
,
0001
1000
1100
0000
0000
0000
0000
0000
,
0000
0000
0001
0010
0001
0100
0010
0100
,
0001
1000
1100
0000
0000
0000
0000
0000
,
0000
0000
0010
0001
0010
0100
0001
0100
,
0010
0000
0000
0001
0000
0000
1001
0000
0000
0000
0000
0000
0001
0000
0010
0000
0001
0000
1000
0000
0100
0000
1000
0000
,
0001
0010
0001
1000
0100
1000
0001
0010
0001
1000
0100
1000
,
0001
0010
0001
1000
0100
1000
0001
0010
0001
1000
0100
1000
,
0001
0010
0001
1000
0100
1000
0001
0010
0001
1000
0100
1000
,
0010
0000
0000
1001
0000
0000
0000
0000
0000
0010
0100
0010
,
0001
0100
0001
1000
0010
1000
0001
0100
0001
0010
0100
0010
,
0001
0100
0001
1000
0100
1000
0001
0100
0001
1000
0010
1000
,
0001
0010
0001
1000
0010
1000
0001
0100
0001
0020
0000
0000
,
0000
0000
0000
0130
0000
0000
1000
0000
0000
0001
0100
0001
,
1000
0010
1000
0001
0100
0001
0010
0100
0010
0001
0100
0001
,
1000
0000
0010
0000
1000
0000
0100
0000
0000
0000
0000
0000
1020
0000
0000
0000
0000
0000
0000
0000
0000
M000
0000
0000
,
0130
0001
0100
0010
1000
0010
0100
1000
0100
0010
1000
0010
,
0002
0000
0013
1000
,
0001
0010
0001
1000
0100
1000
0010
0100
0010
1000
0100
1000
,
0001
0100
0001
1000
0100
1000
0010
0000
0000
0012
0000
0000
,
0000
0000
0000
00M0
0000
0000
1003
0000
0100
0000
1000
0000
0001
0000
0100
0000
0001
0000
1000
0000
0010
0000
1000
0000
,
0001
0100
0001
0020
0000
0000
0000
0000
0000
0230
0000
0000
,
0000
0310
0001
1000
0001
0000
0000
0000
,
1011
0000
0000
0100
1000
0001
0100
0001
,
1000
0100
0010
1000
0001
0000
0000
0000
,
1101
0000
0000
0001
0010
0001
1000
0010
,
1000
0000
0100
1000
0001
0000
0000
0000
,
0111
0000
0000
0100
0001
1000
0100
1000
,
0001
0100
0010
0001
0010
0000
0000
0000
,
1000
0000
0001
0000
1000
0000
0010
0100
0010
0000
0100
0000
0001
0000
0100
0000
,
1000
0000
0001
1000
0001
0000
0000
0000
,
1011
0000
0000
1000
0100
0000
0000
1000
,
0010
0000
0001
0010
0001
0000
0000
0000
,
1101
0000
0000
0001
0010
0000
0000
0001
,
1000
0000
0001
0010
1000
0000
0000
0000
,
1011
0000
0000
1000
0001
0100
1000
0100
,
0001
1000
0100
1000
0010
0000
0000
0000
,
1000
0004
4000
0000
0003
3000
2000
0000
,
0000
0000
3001
0010
0001
0000
0000
0000
,
1101
0000
0000
0001
0010
0000
0000
0001
,
0100
0000
0010
0100
0010
0000
0000
0000
,
0111
0000
0000
0100
1000
0000
0000
0010
,
0001
0000
0100
1000
0001
0000
0000
0000
,
1101
0000
0000
1000
0001
0100
0010
0100
,
0001
1000
0100
0010
0001
0000
0000
0000
,
1000
0004
4000
0000
0003
3000
2000
0000
,
0000
0000
3001
0100
0001
0000
0000
0000
,
1011
0000
0000
0001
0100
0000
0000
0010
,
1000
0000
0001
0100
0001
0000
0000
0000
,
1101
0000
0000
0100
0010
0000
0000
0100
,
0001
0000
1000
0010
1000
0000
0000
0000
,
1110
0000
0000
1000
0001
0010
0100
0010
,
0001
1000
0010
0100
0010
0000
0000
0000
,
1000
0004
4000
0000
0003
3000
2000
0000
,
0000
0000
3001
0100
0001
0000
0000
0000
,
1101
0000
0000
0100
1000
0000
0000
0100
,
0010
0000
0100
0001
0100
0000
0000
0000
,
0111
0000
0000
0100
0001
0000
0000
0100
,
0010
0000
0040
1000
0000
1000
0000
1000
,
0030
1000
0040
0100
0000
0100
0000
0100
,
0030
0100
0004
1000
0000
1000
0000
1000
,
0003
1000
0400
1000
0000
1000
0000
1000
,
0300
1000
0004
0010
0000
0010
0000
0010
,
0003
0010
0004
1000
0000
1000
0000
1000
,
0003
1000
0040
0100
0000
0100
0000
0100
,
0030
0100
0004
0100
0000
0100
0000
0100
,
0003
0100
0010
0000
1000
0001
0000
0001
,
0010
0000
1000
0000
0001
0100
0000
0100
,
0010
0000
0001
0000
1000
0010
0000
0010
,
0001
0000
0100
0000
0001
0010
0000
0010
,
0100
0000
0001
0000
1000
0010
0000
0010
,
0100
0000
1000
0000
0001
0100
0000
0100
,
1000
1100
0000
0000
,
0000
0000
0001
1000
0001
0100
0010
0100
,
0001
1000
1100
0000
0000
0000
0000
0000
,
0000
0000
0001
0010
0001
0100
0010
0100
,
0001
1000
1100
0000
0000
0000
0000
0000
,
0000
0000
0010
0001
0010
0100
0001
0100
,
0010
0001
2001
0000
000M
000M
000M
000M
,
000M
000M
000M
000M
000M
000M
000M
000M
,
000M
000M
3101
0000
0000
0001
0010
0000
,
0000
0010
0101
0000
0000
0001
1000
0000
,
0000
1000
0011
0000
0000
0001
0100
0000
,
0000
0100
0011
0000
0000
1000
0001
0000
,
0000
0001
1100
0000
0000
1000
0010
0000
,
0000
0010
1100
0000
0000
1000
0001
0000
,
0000
0001
1010
0000
0000
1000
0100
0000
,
0000
0100
1010
0000
0000
0001
1000
0000
,
0000
1000
0101
0000
0000
0001
0010
0000
,
0000
0010
0101
0000
0000
0001
1000
0000
,
0000
1000
0011
0000
0000
0001
0100
0000
,
0000
0100
0011
0000
0000
1000
0001
0000
,
0000
0001
1100
0000
0000
1000
0010
0000
,
0000
0010
1100
0000
0000
1000
0001
0000
,
0000
0001
1010
0000
0000
1000
0100
0000
,
0000
0100
0010
0001
1000
0010
1000
0001
,
0101
0000
0000
0000
;

//---------------dance-single - Geriatric Patrick----------------
#NOTES:
     dance-single:
     Geriatric Patrick:
     Hard:
     10:
     0.721,0.815,0.517,0.278,0.006:
0000
0000
0000
0000
,
0000
0000
0000
0000
,
0000
0000
0000
0000
,
0000
0000
0000
0000
,
0000
0000
0000
0000
,
0000
0000
0000
0000
,
1100
0000
0001
0000
0100
0010
0000
0100
,
0001
0000
0100
0010
0000
0010
1000
0000
,
0101
0000
0001
0000
0010
0100
0010
0000
,
0021
0000
0000
0100
0000
0000
1030
0000
,
0110
0000
0001
0000
1000
0010
0000
0100
,
0001
0000
1000
0010
0000
0010
0100
0000
,
0110
0000
0001
0000
1000
0010
1000
0000
,
0210
0000
0000
1000
0000
0000
0301
0000
,
0101
0000
1000
0000
0100
0010
0000
0100
,
1000
0000
0001
0010
0000
0010
0100
0000
,
1100
0000
0001
0000
0100
0010
0100
0000
,
1020
0000
0000
0100
0000
0000
0031
0000
,
0110
0000
1000
0000
0001
0010
0000
0001
,
0100
0000
0001
0010
0000
0010
0100
0000
,
0011
0000
0001
0000
1000
0010
1000
0000
,
0210
0000
0000
1000
0000
0000
0301
0000
,
0000
0000
2MMM
3M2M
,
2M3M
32MM
23MM
3M2M
,
M13M
MMMM
0000
MMM2
,
2MM3
32MM
M32M
2M0M
,
0000
3000
MM32
0000
M1M0
0003
2MM0
0000
,
32MM
M3M2
M2M3
23MM
,
32MM
0000
M3M1
0000
0000
0000
0000
0100
,
M02M
MM31
M2M0
M31M
,
MM02
0000
MM13
M10M
,
11MM
1M1M
11MM
MM11
,
11MM
1M1M
11MM
M1M1
,
11MM
M11M
1MM1
M11M
,
11MM
MM11
11MM
MMMM
,
0000
0000
MM21
0000
000M
0031
0100
0000
,
0010
0000
MM12
0000
00M0
0013
1000
0000
,
0010
M1MM
MMM1
1MMM
,
M1MM
0020
0000
0230
,
0000
0310
0001
1000
0001
0000
0000
0000
,
0011
0000
0000
1000
0010
0100
1000
0100
,
0010
1000
0001
0010
0100
0000
0000
0000
,
0110
0000
0000
0100
0001
0100
0010
0001
,
0010
0000
1000
0010
0100
0000
0000
0000
,
0110
0000
0000
1000
0100
0010
1000
0010
,
0100
1000
0001
0100
0001
0000
0000
0000
,
0010
0000
0100
0000
0010
0000
0001
1000
0001
0000
1000
0000
0100
0000
1000
0000
,
0010
0000
0100
0010
0100
0000
0000
0000
,
0111
0000
0000
0100
1000
0000
0000
0100
,
0001
0000
1000
0001
1000
0000
0000
0000
,
1101
0000
0000
0001
1000
0000
0000
1000
,
0001
0000
0100
0010
1000
0000
0000
0000
,
1011
0000
0000
0010
0100
0001
0010
0001
,
0100
0001
0010
0100
0001
0000
0000
0000
,
0010
0400
0040
0000
0300
0030
0020
0000
,
0000
0000
0130
1000
0100
0000
0000
0000
,
1110
0000
0000
0100
1000
0000
0000
0100
,
0010
0000
0100
0001
0100
0000
0000
0000
,
1101
0000
0000
0100
1000
0000
0000
0100
,
0001
0000
0100
0010
0100
0000
0000
0000
,
0111
0000
0000
1000
0010
0100
1000
0100
,
0010
1000
1001
0001
0100
0010
0010
0001
,
0101
M11M
1M1M
11MM
,
1M1M
M1M1
M11M
MM11
,
M11M
1MM1
MM11
11MM
,
MM11
1MM1
1M1M
11MM
,
MMMM
0000
M1M1
MM11
,
11MM
1M1M
MM11
1M1M
,
M1M1
11MM
M11M
1M1M
,
1MM1
0000
M1M2
0000
MM20
0000
0000
0030
,
2MM3
0000
01MM
3000
0MM2
0000
00M0
0013
,
M20M
0000
23MM
0000
3M2M
0000
M000
1030
,
01MM
MMMM
0000
M2MM
,
0000
0000
0320
MM02
0000
0030
2MM3
0000
,
0000
3M1M
M10M
2000
,
0M00
3100
0020
0000
0M00
0130
0002
0000
,
0M00
0103
0010
0000
MMMM
0000
0000
0000
,
MM1M
1MMM
MMM1
MM1M
,
0200
0000
0000
0000
0302
0000
0000
0100
,
0013
0001
0010
0000
0000
0000
0111
0000
,
0000
1000
0010
0100
1000
0100
0010
1000
,
0001
0010
0100
0000
0000
0000
1110
0000
,
0000
0100
0001
0100
0010
0001
0010
0000
,
1000
0010
0100
0000
0000
0000
1101
0000
,
0000
1000
0100
0010
1000
0010
0100
1000
,
0001
0100
0001
0000
0000
0000
0010
0100
,
0010
0000
0001
1000
0001
0000
1000
0000
0100
0000
1000
0000
0010
0000
0000
0000
,
0100
0010
0100
0000
0000
0000
0111
0000
,
0000
0010
1000
0000
0000
0010
0001
0000
,
0100
0001
0100
0000
0000
0000
1110
0000
,
0000
0100
0001
0000
0000
0100
0010
0000
,
0100
0001
0010
0000
0000
0000
0111
0000
,
0000
0010
0100
1000
0010
1000
0100
0010
,
1000
0010
0001
0000
0000
0000
0010
0400
,
0040
0000
0300
0030
0020
0000
0000
0000
,
0130
0001
0100
0000
0000
0000
1110
0000
,
0000
0100
0001
0000
0000
0100
1000
0000
,
0001
1000
0001
0000
0000
0000
1101
0000
,
0000
1000
0010
0000
0000
0001
0100
0000
,
1000
0010
0100
0000
0000
0000
1110
0000
,
0000
0010
0100
1000
0001
1000
0100
0010
,
1000
0001
0100
0000
0000
0000
0010
0400
,
0040
0000
0300
0030
0020
0000
0000
0000
,
0130
1000
0100
0000
0000
0000
0111
0000
,
0000
0100
1000
0000
0000
0001
0010
0000
,
0100
1000
0100
0000
0000
0000
1110
0000
,
0000
1000
0001
0000
0000
1000
0100
0000
,
0010
0001
0010
0000
0000
0000
1011
0000
,
0000
0010
0100
0001
1000
0001
0100
0010
,
0001
1000
0001
0000
0000
0000
0010
0400
,
0040
0000
0300
0030
0020
0000
0000
0000
,
0130
1000
0100
0000
0000
0000
1110
0000
,
0000
1000
0010
0000
0000
1000
0001
0000
,
1000
0100
1000
0000
0000
0000
1101
0000
,
0000
1000
0100
0000
0000
1000
0001
0000
,
0100
0010
0001
0000
0000
0000
0111
0000
,
0000
0100
0001
1000
0100
1000
0001
0100
,
0110
0010
1000
0100
0100
0001
1001
0000
,
0000
0000
0100
0000
0001
1000
0010
1000
,
0010
0000
0001
0000
0010
0100
0000
0100
,
0010
0000
1000
0000
0001
0010
0100
0010
,
0100
0000
0001
0000
0100
1000
0000
1000
,
0010
0000
0100
0000
0001
1000
0100
1000
,
0100
0000
0001
0000
0100
1000
0000
1000
,
0001
0000
0100
0000
0010
1000
0001
1000
,
0001
0000
0010
0000
0001
1000
0000
1000
,
0001
0000
0100
0000
0010
1000
0001
0010
,
0001
0000
0100
0000
0001
0010
0000
1000
,
0010
0000
0100
0000
0001
1000
0100
0010
,
0100
0000
0001
0000
0100
0010
0000
0100
,
1000
0000
0001
0000
0100
0010
1000
0001
,
1000
0000
0010
0000
0100
0001
0000
1000
,
0100
0000
0010
0000
0100
1000
0010
0100
,
0010
0001
0110
0110
,
0110
0000
0040
1000
0000
1000
0000
1000
,
0030
1000
0040
0100
0000
0100
0000
0100
,
0030
0100
0004
1000
0000
1000
0000
1000
,
0003
1000
0400
1000
0000
1000
0000
1000
,
0300
1000
0004
0010
0000
0010
0000
0010
,
0003
0010
0004
1000
0000
1000
0000
1000
,
0003
1000
0040
0100
0000
0100
0000
0100
,
0030
0100
0004
0100
0000
0100
0000
0100
,
0003
0100
0010
0000
1000
0001
0000
0001
,
0010
0000
1000
0000
0001
0100
0000
0100
,
0010
0000
0001
0000
1000
0010
0000
0010
,
0001
0000
0100
0000
0001
0010
0000
0010
,
0100
0000
0001
0000
1000
0010
0000
0010
,
0100
0000
1000
0000
0001
0100
0000
0100
,
1000
1100
0000
0000
,
0000
0000
0001
1000
0001
0100
0010
0100
,
0001
1000
0100
0000
0000
0000
0000
0000
,
0000
0000
0001
0010
0001
0100
0010
0100
,
0001
1000
0100
0000
0000
0000
0000
0000
,
0000
0000
0010
0001
0010
0100
0001
0100
,
0010
0001
1000
0000
M11M
0000
MM11
0000
,
M1M1
MM11
11MM
M11M
,
1M1M
M11M
1MM1
1M1M
,
M1M1
1M1M
1MM1
MM11
,
M1M1
MMMM
0000
11MM
,
1M1M
M1M1
MM11
1M1M
,
MM11
11MM
M1M1
M11M
,
MM11
1MM1
21MM
0M2M
,
0000
0030
3MM2
0000
M1M0
0003
2MM0
0000
,
00M0
3010
M20M
0000
M3M2
0000
MM23
0000
,
000M
0031
M1M0
0000
MMMM
0000
0000
0000
,
M2MM
0000
0000
0000
0320
2M0M
0000
0030
,
3MM2
0000
MM13
M10M
,
0002
0000
0M00
0103
0020
0000
M23M
0000
,
23MM
32MM
M31M
MMMM
,
0000
M1MM
1MMM
MM1M
,
M1MM
2000
0000
3002
,
0000
0010
0103
0001
0100
0000
0000
0000
,
1011
0000
0000
0100
1000
0001
0100
0001
,
1000
0100
0010
1000
0001
0000
0000
0000
,
1101
0000
0000
0001
0010
0001
1000
0010
,
1000
0000
0100
1000
0001
0000
0000
0000
,
0111
0000
0000
0100
0001
1000
0100
1000
,
0001
0100
0010
0001
0010
0000
0000
0000
,
1000
0000
0001
0000
1000
0000
0010
0100
0010
0000
0100
0000
0001
0000
0100
0000
,
1000
0000
0001
1000
0001
0000
0000
0000
,
1011
0000
0000
1000
0100
0000
0000
1000
,
0010
0000
0001
0010
0001
0000
0000
0000
,
1101
0000
0000
0001
0010
0000
0000
0001
,
1000
0000
0001
0010
1000
0000
0000
0000
,
1011
0000
0000
1000
0001
0100
1000
0100
,
0001
1000
0100
1000
0010
0000
0000
0000
,
1000
0004
4000
0000
0003
3000
2000
0000
,
0000
0000
3001
0010
0001
0000
0000
0000
,
1101
0000
0000
0001
0010
0000
0000
0001
,
0100
0000
0010
0100
0010
0000
0000
0000
,
0111
0000
0000
0100
1000
0000
0000
0010
,
0001
0000
0100
1000
0001
0000
0000
0000
,
1101
0000
0000
1000
0001
0100
0010
0100
,
0001
1000
0100
0010
0001
0000
0000
0000
,
1000
0004
4000
0000
0003
3000
2000
0000
,
0000
0000
3001
0100
0001
0000
0000
0000
,
1011
0000
0000
0001
0100
0000
0000
0010
,
1000
0000
0001
0100
0001
0000
0000
0000
,
1101
0000
0000
0100
0010
0000
0000
0100
,
0001
0000
1000
0010
1000
0000
0000
0000
,
1110
0000
0000
1000
0001
0010
0100
0010
,
0001
1000
0010
0100
0010
0000
0000
0000
,
1000
0004
4000
0000
0003
3000
2000
0000
,
0000
0000
3001
0100
0001
0000
0000
0000
,
1101
0000
0000
0100
1000
0000
0000
0100
,
0010
0000
0100
0001
0100
0000
0000
0000
,
0111
0000
0000
0100
0001
0000
0000
0100
,
0010
0000
0040
1000
0000
1000
0000
1000
,
0030
1000
0040
0100
0000
0100
0000
0100
,
0030
0100
0004
1000
0000
1000
0000
1000
,
0003
1000
0400
1000
0000
1000
0000
1000
,
0300
1000
0004
0010
0000
0010
0000
0010
,
0003
0010
0004
1000
0000
1000
0000
1000
,
0003
1000
0040
0100
0000
0100
0000
0100
,
0030
0100
0004
0100
0000
0100
0000
0100
,
0003
0100
0010
0000
1000
0001
0000
0001
,
0010
0000
1000
0000
0001
0100
0000
0100
,
0010
0000
0001
0000
1000
0010
0000
0010
,
0001
0000
0100
0000
0001
0010
0000
0010
,
0100
0000
0001
0000
1000
0010
0000
0010
,
0100
0000
1000
0000
0001
0100
0000
0100
,
1000
1100
0000
0000
,
0000
0000
0001
1000
0001
0100
0010
0100
,
0001
1000
0100
0000
0000
0000
0000
0000
,
0000
0000
0001
0010
0001
0100
0010
0100
,
0001
1000
0100
0000
0000
0000
0000
0000
,
0000
0000
0010
0001
0010
0100
0001
0100
,
0010
0001
2000
0000
000M
0000
000M
0000
,
000M
000M
000M
000M
,
000M
0000
3101
0000
0000
0001
0010
0000
,
0000
0010
0100
0000
0000
1000
0001
0000
,
0000
0001
1000
0000
0000
0001
0100
0000
,
0000
0100
0010
0000
0000
1000
0001
0000
,
0000
0001
0100
0000
0000
1000
0010
0000
,
0000
0010
0100
0000
0000
0001
1000
0000
,
0000
1000
0001
0000
0000
1000
0100
0000
,
0000
0100
0010
0000
0000
0001
1000
0000
,
0000
1000
0100
0000
0000
0001
0010
0000
,
0000
0010
0100
0000
0000
1000
0001
0000
,
0000
0001
1000
0000
0000
0001
0100
0000
,
0000
0100
0010
0000
0000
1000
0001
0000
,
0000
0001
0100
0000
0000
1000
0010
0000
,
0000
0010
0100
0000
0000
1000
0001
0000
,
0000
0001
0010
0000
0000
1000
0100
0000
,
0000
0100
0001
0010
0001
1000
0010
0000
,
0110
0000
0000
0000
;

//---------------dance-single - Geriatric Patrick----------------
#NOTES:
     dance-single:
     Geriatric Patrick:
     Medium:
     8:
     0.572,0.767,0.141,0.658,0.000:
0000
0000
0000
0000
,
0000
0000
0000
0000
,
0000
0000
0000
0000
,
0000
0000
0000
0000
,
0000
0000
0000
0000
,
0000
0000
0000
0000
,
0110
0100
1000
0000
,
0001
0000
0000
0100
0000
0000
0001
0000
,
1000
0010
0100
0000
,
2010
0000
0000
3002
0000
0000
0013
0000
,
0001
0000
0100
0000
0001
0000
0000
0010
,
0000
0100
0000
1000
,
0001
0010
0100
0000
,
1002
0000
0000
0023
0000
0000
0130
0000
,
1000
0001
0100
0000
,
1000
0000
0000
0010
0000
0000
1000
0000
,
0001
0010
0100
0000
,
0012
0000
0000
2003
0000
0000
3010
0000
,
1000
0100
1000
0000
,
0010
0000
0000
0001
0000
0000
0010
0000
,
1000
0100
0010
0000
,
2001
0000
0000
3002
0000
0000
0103
0000
,
0000
0000
2000
3020
,
2030
3200
2300
3020
,
0130
0000
0000
0002
,
2003
3002
2003
0020
,
0000
0030
3002
0000
0100
0003
2000
0000
,
3200
0302
0203
2300
,
3200
0301
0000
0000
,
0020
0031
0200
0310
,
0002
0000
0013
1000
,
0200
0320
0230
2300
,
3200
0302
0203
2300
,
3002
0023
0230
2300
,
3002
0023
1030
0000
,
0000
0000
0021
0000
0000
0031
0100
0000
,
0010
0000
0002
0000
0000
0013
1000
0000
,
0010
0100
0100
0001
,
0001
0020
0000
0230
,
0000
0310
0001
1000
0001
0000
0000
0000
,
1001
0000
0000
0001
0100
0000
0010
0000
,
0100
0001
0010
0000
,
0110
0000
0000
0010
0001
0000
1000
0000
,
1000
0010
0100
0000
,
0110
0000
0000
1000
0001
0010
0100
1000
,
0100
0010
0001
1000
0001
0000
0000
0000
,
0020
0000
0000
0000
,
0030
0000
0001
0100
0001
0000
0010
0000
,
0100
0000
0100
0010
,
0100
0000
1000
0001
0100
0000
0010
0000
,
0100
0000
0001
0010
,
0001
0000
1000
0100
1000
0000
0001
0000
,
0100
0000
0000
0100
0001
0010
0100
1000
,
0100
0010
0001
0100
0001
0000
0000
0000
,
0040
0400
0000
0000
0000
0000
0300
0030
,
0000
0000
1000
0100
1000
0000
0001
0000
,
0100
0000
1000
0010
,
1000
0000
0001
0010
0100
0000
1000
0000
,
0100
0000
0001
1000
,
0001
0000
0010
0100
0010
0000
0001
0000
,
0100
0000
0000
0100
0001
0010
0100
1000
,
0001
1000
0100
0010
0100
0000
0000
0000
,
0011
2000
3020
2030
,
3002
2003
3020
2030
,
3002
0203
0320
0230
,
0302
0203
0320
0130
,
0000
0000
2000
3020
,
0230
0320
2030
3020
,
0230
0320
2030
3002
,
2003
0000
3002
0000
0020
0000
0000
0030
,
2003
0000
0100
3000
0002
0000
0000
0013
,
0200
0000
2300
0000
3020
0000
0000
1030
,
0100
0000
0000
0200
,
0000
0000
0320
0002
0000
0030
2003
0000
,
0000
3010
0100
2000
,
0000
3001
0020
0000
0000
0031
2000
0000
,
0000
3001
0100
0000
0000
0000
0000
0000
,
0020
2030
3200
0320
,
0032
0000
0000
0000
2003
0000
0000
3010
,
0100
0001
0100
0000
0000
0000
0101
0000
,
0000
1000
0100
0010
,
0001
1000
0001
0000
0000
0000
1001
0000
,
0000
0010
0100
1000
,
0001
0100
0010
0000
0000
0000
0110
0000
,
0000
0100
0001
0010
0100
1000
0100
0010
,
0001
1000
0001
0000
0000
0000
0040
0400
,
0000
0000
0000
0000
0300
0030
0000
0000
,
1000
0100
1000
0000
0000
0000
0001
0000
,
0000
0001
0100
0000
0000
0100
0010
0000
,
0100
0001
0000
0100
,
0000
0100
0001
0000
0000
0001
0010
0000
,
0001
1000
0000
1001
,
0000
0001
0100
0001
0010
0100
1000
0100
,
0010
0001
0010
0000
0000
0000
4000
0040
,
0000
0000
0000
0030
3000
0000
0000
0000
,
0001
0010
0001
0000
0000
0000
0010
0000
,
0000
0100
1000
0000
0000
0100
0010
0000
,
1000
0001
0000
0100
,
0000
0001
1000
0000
0000
0001
0100
0000
,
0010
1000
0000
1010
,
0000
0100
0001
0100
0010
1000
0001
1000
,
0010
0100
0010
0000
0000
0000
0004
0040
,
0000
0000
0000
0030
0003
0000
0000
0000
,
1000
0000
0000
2000
0010
0000
0000
3020
,
1000
0000
0000
2030
0001
0000
0000
3002
,
0100
0000
0000
0203
0001
0000
0000
0302
,
0100
0000
0023
0000
,
0031
1000
0000
0011
,
0000
1000
0010
0100
0001
0100
0010
1000
,
0001
0010
0001
0000
0000
0000
4000
0040
,
0000
0000
0000
0030
3000
0000
0000
0000
,
0001
0000
0000
0002
0010
0000
0000
0023
,
0001
0000
0032
0000
,
1003
0000
0000
2000
0100
0000
0000
0000
,
3200
0000
0320
0000
,
0130
0010
0000
1100
,
0000
0100
0010
0100
1000
0001
0010
0100
,
0010
0001
1000
0000
0000
0000
0020
0000
,
0000
1030
0001
0010
,
0100
0000
1000
0000
0100
0010
0000
0010
,
0100
1000
0001
0100
,
0001
0000
0010
0000
0001
1000
0000
1000
,
0001
0010
0100
1000
,
0001
0000
0100
0000
0001
0010
0000
0010
,
0001
1000
0010
0100
,
0001
0000
1000
0000
0001
0100
0000
0100
,
0001
0010
0100
1000
,
0100
0000
0010
0000
0001
1000
0000
1000
,
0001
0100
0001
0010
,
0001
0000
0100
0000
0010
1000
0000
1000
,
0010
0100
0001
0010
,
0100
0000
1000
0000
0001
0010
0000
0010
,
0001
1000
0010
1000
,
0100
0001
0010
0010
,
0010
0004
0000
0000
,
1003
0400
0000
0000
,
1300
0040
0000
0000
,
0000
0430
0000
0000
,
0000
0304
0000
0000
,
0013
0400
0000
0000
,
0310
0004
0000
0000
,
0000
4003
0000
0000
,
0000
3001
0010
0100
,
1000
0000
0010
0000
1000
0001
0000
0000
,
0000
0100
0001
1000
,
0001
0000
0100
0000
0001
0010
0000
0000
,
0000
1000
0100
0010
,
0100
0000
1000
0000
0001
0010
0000
0000
,
0000
1100
0000
0000
,
0000
0000
0010
0000
0000
0001
0000
0000
,
0010
0011
0000
0000
,
0000
0000
0010
0000
0000
0001
0000
0000
,
0010
0110
0000
0000
,
0000
0000
0010
0000
0000
0001
0000
0000
,
0010
1010
0002
0023
,
0032
2003
3002
0023
,
0032
2003
3200
0320
,
0230
2300
3200
0320
,
0130
0000
0000
0002
,
0023
0230
0320
0032
,
0023
0230
0320
0032
,
2003
3002
2003
0020
,
0000
0030
3002
0000
0100
0003
2000
0000
,
0000
3010
0200
0000
0302
0000
0023
0000
,
0000
0031
0100
0000
0000
0000
0000
0000
,
0200
0000
0000
0000
0320
2000
0000
0030
,
3002
0000
0013
0100
,
0002
0000
0000
1003
0020
0000
2030
0000
,
3002
2003
3010
0000
,
0000
0200
0302
0203
,
0320
2030
0000
3002
,
0000
0013
0100
1000
0100
0000
0000
0000
,
1100
0000
0001
0100
,
0010
0000
1000
0001
1000
0000
0000
0000
,
1001
0000
0010
0100
,
0001
0000
1000
0100
0010
0000
0000
0000
,
0110
0000
0000
0100
1000
0010
0100
0001
,
0100
0010
1000
0001
1000
0000
0000
0000
,
0040
0400
0000
0000
0000
0000
0300
0030
,
0000
0000
0001
0100
0001
0000
0000
0000
,
1001
0000
0000
1000
0100
0000
0000
0100
,
0010
0000
0100
1000
0100
0000
0000
0000
,
0110
0000
0000
0100
1000
0000
0000
1000
,
0010
0000
1000
0001
0100
0000
0000
0000
,
0101
0000
0000
1000
0100
1000
0010
0100
,
0001
0100
0010
1000
0010
0000
0000
0000
,
0004
0040
0000
0000
0000
0030
0003
0000
,
0000
0000
1000
0010
1000
0000
0000
0000
,
0110
0000
0000
0100
0001
0000
0000
0100
,
0010
0000
0001
1000
0001
0000
0000
0000
,
1100
0000
0000
1000
0001
0000
0000
1000
,
0100
0000
0010
0001
0010
0000
0000
0000
,
0110
0000
0000
0100
1000
0100
0010
0001
,
1000
0001
0010
0100
0010
0000
0000
0000
,
4000
0040
0000
0000
0000
0030
3000
0000
,
0000
0000
0001
0000
0000
0002
0010
0000
,
0000
0023
0001
0000
0000
0032
1000
0000
,
0000
2003
0100
0000
0000
3200
1000
0000
,
0000
2300
0100
0000
0000
0000
3020
0000
,
0000
1030
0001
0000
,
1010
0000
0000
0001
0010
0100
1000
0100
,
0010
0001
1000
0010
1000
0000
0000
0000
,
0004
0040
0000
0000
0000
0030
0003
0000
,
0000
0000
1000
0000
0000
2000
0010
0000
,
0000
3020
1000
0000
0000
0000
2030
0000
,
0000
0000
3001
0000
0000
0002
0100
0000
,
0000
0203
0000
0320
,
0000
0430
0000
0000
,
0301
4000
0000
0000
,
3100
0040
0000
0000
,
0000
0034
0000
0000
,
0000
4003
0000
0000
,
3010
0400
0000
0000
,
0301
0040
0000
0000
,
0000
0430
0000
0000
,
0000
0310
0001
1000
,
0100
0000
0001
0000
0100
0010
0000
0000
,
0000
1000
0010
0100
,
0010
0000
1000
0000
0001
0010
0000
0000
,
0000
0100
1000
0001
,
1000
0000
0100
0000
0010
0001
0000
0000
,
0000
0110
0000
0000
,
0000
0000
0001
0000
0000
0100
0000
0000
,
0001
1010
0000
0000
,
0000
0000
1000
0000
0000
0100
0000
0000
,
1000
0011
0000
0000
,
0000
0000
0001
0000
0000
0100
0000
0000
,
0001
0120
0000
0000
,
0000
0000
0000
0000
,
0000
0000
0130
0000
0000
0001
1000
0000
,
0000
1000
0100
0000
0000
0100
1000
0000
,
0000
1000
0001
0000
0000
0001
1000
0000
,
0000
1000
0100
0000
0000
0100
1000
0000
,
0000
1000
0001
0000
0000
0100
0010
0000
,
0000
0010
1000
0000
0000
1000
0010
0000
,
0000
0010
0100
0000
0000
0100
0010
0000
,
0000
0010
1000
0000
0000
1000
0010
0000
,
0000
0010
0100
0000
0000
0001
0010
0000
,
0000
0010
0100
0000
0000
0100
0010
0000
,
0000
0010
0001
0000
0000
0001
0010
0000
,
0000
0010
0100
0000
0000
0100
0010
0000
,
0000
0010
0001
0000
0000
0001
0100
0000
,
0000
0100
0010
0000
0000
0010
0100
0000
,
0000
0100
0001
0000
0000
0001
0010
0000
,
0000
0010
0100
0000
0000
0000
0001
0000
,
1001
0000
0000
0000
;
