#TITLE:Awe of She;
#SUBTITLE:Dizzy's Theme;
#ARTIST:Daisuke Ishiwatari;
#TITLETRANSLIT:;
#SUBTITLETRANSLIT:;
#ARTISTTRANSLIT:;
#GENRE:;
#CREDIT:;
#BANNER:Awe of She-bn.png;
#BACKGROUND:Awe of She-bg.png;
#LYRICSPATH:;
#CDTITLE:;
#MUSIC:Awe of She.ogg;
#OFFSET:1.135;
#SAMPLESTART:76.827;
#SAMPLELENGTH:16.000;
#SELECTABLE:YES;
#BPMS:0.000=120.000,12.000=240.000,210.000=60.000,214.000=240.000,342.000=60.000,347.000=54.959,348.000=239.840;
#STOPS:13.000=2.500
;
#SCROLLS:0.000=1.000;
#TIMESIGNATURES:0.000=4=4;
#BGCHANGES:;
#KEYSOUNDS:;

//---------------dance-single - Geriatric Patrick----------------
#NOTES:
     dance-single:
     Geriatric Patrick:
     Easy:
     3:
     0.107,0.171,0.029,0.029,0.000:
0000
0000
0000
0000
,
0000
0000
0000
0000
,
0000
0000
0000
0000
,
1001
0000
0000
0000
,
0000
0000
0010
0000
,
0000
0000
0000
0000
,
0000
0000
1000
0000
,
0000
0000
0001
0000
,
0000
0000
0010
0000
,
0000
0000
0000
0000
,
0000
0000
0010
0000
,
0000
0000
0100
0000
,
0100
0000
0010
0000
,
0000
0000
0000
0000
,
0000
0000
0001
0000
,
0000
0000
1000
0000
,
0000
0000
0010
0000
,
0000
0000
0000
0000
,
0000
0000
0010
0000
,
0000
0000
1000
0000
,
0100
0000
0110
0000
,
0000
0000
0000
0000
,
0000
0000
1000
0000
,
0000
0000
0000
0000
,
0000
0000
0001
0000
,
0000
0000
0000
0000
,
0000
0000
0010
0000
,
0000
0000
0100
0000
,
0000
0000
0010
0000
,
0000
0000
0000
0000
,
0000
0000
1000
0000
,
0000
0000
0000
0000
,
0000
0000
0010
0000
,
0000
0000
0001
0000
,
0000
0000
0100
0000
,
0000
0000
0001
1000
,
0001
1000
0100
0000
,
0000
0000
0000
0000
,
0000
0000
0010
0000
,
0000
0000
0000
0000
,
0000
0000
1000
0000
,
0000
0000
0000
0000
,
0000
0000
0001
0000
,
0000
0000
0000
0000
,
0000
0000
0100
0000
,
0000
0000
0000
0000
,
0000
0000
1000
0000
,
0000
0000
0000
0000
,
0000
0000
0001
0000
,
0000
0000
0100
0000
,
0000
0000
0010
0000
,
0000
0000
0100
0000
,
0000
0000
2000
0000
,
0000
0000
3MM1
0000
,
0000
0000
0000
0000
,
0000
0000
1000
0000
,
0000
0000
0000
0000
,
0000
0000
0010
0000
,
0000
0000
0000
0000
,
0000
0000
1000
0000
,
0000
0000
1000
0000
,
0001
0000
0100
0000
,
0000
0000
0001
0000
,
0000
0000
0001
0000
,
0100
0000
0010
0000
,
0100
0000
1000
0000
,
0000
0000
0001
0000
,
0000
0000
0100
0000
,
0000
0000
0100
0000
,
0001
0000
0010
0000
,
0000
0000
0000
0000
,
0000
0000
1000
0000
,
0000
0000
0001
0000
,
0000
0000
0010
0000
,
0000
0000
0000
0000
,
0000
0000
0010
0000
,
0000
0000
0100
0000
,
0100
0000
0010
0000
,
0000
0000
0000
0000
,
0000
0000
0001
0000
,
0000
0000
1000
0000
,
0000
0000
0010
0000
,
0000
0000
0000
0000
,
0000
0000
0010
0000
,
0000
0000
1000
0000
,
0100
0000
00M0
M000
,
0M00
M000
00M0
0M00
000M
0000
00M0
0M00
,
2002
0000
0000
0000
,
0000
0000
0000
0000
,
3003
0000
0000
0000
;

//---------------dance-single - Geriatric Patrick----------------
#NOTES:
     dance-single:
     Geriatric Patrick:
     Challenge:
     10:
     0.725,0.840,0.586,0.567,0.000:
0000
0000
0000
0000
,
2100
0100
0010
0010
0001
0001
0010
0010
,
0100
0000
0100
0000
0001
0000
0001
0000
0100
0000
0010
0000
0001
0000
0010
3000
,
0101
0001
0000
0000
1100
0001
0000
0001
,
0000
0001
1100
0000
001M
0000
0110
0000
,
0010
1010
0001
0101
,
0001
1001
M100
0110
,
0100
0101
1M00
0100
,
0010
0001
10M1
1000
,
1010
1000
0101
0100
,
0110
0100
1M01
0001
,
0011
0001
11MM
0011
,
1M1M
0000
0101
0000
100M
0100
1000
0100
,
0010
0100
0010
0100
1000
0001
1000
0001
,
0100
0001
0100
0001
10M0
0100
1000
0100
,
1000
0001
1000
0001
01M0
0001
0100
0010
,
1000
0100
1000
0010
M100
0001
0010
0001
,
1000
0100
0010
0100
0001
1000
0010
1000
,
0001
0010
0100
0010
100M
0100
1000
0001
,
0100
0010
0100
0001
1MM0
0100
0010
0100
,
M0M1
0100
0010
0100
200M
0000
0000
0000
,
0000
0000
3001
0001
0200
0000
0000
0000
,
0320
0000
2M30
0000
,
0000
0000
0200
0000
,
0320
0000
0M32
0000
,
0000
0000
3003
0000
0220
0000
0330
2020
,
0000
3030
1100
0000
20M2
0000
3003
0220
,
0000
0330
0011
0000
02M2
0000
0000
0000
,
0000
0000
0303
0000
1M01
0000
1000
0100
,
0000
0100
0010
0000
1001
0000
0001
0100
,
0000
0100
0010
0000
10M1
0000
0100
1000
,
0000
0100
0010
0000
1001
0000
0100
0001
,
0000
0100
0010
0000
12M0
0000
0010
0000
,
0000
0310
10M2
0010
,
0000
0013
1M20
0001
,
0000
0000
0031
0000
0M01
0010
010M
0010
,
1M00
0001
10M0
0100
M110
0000
0001
0000
,
0000
0001
2000
0100
,
3020
0000
0001
0000
023M
0000
0000
0302
,
0000
0000
0023
0000
1000
0000
0000
0100
,
0000
0001
203M
0000
,
0000
0000
0000
3000
0201
0000
0000
0000
,
0010
0000
0000
0300
102M
0000
0000
0100
,
0000
1000
0032
0000
,
0000
0000
0000
0003
22M0
0000
0000
0000
,
0000
0000
0000
0000
,
3300
0000
1M02
0000
,
0100
0000
1000
0000
,
0010
0000
0000
0000
10M3
0100
0010
0001
,
1000
0010
0100
0010
00M1
1000
0100
0010
,
0001
0100
0001
0010
10M0
0001
0010
0001
,
0100
0010
1000
0100
0M01
0010
0100
1000
,
0010
0000
0000
0000
0100
0000
0000
0000
0010
0000
0000
0000
1000
0000
0000
0000
0022
0000
0000
0000
0000
0000
0000
0033
2200
0000
0000
0000
0000
0000
0000
3300
,
0002
0000
0000
0000
0010
0000
0000
0000
2000
0000
0000
0000
0000
0000
0000
3003
M2MM
0000
0000
0000
0000
0000
0000
0000
0000
0000
0000
0000
0000
0000
0000
0000
,
0300
1000
0001
0100
0001
0000
0010
0000
,
1000
0010
00M2
0000
,
0100
0000
0023
0000
,
0000
0000
0031
0100
200M
0000
0000
0000
,
3000
0000
0001
0100
0010
0001
0010
1000
,
0001
0100
0010
1000
0M20
0000
0000
0000
,
0000
0000
1030
0001
M100
0000
1001
0000
,
010M
1001
M200
0000
,
0000
0000
0310
0001
M100
0010
0100
0010
,
1000
0001
1000
0001
M010
0100
1000
0100
,
M010
0001
0100
0001
2M00
0000
0000
0000
,
00M0
0000
3010
0100
M002
0000
0000
0000
,
0003
0000
0100
0001
M010
0100
1000
0001
,
0100
1000
0100
0001
0M20
0000
0000
0000
,
0000
0000
0031
1000
020M
0000
0000
0000
,
M000
0000
0000
0000
0000
0000
0000
0300
10M1
0000
0000
0000
0001
0000
0000
0000
,
0100
0101
1000
1010
,
0010
0110
M001
1001
,
1000
1100
00M1
0100
,
0010
1000
M110
0001
,
0011
0010
1100
1000
,
1010
0010
01M1
0001
,
0011
0010
110M
1001
,
M011
0000
0110
0000
10M0
0100
1000
0100
,
0010
0100
0010
0100
1000
0001
1000
0001
,
0100
0001
0100
0001
0M10
0100
0010
0100
,
1000
0001
1000
0001
M100
0010
1000
0010
,
0100
0001
0010
0001
01M0
0001
0010
0100
,
1000
0001
0010
0100
1000
0010
0100
0001
,
1000
0010
0100
0001
M010
0100
1000
0001
,
0010
0100
1000
0001
M100
0010
0001
0010
,
1M00
0000
0000
0000
0001
0000
0000
0000
0010
0000
0000
0000
0100
0000
0000
0000
2020
0000
0000
0000
0000
0000
0000
0030
0002
3000
0000
0000
0000
0000
0000
0000
,
0200
0003
0000
0000
0002
0000
0000
0003
0020
0300
0000
0000
0200
0000
0000
0300
2000
0030
0000
0000
0000
0000
0000
0000
0001
3000
0000
0000
0100
0000
0000
0000
,
2002
0000
0000
0000
,
0000
0000
0000
0000
,
0000
0000
0000
0000
,
0000
0000
0000
0000
,
0000
0000
0000
0000
,
3003
0000
0000
0000
;

//---------------dance-single - Geriatric Patrick----------------
#NOTES:
     dance-single:
     Geriatric Patrick:
     Hard:
     9:
     0.633,0.708,0.394,0.529,0.000:
0000
0000
0000
0000
,
1000
1000
0010
0010
0100
0100
0001
0001
,
1000
1000
0100
0100
1000
0001
1000
0010
,
0010
0100
0000
0000
1000
0100
0000
0100
,
0000
0100
1000
0000
0010
0000
0110
0000
,
0010
1010
0001
0101
,
0001
1001
0100
1100
,
0100
0110
1000
0100
,
0010
0001
1001
1000
,
1010
1000
0101
0100
,
0110
0100
1001
0001
,
0011
0001
1100
0010
,
0011
0000
0100
0000
1000
0100
1000
0000
,
0100
0010
0100
0000
1000
0001
1000
0000
,
0001
0100
0001
0000
1000
0100
1000
0000
,
0001
1000
0001
0000
0100
0001
1000
0000
,
0001
1000
0010
0000
1000
0100
1000
0000
,
1000
0010
1000
0000
0001
1000
0001
0000
,
0001
0010
0001
0000
1000
0100
1000
0000
,
1000
0001
1000
0000
0100
0010
0001
1000
,
0000
0001
0010
0100
2000
0000
0000
0000
,
0000
0000
3001
0001
0200
0000
0000
0000
,
0320
0000
2030
0000
,
0000
0000
0200
0300
,
0020
0030
3002
0000
,
0000
0000
0003
0000
0120
0000
0000
2030
,
0000
0000
3100
0000
1002
0000
0000
0023
,
0000
0031
0202
0000
,
0000
0303
1001
0010
,
0000
0000
0010
0000
0101
0000
0001
1000
,
0000
1000
0001
0000
0101
0000
0010
0000
,
0000
0000
0010
0000
1001
0000
0001
0010
,
0000
0010
0001
0000
0201
0000
0010
0000
,
0000
0310
1002
0010
,
0000
0013
2100
0010
,
0000
0000
3010
0000
0001
0000
0100
0010
,
0000
0010
1000
0001
1000
0000
0001
0000
,
0000
0001
2000
0000
,
3020
0000
0000
0000
0230
0000
0000
0302
,
0000
0000
0023
0000
1000
0000
0000
0100
,
0000
0001
0032
0000
,
0000
0000
0203
0000
,
0310
0000
0000
0000
1020
0000
0000
0100
,
0000
1000
0230
0000
,
0000
0300
0202
0000
,
0000
0000
0000
0000
,
0303
0000
2000
0000
,
3200
0000
0320
0000
,
0032
0000
0000
0000
1003
0010
0100
0001
,
1000
0010
0100
0001
1000
0100
0010
0001
,
1000
0100
0010
0001
1000
0010
0100
0010
,
1000
0001
0100
0001
1000
0001
0010
0001
,
1000
0100
0010
0100
0002
0000
0203
0000
,
2300
0010
3002
0000
0203
0000
0000
0000
,
0300
1000
0001
0100
0001
0000
0010
0000
,
1000
0010
0002
0000
,
0100
0000
0023
0000
,
0000
0000
0031
0100
0002
0000
0000
0000
,
0000
0000
1003
0100
0010
0100
1000
0001
,
0010
0100
1000
0100
0020
0000
0000
0000
,
0000
0000
0031
0010
0200
0000
1000
0000
,
0000
1300
0002
0000
,
0000
0000
0103
0010
1000
0000
1000
0000
,
0100
0000
0100
0000
1000
0001
1000
0001
,
0100
0001
0100
0001
0020
0000
0000
0000
,
0000
0000
0031
0100
0002
0000
0000
0000
,
0003
0000
0100
0001
1000
0001
0100
0001
,
1000
0100
1000
0000
0020
0000
0000
0000
,
0000
0000
0031
0010
0200
0000
0000
0000
,
0000
0300
1000
1001
,
0001
0011
1000
1010
,
0001
0101
1000
1100
,
0010
0110
1000
0100
,
0001
0010
0110
0010
,
0011
0001
1100
1000
,
1010
0010
0101
0001
,
1001
1000
1100
0001
,
0110
0000
0001
0000
1000
0100
1000
0000
,
0010
0100
0010
0000
1000
0001
1000
0000
,
0001
0100
0001
0000
1000
0010
1000
0000
,
0001
1000
0001
0000
0001
0100
0010
0000
,
0100
0010
1000
0000
0001
0100
0001
0000
,
1000
0010
1000
0000
0010
0100
0010
0000
,
1000
0001
1000
0000
0100
1000
0100
0000
,
0010
0001
0010
0000
1000
0100
1000
0001
,
0100
0010
0100
0001
0020
0000
0032
0000
,
0203
0302
0023
0230
2300
0000
3001
0100
,
2002
0000
0000
0000
,
0000
0000
0000
0000
,
0000
0000
0000
0000
,
0000
0000
0000
0000
,
0000
0000
0000
0000
,
3003
0000
0000
0000
;

//---------------dance-single - Geriatric Patrick----------------
#NOTES:
     dance-single:
     Geriatric Patrick:
     Medium:
     7:
     0.411,0.354,0.087,0.433,0.000:
0000
0000
0000
0000
,
2002
0000
0000
0000
,
0000
0000
0000
0000
,
3013
0000
0000
0000
1001
0000
0000
0100
,
0000
0110
0010
0001
,
1000
1000
0010
0100
,
0001
0001
0010
0100
,
1000
1000
0001
0100
,
0010
1000
0001
0001
,
0010
0100
1000
1000
,
0100
0010
0001
0001
,
1000
0010
0100
0001
,
0010
0001
1000
0100
,
0010
0001
1000
0010
,
0100
0001
1000
0100
,
0010
0001
0100
0001
,
0010
0100
1000
1000
,
0010
0010
0100
0100
,
0001
0001
1000
1000
,
0100
0100
1000
0010
,
0001
0010
0200
0000
,
0000
1300
0002
0000
,
0023
0000
0230
0000
,
0000
0000
0001
0000
,
0010
0000
2300
0000
,
0000
0000
0000
0000
3200
0000
0000
0302
,
0000
0000
0103
0000
0020
0000
0000
0032
,
0000
0013
2000
0000
,
0000
3000
0120
0000
,
0000
0031
2000
0000
,
3010
0000
0210
0000
,
0000
0000
1000
0000
,
0310
0000
2010
0000
,
3000
0000
0000
0000
0102
0000
0000
0100
,
0000
0000
0103
0000
0020
0000
0000
2030
,
0000
3010
0100
0001
,
0010
0001
0100
0000
,
0000
0000
2000
0000
,
3020
0000
0000
0000
1030
0000
0000
0100
,
0000
0000
0010
0000
0002
0000
0000
0010
,
0000
1000
2003
0000
,
0000
0000
3200
0000
,
1000
0000
0000
0000
0320
0000
0000
0100
,
0000
0001
0032
0000
,
0000
0003
0202
0000
,
0000
0000
0000
0000
,
0303
0000
2000
0000
,
3200
0000
0320
0000
,
0032
0000
1003
0010
,
1000
0010
0100
0010
,
0100
0010
1000
0001
,
0010
0001
1000
0100
,
0010
0001
0000
0000
,
0000
0000
0200
0000
,
0300
1000
0010
1000
,
0100
1000
0002
0000
,
0100
0000
0023
0000
,
0000
0031
2000
0000
,
3000
0001
0100
0001
,
0010
0100
0020
0000
,
0000
0031
2000
0000
,
0000
3001
0200
0000
,
0000
0301
0010
0100
,
1000
0001
0100
0001
,
1000
0100
0020
0000
,
0000
0031
0200
0000
,
0300
0001
1000
0100
,
1000
0010
0002
0000
,
0000
0013
2000
0000
,
0000
3000
0001
0001
,
0010
0100
1000
1000
,
0001
0100
0010
0010
,
1000
0001
1000
0100
,
0010
0001
1000
1000
,
0010
0010
0100
0100
,
0001
0001
1000
1000
,
0100
0100
1000
0001
,
0010
0001
1000
0100
,
0010
0001
1000
0010
,
0100
0001
1000
0100
,
0010
0001
0100
0001
,
0010
0100
1000
1000
,
0010
0010
0100
0100
,
0001
0001
0100
0100
,
0010
0010
0100
0001
,
0010
0001
0000
0000
,
0000
0000
0000
0000
,
2002
0000
0000
0000
,
0000
0000
0000
0000
,
0000
0000
0000
0000
,
0000
0000
0000
0000
,
0000
0000
0000
0000
,
3003
0000
0000
0000
;
