#TITLE:Anthem;
#SUBTITLE:;
#ARTIST:Perdique Darron;
#TITLETRANSLIT:;
#SUBTITLETRANSLIT:;
#ARTISTTRANSLIT:;
#GENRE:;
#CREDIT:nvwls300;
#BANNER:anthem.png;
#BACKGROUND:anthem-bg.png;
#LYRICSPATH:;
#CDTITLE:foamysminionCD.png;
#MUSIC:anthem.ogg;
#OFFSET:1.385;
#SAMPLESTART:45.120;
#SAMPLELENGTH:13.600;
#SELECTABLE:YES;
#BPMS:0.000=170.000,35.000=-170.141,35.438=170.140,162.063=-170.141,162.500=170.140,194.063=-170.141,194.500=170.140;
#STOPS:35.875=0.315
,130.000=0.353
,162.938=0.309
,194.938=0.309
;
#BGCHANGES:0.000=Anthem-bg.jpg=1.000=1=0=0=StretchNoLoop==CrossFade==,
99999=-nosongbg-=1.000=0=0=0 // don't automatically add -songbackground-
;
#KEYSOUNDS:;

//---------------dance-single - nvwls300----------------
#NOTES:
     dance-single:
     nvwls300:
     Challenge:
     9:
     0.662,0.609,0.461,0.022,0.291:
0000
0000
0000
0000
,
0000
0000
0000
0000
,
0000
0000
0000
0000
,
0000
0000
0000
0000
,
0000
0000
0000
0000
,
0001
0001
0000
0001
1000
0100
1000
0100
,
0010
0010
0000
0010
0001
0100
0001
0100
,
0010
0000
0000
1000
0010
1000
0010
0000
0000
1000
0000
0000
0010
0000
0000
1000
0000
0000
0100
0000
0000
1000
0000
0000
,
0001
0001
0000
0100
0010
0010
0000
0000
,
0001
0000
0110
0100
0000
1000
1010
0000
,
0000
1000
0010
1000
0000
0001
0010
0001
,
0001
0000
0011
0001
0000
0100
0110
0000
,
0000
0001
0010
0001
0000
1000
0010
0100
,
0101
0000
0010
0101
0000
0101
0010
0000
,
0000
1000
0010
0100
0000
0001
0010
0001
,
1100
0000
0010
1100
0000
1100
0010
0000
,
0000
0001
0010
0100
0000
0100
0010
0000
,
1001
0000
0001
0100
0000
0100
1000
0010
,
0000
0000
0010
0000
0100
0000
0000
0000
0100
0000
0010
1000
0010
0000
0100
0000
,
0010
0000
1000
0100
0000
0100
0010
0001
,
0010
0000
0001
0100
0000
0100
0010
1000
,
0010
0000
0001
0100
0000
1000
0001
0010
,
0000
0000
0001
0000
1000
0000
0000
0000
1000
0000
0010
0100
0010
0000
1000
0000
,
0001
0000
1000
0100
0000
1000
0010
0100
,
0010
0000
0010
0100
0000
0100
0010
0100
,
0001
0000
1000
0010
0000
0010
0100
0000
,
0100
0000
0001
0000
0000
0000
0001
0000
0010
0000
0001
0100
0001
0000
0100
0000
,
1000
0000
1000
0010
0000
0010
0000
0100
,
0001
0000
0001
0010
0000
0010
0000
0001
,
0100
0000
1000
0010
0000
0010
1000
0000
,
0001
0000
0100
0000
0000
0000
0001
0000
0010
0000
0100
1000
0100
0000
1000
0000
,
0001
0000
1000
0010
0000
0010
1000
0100
,
1000
0000
0000
0000
1000
0001
0010
0001
1000
0000
0000
0000
0110
0000
0000
0000
,
0101
1010
0101
1001
,
1100
0011
1100
1010
,
0011
1010
0110
0101
,
0101
0011
0011
M11M
,
1100
0011
1100
1MM1
,
0101
1010
0101
M011
,
101M
M011
0110
11M0
,
11M0
0000
0000
1M10
0000
0000
0001
0000
0000
1000
0000
0100
,
0010
0000
0010
0001
0000
0100
0001
0000
0100
0001
0000
1000
,
0100
0000
0100
0010
0000
0001
0100
0000
0001
0010
0000
0000
,
0010
0000
0001
1000
0000
0000
1000
0000
0001
0010
0000
0001
,
0010
0000
0001
1000
0000
1000
0001
0000
0001
0100
0000
0001
,
1000
0000
0001
0010
0000
0100
0010
0000
0010
0100
0000
1000
,
0001
0000
1000
0010
0000
0100
0010
0000
0010
1000
0000
0000
,
1000
0000
0001
0100
0000
0000
0100
0000
0001
0010
0000
1000
,
0010
0000
0010
0100
0000
0001
0010
0000
0000
1000
0000
0100
,
1000
0000
0100
0010
0000
0010
0001
0000
0001
0100
0000
0001
,
0100
0000
0000
0000
0001
0000
0010
0000
0000
0000
0010
0000
0001
0000
0000
0000
0001
0000
1000
0000
0000
0010
0000
0000
,
1000
0100
0010
0001
0010
0100
1000
0010
,
1000
0001
0100
0010
0100
0001
1000
0100
,
1000
0100
0010
0001
0100
0001
1000
0010
,
1000
0000
0000
0010
0000
0000
0100
0000
0000
0001
0000
0000
0010
0000
0000
0001
0000
0000
0010
0000
0000
0000
0100
0000
,
1000
0000
1000
0001
0000
0100
0001
0000
0001
0010
0000
0100
,
1000
0000
0000
0000
1000
0000
0002
0000
0000
0000
0000
0000
0103
0000
0000
0000
0000
0000
1000
0000
0000
0100
0000
0000
,
0000
0000
0010
0001
0010
0000
0000
0000
0100
0000
0000
0000
0001
0000
0100
0000
,
0000
0000
1000
0010
1000
0000
0000
0000
0100
0000
0000
0000
0010
0000
1000
0000
,
0010
0001
1000
0100
1000
0001
0010
1000
,
0010
0001
0000
1000
0001
0010
0001
0100
,
0000
0000
1000
0010
1000
0000
0000
0000
0100
0000
0000
0000
0010
0000
0100
0000
,
0000
0000
1000
0001
1000
0000
0000
0000
0100
0000
0000
0000
0010
0000
1000
0000
,
0010
0001
1000
0100
1000
0001
0010
1000
,
0010
0001
0000
1000
0001
0010
0200
M000
,
0000
00M0
030M
0000
0000
0000
0000
0000
;

//---------------dance-single - nvwls300----------------
#NOTES:
     dance-single:
     nvwls300:
     Hard:
     8:
     0.614,0.573,0.352,0.022,0.209:
0000
0000
0000
0000
,
0000
0000
0000
0000
,
0000
0000
0000
0000
,
0000
0000
0000
0000
,
0000
0000
0000
0000
,
1000
0010
0000
0010
1000
0100
1000
0100
,
0010
0001
0000
0001
0100
0001
0100
0010
,
1000
0000
1000
0010
1000
1000
0001
0100
,
0001
0001
0000
1000
0001
1000
0000
0000
,
0001
0000
0010
0100
0000
0100
0010
0000
,
0000
0100
1000
0100
0000
0100
1000
0001
,
0001
0000
0010
0001
0000
0001
1000
0000
,
0000
0001
0010
0001
0000
1000
0010
1000
,
0001
0000
0010
0100
0000
1000
0010
0000
,
0000
0001
0010
0001
0000
1000
0010
0100
,
0100
0000
0010
1000
0000
0100
0010
0000
,
0000
0100
1000
0100
0000
0100
1000
0000
,
1001
0000
0001
0100
0000
0100
0001
0010
,
0000
0010
0100
0000
0100
0010
0000
0100
,
0010
0000
1000
0100
0000
0100
0010
0001
,
0010
0000
0010
0100
0000
1000
0010
0100
,
0010
0000
0010
1000
0000
1000
0001
0010
,
0000
0010
0001
0000
1000
0010
0000
0100
,
0010
0000
1000
0100
0000
1000
0010
0100
,
0010
0000
0010
0100
0000
0100
0010
0100
,
0001
0000
1000
0010
0000
0010
1000
0000
,
1000
0001
0000
0001
0010
0000
1000
0100
,
1000
0000
0001
0010
0000
0010
0000
1000
,
0100
0000
0001
0010
0000
0010
0000
0001
,
0100
0000
1000
0010
0000
0010
1000
0000
,
0001
0100
0000
0100
0010
0000
0100
0001
,
0100
0000
0100
0010
0000
0010
1000
0100
,
1000
0000
0000
0000
1000
0000
0001
0100
0001
0000
0000
0000
1100
0000
0000
0000
,
1100
1001
0101
0110
,
0110
0101
1001
1010
,
0110
1010
1001
0101
,
0101
0110
0110
0101
,
0101
1001
1100
0110
,
0110
1100
1001
0011
,
0110
0011
1001
1100
,
1100
0000
0000
0110
0000
0000
0001
0000
0000
1000
0000
1000
,
0100
0000
0100
0010
0000
0000
1000
0000
1000
0001
0000
0001
,
0100
0000
0100
0010
0000
0000
0100
0000
0001
0010
0000
0000
,
0010
0000
0001
1000
0000
0000
1000
0000
0001
0010
0000
0000
,
0010
0000
0001
1000
0000
0000
1000
0000
0001
0100
0000
0100
,
0010
0000
0010
1000
0000
0000
0001
0000
0001
0010
0000
0010
,
0100
0000
0100
1000
0000
0000
0001
0000
0001
1000
0000
0000
,
1000
0000
0001
0100
0000
0000
0100
0000
0001
1000
0000
0000
,
1000
0000
0001
0100
0000
0000
0001
0000
0000
1000
0000
0001
,
1000
0000
0001
0100
0000
0001
0100
0000
0001
0010
0000
0001
,
0010
0000
0000
0000
0001
0000
0100
0000
0000
0000
0001
0000
0100
0000
0000
0000
0001
0000
0010
0000
0000
0100
0000
0000
,
0010
0100
1000
0100
1000
0100
0010
0100
,
0010
0100
1000
0100
0010
0001
1000
0001
,
1000
0001
0100
0001
0100
0001
0010
0001
,
0010
0000
0000
0001
0000
0000
0100
0000
0000
0001
0000
0000
0100
0000
0000
0001
0000
0000
0010
0000
0000
0000
0010
0000
,
0100
0000
0100
1000
0000
1000
0100
0000
0100
0010
0000
0010
,
0100
0000
0000
0000
0100
0000
2000
0000
0000
0000
0000
0000
3000
0000
0000
0000
0000
0000
0001
0000
0000
0010
0000
0000
,
0000
0000
1000
0100
1000
0000
0000
0000
0001
0000
0000
0000
1000
0000
0100
0000
,
0000
0000
0001
0010
0001
0000
0000
0000
0100
0000
0000
0000
0010
0000
1000
0000
,
0010
1000
0100
0010
0100
1000
0010
1000
,
0100
0010
0000
0100
1000
0100
0010
0001
,
0000
0000
1000
0100
1000
0000
0000
0000
0100
0000
0000
0000
0001
0000
0100
0000
,
0000
0000
1000
0010
1000
0000
0000
0000
0001
0000
0000
0000
0010
0000
0100
0000
,
0010
0100
1000
0001
1000
0001
0100
0010
,
0100
0001
0000
0100
0010
1000
0002
0000
,
0000
M003
0000
0000
;

//---------------dance-single - nvwls300----------------
#NOTES:
     dance-single:
     nvwls300:
     Medium:
     6:
     0.433,0.498,0.033,0.011,0.011:
0000
0000
0000
0000
,
0000
0000
0000
0000
,
0000
0000
0000
0000
,
0000
0000
0000
0000
,
0000
0000
0000
0000
,
1000
0001
0000
0001
0100
0000
0001
0000
,
0010
0100
0000
0100
0010
0000
1000
0000
,
0001
0000
0001
0100
0001
0000
1000
0000
,
0100
0010
0000
0010
0001
0010
0000
0000
,
0110
0000
0000
0100
0000
0100
0000
0000
,
0000
1000
0000
1000
0000
1000
0000
0001
,
0001
0000
0000
0010
0000
0010
0000
0000
,
0000
0100
0000
0100
0000
0010
0000
0001
,
1000
0000
0000
0010
0000
0001
0000
0000
,
0000
0010
0000
1000
0000
1000
0000
0001
,
0100
0000
0000
0010
0000
0010
0000
0000
,
0000
0100
0000
0100
0000
0001
1000
0000
,
1001
0000
0001
0100
0000
0100
0001
0010
,
0000
0000
0100
0000
0100
0010
0000
0000
,
0001
0000
1000
0100
0000
0100
0010
0000
,
0010
0000
0100
1000
0000
1000
0001
0000
,
0001
0000
0001
0100
0000
0100
0001
0010
,
0000
0000
0100
0000
0100
0010
0000
0000
,
0001
0000
1000
0100
0000
0100
0010
0000
,
0010
0000
0100
1000
0000
1000
0001
0000
,
1000
0000
1000
0010
0000
0010
0100
0000
,
0100
0001
0000
0001
0010
0000
0001
0000
,
1000
0000
1000
0010
0000
0010
0000
0000
,
0001
0000
0001
0010
0000
0010
0000
0000
,
1000
0000
1000
0010
0000
0010
0100
0000
,
0100
0001
0000
0001
0010
0000
0001
0000
,
0100
0000
0100
0010
0000
0010
0000
0010
,
0100
0000
0100
0010
0000
0000
1000
0000
,
0100
1000
0001
0010
,
0100
0010
0001
0100
,
0100
0010
1000
0001
,
0001
0010
0100
1000
,
0001
0100
0001
0010
,
0001
0100
0001
0010
,
0010
0100
0100
1000
,
0001
1000
1001
0100
,
0010
0001
0000
0100
,
0010
1000
0100
0010
,
0010
0100
1000
0010
,
0010
1000
0100
0010
,
0001
1000
0000
1000
,
0001
0010
0100
0010
,
0010
0001
0100
0010
,
0010
1000
0001
1000
,
1000
0100
0100
0010
,
0010
0000
0100
0000
0100
0000
1000
0001
,
1000
0001
0100
0001
0100
0001
1000
0001
,
1000
0001
0100
0000
0010
0000
1000
0100
,
1000
0100
1000
0001
1000
0001
1000
0010
,
1000
0010
1000
0001
1000
0001
0010
0000
,
0010
0100
1000
0010
,
0010
0000
0200
0000
0300
0000
0001
0010
,
0000
0000
1000
0000
0100
0000
1000
0010
,
0000
0000
0001
0000
0100
0000
0010
0100
,
0010
0000
1000
0100
1000
0000
0001
0100
,
0001
1000
0000
0001
0100
0000
0100
0000
,
0000
0000
0001
1000
0001
0000
0000
0000
0100
0000
0000
0000
0010
0000
0000
0000
,
0000
0000
1000
0001
1000
0000
0000
0000
0100
0000
0000
0000
0010
0000
0100
0000
,
0010
0000
0001
0100
0001
0000
1000
0100
,
0010
0001
0000
0010
0100
1000
0M00
0000
;
